osu file format v9

[General]
AudioFilename: those who hunt elves - tensai wa saigo ni yattekuru (naoko hamasaki).mp3
AudioLeadIn: 0
PreviewTime: 60450
Countdown: 0
SampleSet: Normal
StackLeniency: 0.7
Mode: 0
LetterboxInBreaks: 1

[Editor]
Bookmarks: 3683,18297,32503,46276,60454,74660,88894,103072,117279,124826,152822,167028,202544
DistanceSpacing: 1
BeatDivisor: 4
GridSize: 8

[Metadata]
Title:Tensai Wa Saigo Yattekuru
Artist:Naoko Hamasaki
Creator:roxkyuubiforever
Version:Hard
Source:Those Who Hunt Elves
Tags:ending ed thwe

[Difficulty]
HPDrainRate:6
CircleSize:4
OverallDifficulty:7
ApproachRate:8
SliderMultiplier:1.8
SliderTickRate:0.5

[Events]
//Background and Video events
0,0,"TWHE.jpg"
//Break Periods
2,18070,31327
2,89101,102358
2,153029,166286
//Storyboard Layer 0 (Background)
//Storyboard Layer 1 (Fail)
//Storyboard Layer 2 (Pass)
//Storyboard Layer 3 (Foreground)
//Storyboard Sound Samples
//Background Colour Transformations
3,100,209,164,255

[TimingPoints]
113,443.944444444445,4,1,0,40,1,0
60489,-100,4,1,0,40,0,1
67148,-100,4,1,0,40,0,0
74695,-100,4,1,0,40,0,1
81798,-100,4,1,0,40,0,0
117298,-200,4,1,0,20,0,0
120199,-100,4,1,0,40,0,0
167036,-100,4,1,0,40,0,1
173695,-100,4,1,0,40,0,0
181242,-100,4,1,0,40,0,1
187901,-100,4,1,0,40,0,0
202551,-100,4,1,0,40,0,1
202662,-100,4,1,0,40,0,0

[Colours]
Combo1 : 60,60,255
Combo2 : 255,255,128
Combo3 : 201,147,255
Combo4 : 128,255,0

[HitObjects]
144,40,3664,2,0,B|64:80|72:192,1,180,0|8
128,264,4330,1,0
128,264,4441,2,0,B|264:248,1,135,8|0
336,296,4996,1,8
336,296,5440,6,0,B|368:208|336:120,1,180,0|8
256,80,6106,1,0
256,80,6217,1,8
216,160,6439,1,8
216,160,6550,2,0,B|112:176,1,90,0|8
64,240,6994,1,0
64,240,7105,1,8
64,240,7216,6,0,B|104:320|208:336,1,180,0|8
288,296,7882,1,0
288,296,7993,2,0,B|280:144,1,135,8|0
216,96,8547,1,8
216,96,8991,6,0,B|304:64|400:88,1,180,0|8
464,144,9657,1,0
464,144,9768,1,8
392,200,9990,1,8
392,200,10101,2,0,B|400:304,1,90,0|8
352,368,10545,1,0
280,312,10767,6,0,B|200:280|96:296,1,180,4|8
80,208,11433,1,0
80,208,11544,2,0,B|216:200,1,135,8|0
280,144,12099,1,8
280,144,12543,6,0,B|216:72|112:72,1,180,0|8
56,136,13209,1,0
56,136,13320,1,8
128,192,13542,1,8
128,192,13653,2,0,B|112:280,1,90,0|8
168,352,14097,1,0
240,296,14319,6,0,B|424:304,1,180,0|8
464,224,14985,1,0
464,224,15096,1,0
464,224,15207,1,8
464,224,15318,1,0
464,224,15429,1,0
408,152,15651,1,0
408,152,15873,2,0,B|312:128|224:176,1,180,8|0
144,152,16538,2,0,B|128:240,1,90,8|0
144,328,16982,5,0
176,320,17093,1,0
208,312,17204,1,0
240,304,17315,1,0
272,296,17426,1,0
304,288,17537,1,0
336,280,17648,1,0
368,272,17759,1,0
400,264,17870,1,4
256,48,32077,5,4
288,248,32520,5,8
288,248,32742,1,0
264,336,32964,2,0,B|352:368|440:336,1,180,0|8
312,160,33630,2,0,B|224:128|136:160,1,180
48,144,34296,1,8
48,144,34518,2,0,B|80:328,1,180,0|0
168,336,35184,2,0,B|272:320,1,90,8|0
256,240,35628,6,0,B|280:144|224:56,1,180,0|8
352,176,36294,2,0,B|328:272|384:360,1,180
464,352,36960,2,0,B|472:256,1,90,8|0
448,176,37404,6,0,B|360:144|264:176,1,180,0|8
184,152,38070,1,0
184,152,38292,2,0,B|192:256,1,90
288,160,38736,2,0,B|280:56,1,90,8|0
208,16,39180,6,0,B|112:8|40:72,1,180,4|8
48,160,39846,2,0,B|136:184,1,90
168,272,40289,1,0
168,272,40511,2,0,B|360:256,1,180,8|0
384,168,41177,5,0
384,168,41288,1,0
384,168,41399,2,0,B|376:72,1,90,8|0
288,192,41843,2,0,B|296:288,1,90
224,336,42287,1,8
224,336,42731,6,0,B|128:368|48:320,1,180,0|8
208,248,43397,2,0,B|304:216|384:264,1,180
472,264,44063,2,0,B|488:168,1,90,8|0
408,128,44507,2,0,B|376:312,1,180,0|8
288,288,45173,1,0
216,344,45395,5,0
144,288,45617,1,8
104,208,45839,1,8
96,120,46061,1,8
96,120,46172,1,0
96,120,46283,1,4
328,112,46727,6,0,B|360:200|328:288,1,180,8|0
240,264,47393,1,0
240,264,47615,1,8
152,240,47837,2,0,B|120:152|152:64,1,180
240,40,48502,2,0,B|344:56,1,90,8|0
408,152,48946,2,0,B|312:160,1,90
256,232,49390,1,8
256,232,49834,6,0,B|224:144|256:56,1,180,0|8
344,24,50500,2,0,B|440:48,1,90,0|0
488,120,50944,1,0
488,120,51055,1,0
488,120,51166,1,8
424,184,51388,1,0
344,136,51610,6,0,B|256:96|160:128,1,180,0|8
80,112,52276,2,0,B|88:208,1,90,0|0
40,280,52720,1,0
40,280,52831,1,0
40,280,52942,1,8
128,312,53164,1,0
128,312,53386,6,0,B|216:280|320:312,1,180,4|8
352,232,54052,1,0
352,232,54274,2,0,B|168:200,1,180,0|8
88,232,54940,2,0,B|64:128|120:56,1,180
200,96,55606,1,8
200,96,55828,2,0,B|224:280,1,180
304,312,56493,2,0,B|392:296,1,90,8|0
448,224,56937,5,0
408,48,57381,1,4
232,32,57825,1,0
80,128,58269,1,4
120,304,58713,1,0
296,320,59157,1,4
400,176,59601,5,0
400,176,59712,1,8
400,176,59823,2,8,B|312:152,1,90,0|8
280,64,60267,1,0
280,64,60378,1,8
280,64,60489,6,0,B|184:40|104:88,1,180,4|8
184,168,61155,2,0,B|128:240|160:344,1,180
264,352,61821,1,8
264,352,62043,6,0,B|456:304,1,180
424,200,62709,2,0,B|408:104,1,90,8|0
312,168,63153,2,0,B|296:272,1,90,0|0
272,360,63597,1,8
272,360,63819,1,0
200,288,64040,6,0,B|160:200|200:112,1,180,0|8
384,56,64706,2,0,B|424:144|384:232,1,180,0|0
296,168,65372,5,8
296,168,65594,2,0,B|256:256|296:344,1,180,0|0
80,256,66260,1,8
80,256,66482,2,0,B|120:168|80:80,1,180,0|0
168,16,67148,5,8
168,16,67370,1,0
200,120,67592,2,0,B|256:48|360:48,1,180,0|8
336,152,68258,2,0,B|432:176|456:288,1,180
352,320,68924,1,8
352,320,69146,6,0,B|160:352,1,180
80,296,69812,2,0,B|72:200,1,90,8|0
176,112,70256,2,0,B|184:208,1,90
224,304,70700,1,8
224,304,70922,1,0
288,224,71144,6,0,B|256:136|288:48,1,180,0|8
168,152,71810,2,0,B|200:240|168:328,1,180,0|0
64,344,72475,2,0,B|56:240,1,90,8|0
24,152,72919,6,0,B|208:120,1,180,0|8
256,32,73585,1,0
360,56,73807,1,0
360,56,73918,1,8
360,56,74029,2,0,B|344:144,1,90,0|8
448,176,74473,1,0
448,176,74584,1,8
448,176,74695,6,0,B|448:272|344:312,1,180,4|8
296,216,75361,2,0,B|192:224|152:112,1,180
216,32,76027,1,8
216,32,76249,6,0,B|400:40,1,180
448,136,76915,2,0,B|328:128,1,90,8|0
272,216,77359,2,0,B|392:224,1,90
448,288,77803,1,8
448,288,78025,1,0
352,320,78247,6,0,B|264:352|176:320,1,180,0|8
296,160,78913,2,0,B|384:128|472:160,1,180,0|0
408,248,79579,5,8
408,248,79801,2,0,B|320:280|232:248,1,180,0|0
56,80,80466,1,8
56,80,80688,2,0,B|144:48|232:80,1,180,0|0
336,64,81354,2,0,B|352:160,1,90,8|0
456,136,81798,6,0,B|488:240|384:296,1,180,0|8
320,368,82464,2,0,B|224:352|208:240,1,180
104,240,83130,1,8
104,240,83352,2,0,B|104:128|200:88,1,180,0|0
280,32,84018,6,0,B|376:48,1,90,8|0
480,128,84462,2,0,B|384:144,1,90
296,200,84906,1,8
296,200,85128,1,0
240,296,85350,6,0,B|152:328|64:296,1,180,4|0
296,200,86238,2,0,B|384:168|472:200,1,180,4|0
248,104,87126,2,0,B|160:136|72:104,1,180,4|0
16,200,87792,5,0
120,216,88013,1,0
104,320,88235,1,0
208,344,88457,1,0
232,336,88568,1,0
256,328,88679,1,0
280,320,88790,1,0
304,312,88901,1,4
152,312,103108,6,0,B|120:224|152:136,1,180,0|8
240,112,103774,1,0
240,112,103885,2,0,B|264:256,1,135,8|0
320,312,104439,2,0,B|416:296,1,90,8|0
424,208,104883,2,0,B|328:224,1,90
264,176,105327,5,8
208,104,105549,1,0
208,104,105660,1,8
120,136,105882,1,8
120,136,105993,1,0
120,224,106215,1,8
208,256,106437,1,0
240,344,106659,6,0,B|424:312,1,180,0|8
440,224,107325,1,0
440,224,107436,2,0,B|296:208,1,135,8|0
296,120,107991,1,8
296,120,108213,1,0
208,96,108435,6,0,B|152:176|208:264,1,180,0|8
296,280,109101,1,0
296,280,109212,1,8
336,200,109434,1,8
336,200,109545,2,0,B|432:184,1,90,0|8
456,96,109989,1,0
392,32,110211,6,0,B|288:24|216:80,1,180,0|8
136,56,110877,1,0
136,56,110988,2,0,B|144:200,1,135,8|0
192,264,111543,2,0,B|296:256,1,90,8|0
336,168,111986,2,0,B|232:176,1,90
216,88,112430,5,8
128,64,112652,1,0
128,64,112763,1,8
64,128,112985,1,8
64,128,113096,2,0,B|64:224,1,90,0|8
120,288,113540,1,0
120,288,113762,6,0,B|208:256|296:288,1,180,0|8
376,336,114428,1,0
376,336,114539,2,0,B|416:184,1,135,8|0
328,168,115094,2,0,B|352:72,1,90,8|0
272,32,115538,1,0
184,32,115760,5,0
88,80,115982,1,0
56,184,116204,1,0
80,288,116426,1,0
104,288,116537,1,0
128,288,116648,1,0
152,288,116759,1,0
176,288,116870,1,0
200,288,116981,1,0
224,288,117092,1,0
248,288,117203,1,0
272,288,117314,6,0,B|317:279|360:288,1,90,0|8
176,184,118202,2,0,B|131:175|88:184,1,90,0|8
296,96,119090,2,0,B|341:87|384:96,1,90,0|8
88,56,119977,1,0
24,256,120421,5,8
24,256,120865,2,0,B|112:224|200:256,1,180,0|8
264,192,121531,1,0
264,192,121642,2,0,B|256:56,1,135,8|0
344,48,122197,1,8
344,48,122419,1,0
328,136,122641,6,0,B|240:104|144:128,1,180,0|8
80,72,123307,1,0
24,144,123529,1,0
32,168,123640,1,0
40,192,123751,1,0
48,216,123862,1,0
56,240,123973,1,0
64,264,124084,1,0
72,288,124195,1,0
80,312,124306,1,0
88,336,124417,6,0,B|176:320|272:336,1,180,4|8
352,296,125083,1,0
352,296,125305,2,0,B|344:200,1,90
272,152,125749,1,8
200,96,125971,6,0,B|160:184|208:288,1,180
408,216,126637,1,8
408,216,126859,2,0,B|448:128|400:24,1,180
320,16,127525,2,0,B|296:104,1,90,8|0
296,192,127968,6,0,B|208:168|112:192,1,180,0|8
40,144,128634,2,0,B|24:328,1,180
104,360,129300,1,8
104,360,129522,1,0
144,280,129744,6,0,B|112:192|144:104,1,180,0|8
224,64,130410,1,0
272,144,130632,2,0,B|384:136,1,90
256,232,131076,2,0,B|144:240,1,90,8|0
120,312,131520,1,0
40,208,131853,5,0
40,208,131964,2,0,B|56:104,1,90,8|0
128,64,132408,1,0
128,64,132630,1,0
184,136,132852,2,0,B|272:104|360:136,1,180,8|0
432,248,133629,5,0
432,248,133740,2,0,B|336:264,1,90,8|0
328,176,134184,2,0,B|232:160,1,90,0|0
248,72,134628,1,8
248,72,134850,1,0
160,48,135072,6,0,B|120:128|160:224,1,180,0|8
352,336,135738,2,0,B|392:256|352:160,1,180
440,128,136403,2,0,B|424:40,1,90,8|0
336,24,136847,6,0,B|240:16|152:48,1,180,0|8
72,56,137513,1,0
48,144,137735,1,0
48,144,137846,1,0
48,144,137957,2,0,B|136:160,1,90,0|8
192,232,138401,1,0
192,232,138623,1,4
368,256,139067,5,8
368,256,139289,1,0
456,224,139511,2,0,B|488:136|456:48,1,180,0|8
272,112,140177,2,0,B|240:200|272:288,1,180
344,232,140843,5,8
344,232,141065,2,0,B|152:192,1,180
104,128,141731,1,8
104,128,141953,1,0
136,48,142175,6,0,B|224:24|320:48,1,180,0|8
400,16,142841,2,0,B|376:200,1,180
352,280,143507,2,0,B|256:288,1,90,8|0
216,208,143950,6,0,B|304:168|408:192,1,180,0|8
440,264,144616,1,0
480,184,144838,2,0,B|480:88,1,90
392,0,145282,2,0,B|392:96,1,90,8|0
304,104,145726,1,0
184,40,146059,5,0
184,40,146170,2,0,B|96:56,1,90,8|0
32,120,146614,1,0
112,160,146836,1,0
112,160,147058,2,0,B|96:256|144:336,1,180,8|0
280,352,147835,5,0
280,352,147946,2,0,B|296:256,1,90,8|0
384,264,148390,2,0,B|368:168,1,90
456,160,148834,1,8
456,160,149056,1,0
464,72,149278,6,0,B|376:32|272:72,1,180,0|8
216,16,149944,2,0,B|136:64|120:168,1,180
32,192,150610,1,8
32,192,150832,1,0
48,280,151054,2,0,B|232:304,1,180,0|8
296,240,151720,1,0
240,168,151942,5,0
320,128,152163,1,8
400,160,152385,1,8
416,248,152607,1,0
416,248,152718,1,0
416,248,152829,1,4
56,104,167036,6,0,B|32:200|72:280,1,180,4|8
168,232,167702,2,0,B|216:312|328:312,1,180
424,280,168367,1,8
424,280,168589,6,0,B|408:96,1,180
320,40,169255,2,0,B|224:48,1,90,8|0
136,144,169699,2,0,B|232:136,1,90
304,208,170143,1,8
304,208,170365,1,0
304,208,170587,6,0,B|304:320|184:320,1,180,0|8
288,112,171253,2,0,B|400:112|400:232,1,180
192,128,171919,1,8
192,128,172141,2,0,B|192:16|312:16,1,180
200,232,172807,1,8
200,232,173029,2,0,B|88:232|88:112,1,180
152,32,173695,5,8
152,32,173917,1,0
232,104,174139,2,0,B|320:72|408:104,1,180,0|8
464,192,174805,2,0,B|288:232,1,180
240,328,175471,1,8
240,328,175693,6,0,B|144:288|144:176,1,180
192,88,176358,2,0,B|304:96,1,90,8|0
416,176,176802,2,0,B|304:184,1,90
304,288,177246,1,8
304,288,177468,1,0
208,232,177690,6,0,B|120:200|32:232,1,180,0|8
272,144,178356,2,0,B|360:112|448:144,1,180
472,248,179022,2,0,B|384:272,1,90,8|0
320,352,179466,6,0,B|216:328|208:208,1,180,0|8
104,208,180132,1,0
160,112,180354,1,0
160,112,180465,1,8
160,112,180576,2,8,B|248:120,1,90,0|8
344,64,181020,1,0
344,64,181131,1,8
344,64,181242,6,0,B|400:136|384:240,1,180,4|8
280,256,181908,2,0,B|224:336|112:328,1,180
40,264,182574,1,8
40,264,182796,6,0,B|48:80,1,180
152,64,183462,2,0,B|168:152,1,90,8|0
240,280,183906,2,0,B|256:192,1,90
352,144,184349,1,8
352,144,184571,1,0
360,248,184793,6,0,B|360:352|240:352,1,180,0|8
312,88,185459,2,0,B|416:88|416:208,1,180,0|0
152,136,186125,1,8
152,136,186347,2,0,B|152:32|272:32,1,180,0|0
200,296,187013,1,8
200,296,187235,2,0,B|96:296|96:176,1,180,0|0
88,72,187901,6,0,B|184:88,1,90,8|0
288,64,188345,2,0,B|384:96|384:200,1,180,0|8
488,232,189011,2,0,B|472:344|360:352,1,180
264,328,189677,1,8
264,328,189899,6,0,B|240:144,1,180
288,48,190565,2,0,B|384:56,1,90,8|0
496,136,191009,2,0,B|400:152,1,90
344,240,191453,1,8
344,240,191675,1,0
344,240,191897,6,0,B|368:344|480:320,1,180,4|0
192,176,192784,2,0,B|168:280|56:256,1,180,4|0
288,48,193672,2,0,B|312:152|424:128,1,180,4|0
256,192,194560,12,0,198112
168,240,198556,5,0
168,240,198778,1,0
168,240,199000,2,0,B|144:344|32:320,1,180,4|0
320,176,199888,2,0,B|344:280|456:256,1,180,4|0
224,48,200775,2,0,B|200:152|88:128,1,180,4|0
256,344,201663,5,0
256,320,201774,1,0
256,296,201885,1,8
256,272,201996,1,0
256,248,202107,1,8
256,224,202218,1,0
256,200,202329,1,0
256,176,202440,1,8
256,152,202551,1,4
