osu file format v6

[General]
AudioFilename: B4U - Naoki.mp3
AudioLeadIn: 0
PreviewTime: -1
Countdown: 1
SampleSet: Normal
StackLeniency: 0.7
Mode: 0
LetterboxInBreaks: 1

[Editor]
Bookmarks: 49394,50943,51717
DistanceSpacing: 0.800000011920929
BeatDivisor: 6
GridSize: 8

[Metadata]
Title:B4U (DDR Edit)
Artist:Naoki
Creator:-Always-
Version:Insane
Source:
Tags:ddr naoki b4u always -always-

[Difficulty]
HPDrainRate:8
CircleSize:4
OverallDifficulty:6
SliderMultiplier:1.9
SliderTickRate:2

[Events]
//Background and Video events
0,0,"ddrbackground.jpg"
//Break Periods
2,36820,39828
//Storyboard Layer 0 (Background)
//Storyboard Layer 1 (Fail)
//Storyboard Layer 2 (Pass)
//Storyboard Layer 3 (Foreground)
//Storyboard Sound Samples
//Background Colour Transformations
3,100,163,162,255

[TimingPoints]
1395,387.096774193548,4,1,0,60,1,0
19007,-100,4,1,0,0,0,0
19104,-100,4,1,0,60,0,0
23265,-100,4,1,0,100,0,0
23653,-100,4,2,1,100,0,0
23749,-100,4,1,0,81,0,0
24040,-100,4,2,1,100,0,0
24136,-100,4,1,0,79,0,0
24233,-100,4,2,1,100,0,0
24330,-100,4,1,0,80,0,0
24427,-100,4,2,1,100,0,0
24524,-100,4,1,0,80,0,0
24814,-100,4,1,0,80,0,1
27814,-100,4,1,0,80,0,0
27911,-100,4,1,0,80,0,1
30911,-100,4,1,0,80,0,0
31007,-100,4,1,0,80,0,1
34007,-100,4,1,0,80,0,0
34104,-100,4,1,0,80,0,1
36620,-100,4,1,0,80,0,0
40878,-100,4,1,0,0,0,0
43588,-100,4,1,0,60,0,0
49322,387.096774193548,4,1,0,60,1,0
61902,-100,4,1,0,60,0,1
64902,-100,4,1,0,60,0,0
64999,-100,4,1,0,60,0,1
67999,-100,4,1,0,60,0,0
68096,-100,4,1,0,60,0,1
71096,-100,4,1,0,60,0,0
71192,-100,4,1,0,60,0,1
73709,-100,4,1,0,60,0,0
79999,-100,4,1,0,60,0,1
80096,-100,4,1,0,60,0,0

[Colours]
Combo1 : 249,214,108
Combo2 : 255,121,121
Combo3 : 192,192,192

[HitObjects]
184,200,1395,1,0
328,200,1588,1,0
328,48,2943,5,0
184,48,3136,1,0
256,48,3911,5,0
176,288,4685,2,0,B|256:376|344:288,2,190
256,64,5846,1,0
256,104,5943,1,0
256,144,6040,1,0
256,184,6136,1,0
256,224,6233,5,0
256,224,6330,1,0
256,224,6427,1,0
256,224,6524,1,0
160,184,6814,5,0
152,192,6911,1,0
144,200,7007,1,8
136,208,7104,1,0
344,184,7395,5,0
352,192,7491,1,0
360,200,7588,1,8
368,208,7685,1,0
224,48,7975,5,0
232,88,8072,1,0
256,120,8169,1,8
296,120,8265,1,0
336,120,8362,1,0
304,192,8556,5,8
296,232,8653,1,0
272,264,8749,1,0
232,264,8846,1,0
192,264,8943,1,8
160,240,9040,2,0,B|120:256|112:216,2,47.5
160,200,9330,5,8
160,160,9427,1,0
160,120,9524,1,0
160,80,9620,1,0
272,80,9911,6,0,B|264:32|200:48,2,47.5,0|0|8
272,120,10201,1,0
376,80,10491,6,0,B|384:32|448:48,2,47.5,8|0|0
376,120,10782,1,0
376,160,10878,1,8
304,168,11072,1,0
304,208,11169,1,0
232,208,11362,1,0
232,248,11459,1,0
232,288,11556,1,0
280,344,11749,5,0
280,304,11846,1,0
280,264,11943,1,0
280,224,12040,1,8
280,184,12136,1,0
280,144,12233,1,0
176,136,12427,5,0
168,240,12620,1,0
168,240,12717,1,0
168,240,12814,1,8
104,160,13007,1,0
200,192,13201,1,8
104,224,13394,1,0
104,224,13491,1,0
104,224,13588,1,8
104,304,13782,5,0
176,304,13975,1,8
216,304,14072,1,0
256,304,14169,1,0
296,304,14265,1,0
336,304,14362,1,8
408,272,14556,1,0
392,240,14653,1,0
456,200,14846,1,0
432,168,14943,1,0
376,112,15136,6,8,B|368:48|336:80|328:32|328:32|320:80|288:48|288:128,1,190
216,112,15717,1,0
216,112,15814,1,0
152,72,16007,1,0
152,112,16104,1,0
152,152,16201,1,0
152,192,16298,1,8
152,264,16491,1,0
232,264,16685,6,0,B|232:336|232:336|232:296,1,95,8|0
312,312,17072,1,8
384,312,17265,1,0
400,280,17362,1,0
384,248,17459,1,8
384,168,17653,1,0
336,104,17846,1,8
408,96,18040,1,0
352,144,18233,1,8
376,72,18427,1,0
424,128,18620,5,8
456,192,18814,2,0,B|400:280,1,95,0|8
328,280,19201,1,0
328,280,19298,1,0
328,280,19394,1,8
328,280,19491,1,0
248,280,19685,1,0
136,280,19975,1,0
136,280,20072,1,0
136,280,20169,1,8
136,280,20265,1,0
136,240,20362,1,0
136,168,20556,5,8
176,104,20749,1,0
216,168,20943,2,8,B|272:104|288:88|288:88|248:88|248:88|288:40,1,190
184,288,21717,5,8
112,184,21911,1,0
184,88,22104,1,8
304,88,22298,1,0
376,184,22491,1,8
304,288,22685,1,0
256,192,22878,1,8
256,192,23072,1,0
184,128,23265,6,0,B|360:184|360:184|160:184|160:184|240:224|240:224|152:224|152:224|256:288,1,665
416,320,24814,6,0,B|376:296|352:344,1,47.5,8|0
296,320,25104,1,0
296,320,25298,1,0
216,320,25491,1,8
216,320,25685,1,0
144,320,25878,2,0,B|120:304|80:328,1,47.5,0|8
96,320,26169,1,0
248,184,26362,5,0
256,192,26749,1,0
264,200,27136,1,0
256,48,27524,1,0
216,112,27717,1,0
296,112,27911,5,8
304,120,28007,1,0
360,176,28201,2,0,B|448:192|360:224,1,95
312,176,28588,2,0,B|224:192|312:224,1,95,8|0
336,288,28975,1,0
336,304,29072,1,8
264,304,29265,5,0
184,304,29459,1,0
176,296,29556,1,0
168,288,29653,1,0
160,280,29749,1,0
152,272,29846,1,0
224,240,30040,1,0
256,176,30233,1,0
264,184,30330,1,0
272,192,30427,1,0
328,144,30620,1,0
320,136,30717,1,0
312,128,30814,1,0
416,64,31007,6,0,B|376:88|352:40,1,47.5,8|0
296,64,31298,1,0
296,64,31491,1,0
216,64,31685,1,8
216,64,31878,1,0
144,64,32072,2,0,B|120:80|80:56,1,47.5,0|8
96,64,32362,1,0
248,200,32556,5,0
256,192,32943,1,0
264,184,33330,1,0
256,336,33717,1,0
216,272,33911,1,0
296,272,34104,5,8
304,264,34201,1,0
360,208,34394,2,0,B|448:192|360:160,1,95
312,208,34782,2,0,B|224:192|312:160,1,95,8|0
336,96,35169,1,0
336,80,35265,1,8
264,80,35459,5,0
184,80,35653,1,0
176,88,35749,1,0
168,96,35846,1,0
160,104,35943,1,0
152,112,36040,1,0
224,144,36233,1,0
280,192,36427,1,0
336,240,36620,1,0
256,208,40878,12,0,43588
56,136,43975,5,0
88,280,44362,1,0
128,136,44749,1,0
160,280,45136,1,0
200,136,45524,1,0
232,280,45911,1,0
272,136,46298,5,0
304,280,46685,1,0
344,136,47072,1,0
376,280,47459,1,0
416,136,47846,1,0
448,280,48233,1,0
328,192,48620,1,0
176,192,49007,1,0
224,88,49322,5,0
224,96,49419,1,0
224,104,49516,1,8
296,88,49709,1,0
296,128,49806,1,0
296,168,49903,1,8
296,208,49999,1,0
296,248,50096,1,0
184,248,50290,2,0,B|152:192|104:248,2,95,8|0|8
184,168,50870,5,0
184,160,50967,1,0
184,152,51064,1,8
144,88,51257,1,0
224,88,51451,1,8
296,96,51644,5,0
296,104,51741,1,0
296,112,51838,1,8
336,176,52032,1,0
256,176,52225,1,8
296,240,52418,6,0,B|336:272|336:272|368:240,1,95,0|8
368,168,52805,1,0
368,160,52902,1,0
368,152,52999,1,8
368,80,53192,1,0
304,112,53386,2,8,B|256:56|248:40|240:56|232:144|144:32,1,190
80,48,53967,5,0
80,88,54063,1,0
80,128,54160,1,8
80,208,54354,1,0
80,248,54451,1,0
80,288,54547,1,8
160,288,54741,5,0
168,288,54838,1,0
176,288,54934,1,8
256,288,55128,1,0
264,288,55225,1,0
376,288,55515,5,0
400,256,55612,1,0
376,224,55709,1,8
400,152,55902,1,0
376,120,55999,1,0
264,112,56289,5,0
184,112,56483,1,8
112,112,56676,1,0
104,112,56773,1,0
104,224,57063,5,0
184,224,57257,1,8
256,224,57450,1,0
264,224,57547,1,0
312,168,57741,5,0
352,168,57837,1,0
352,248,58031,1,8
352,328,58225,1,0
312,328,58321,1,0
200,328,58612,5,0
104,264,58806,1,8
104,152,58999,1,0
200,88,59192,1,8
296,152,59386,1,0
296,152,59483,1,0
296,152,59579,1,8
296,264,59773,1,0
296,264,59870,1,0
408,264,60160,5,0
408,184,60354,1,0
424,200,60741,1,0
440,216,61128,1,0
448,224,61321,1,0
456,232,61515,1,0
464,240,61709,1,0
384,352,61902,6,0,B|360:312|408:288,1,47.5,8|0
384,232,62192,1,0
384,232,62386,1,0
384,152,62579,1,8
384,152,62773,1,0
384,80,62966,2,0,B|368:56|392:16,1,47.5,0|8
384,32,63257,1,0
248,184,63450,5,0
256,192,63837,1,0
264,200,64224,1,0
112,192,64612,1,0
176,152,64805,1,0
176,232,64999,5,8
184,240,65095,1,0
240,296,65289,2,0,B|256:384|288:296,1,95
240,248,65676,2,0,B|256:160|288:248,1,95,8|0
352,272,66063,1,0
368,272,66160,1,8
368,200,66353,5,0
368,120,66547,1,0
360,112,66644,1,0
352,104,66741,1,0
344,96,66837,1,0
336,88,66934,1,0
304,160,67128,1,0
240,192,67321,1,0
248,200,67418,1,0
256,208,67515,1,0
208,264,67708,1,0
200,256,67805,1,0
192,248,67902,1,0
128,352,68096,6,0,B|152:312|104:288,1,47.5,8|0
128,232,68386,1,0
128,232,68580,1,0
128,152,68773,1,8
128,152,68967,1,0
128,80,69160,2,0,B|144:56|120:16,1,47.5,0|8
128,32,69451,1,0
264,184,69644,5,0
256,192,70031,1,0
248,200,70418,1,0
400,192,70806,1,0
336,152,70999,1,0
336,232,71193,5,8
328,240,71289,1,0
272,296,71483,2,0,B|256:384|224:296,1,95
272,248,71870,2,0,B|256:160|224:248,1,95,8|0
160,272,72257,1,0
144,272,72354,1,8
144,200,72547,5,0
144,120,72741,1,0
152,112,72838,1,0
160,104,72935,1,0
168,96,73031,1,0
176,88,73128,1,0
208,160,73322,1,0
264,208,73515,1,0
320,256,73709,1,0
104,192,74289,5,4
400,192,75063,1,8
104,192,75838,1,4
400,192,76612,1,8
176,264,77386,1,12
328,264,77773,1,12
176,264,78160,1,12
328,264,78547,1,12
224,336,78934,1,4
280,336,79128,1,4
224,336,79321,1,4
280,336,79515,1,4
251,265,79708,1,4
251,257,79805,1,4
251,249,79901,1,4
251,241,79998,1,4
