osu file format v9

[General]
AudioFilename: sonic0021.mp3
AudioLeadIn: 0
PreviewTime: -1
Countdown: 1
SampleSet: Soft
StackLeniency: 0.7
Mode: 0
LetterboxInBreaks: 1

[Editor]
DistanceSpacing: 0.8
BeatDivisor: 4
GridSize: 8

[Metadata]
Title:Stardust Speedway (Japanese)
Artist:Naofumi Hataya,Masafumi Ogata
Creator:uchiha225
Version:Past
Source:Sonic CD
Tags:sonic the hedgehog

[Difficulty]
HPDrainRate:3
CircleSize:4
OverallDifficulty:3
ApproachRate:5
SliderMultiplier:1.4
SliderTickRate:2

[Events]
//Background and Video events
0,0,"stardust_speedway_by_dantemustdie00-d49xop6.jpg"
//Break Periods
2,39971,47597
//Storyboard Layer 0 (Background)
//Storyboard Layer 1 (Fail)
//Storyboard Layer 2 (Pass)
//Storyboard Layer 3 (Foreground)
//Storyboard Sound Samples
//Background Colour Transformations
3,100,163,162,255

[TimingPoints]
8054,501.462599247806,4,2,0,100,1,0

[HitObjects]
48,64,782,2,8,B|336:64,7,280,8|8|8|8|8|8|8|8
80,160,8555,5,0
176,160,8931,1,0
112,256,9307,1,0
112,256,9558,1,0
64,56,10059,2,0,B|352:56,2,280
72,160,12567,5,0
112,256,13068,1,0
176,256,13319,1,0
240,256,13570,1,0
64,56,14071,2,0,B|352:56,2,280
96,168,16578,5,0
224,168,17080,1,0
168,96,17581,1,0
160,240,18083,1,0
160,320,18459,1,0
56,80,19587,1,0
136,64,19838,2,0,B|336:64,1,192.5
256,192,20966,12,0,22595
56,56,24100,6,0,B|200:56,1,140
200,128,25103,2,0,B|56:128,1,140
72,216,26106,1,0
200,216,26608,1,0
200,48,27611,6,0,B|280:48,2,70
240,144,28613,1,0
184,256,29616,2,0,B|264:256,2,70
232,136,30619,1,0
256,192,31246,12,0,32249
104,64,32751,5,0
208,72,33127,1,0
264,160,33503,1,0
264,160,33753,1,0
64,264,34255,2,0,B|216:264,1,140
320,216,35132,1,0
392,160,35509,1,0
392,160,35759,1,0
280,64,36261,5,0
280,64,36512,1,0
280,64,36763,1,0
168,64,37138,2,0,B|168:168,1,105
104,192,37765,1,0
64,288,38267,2,0,B|216:288,3,140
48,64,48797,5,0
160,64,49299,1,0
264,64,49800,1,0
104,176,50302,1,0
168,176,50552,1,0
256,192,51305,12,0,52433
72,56,52934,6,0,B|144:56,2,70
64,144,53812,1,0
160,144,54188,1,0
256,144,54439,2,0,B|328:144,1,70
256,192,55442,12,0,56445
56,48,56946,6,0,B|128:48,1,70
192,48,57448,2,0,B|192:168,1,105
272,160,58200,2,0,B|352:160,1,70
464,160,58701,1,0
256,192,59579,12,0,60582
64,56,61083,5,0
128,144,61585,1,0
192,56,62086,1,0
256,152,62588,1,0
320,56,63089,1,0
56,112,64593,6,0,B|336:112,4,280
80,200,69232,5,0
80,200,69483,1,0
80,200,69733,1,0
192,208,70109,1,0
296,208,70486,1,0
296,208,70736,1,0
296,208,70987,1,0
48,56,72742,6,0,B|336:56,4,280
