osu file format v9

[General]
AudioFilename: Tsukishirube (Tv size).mp3
AudioLeadIn: 1500
PreviewTime: 57096
Countdown: 0
SampleSet: Soft
StackLeniency: 0.7
Mode: 0
LetterboxInBreaks: 1

[Editor]
DistanceSpacing: 1
BeatDivisor: 4
GridSize: 8

[Metadata]
Title:Tsukishirube (TV size)
Artist:Nanri Yuuka
Creator:KanaRin
Version:Kana
Source:Ookami Kakushi
Tags:climbb65588 kanpakyin koko6162006

[Difficulty]
HPDrainRate:8
CircleSize:4
OverallDifficulty:7
ApproachRate:8
SliderMultiplier:1.6
SliderTickRate:2

[Events]
//Background and Video events
0,0,"BG.jpg"
//Break Periods
2,17688,19875
//Storyboard Layer 0 (Background)
//Storyboard Layer 1 (Fail)
//Storyboard Layer 2 (Pass)
//Storyboard Layer 3 (Foreground)
//Storyboard Sound Samples
//Background Colour Transformations
3,100,163,162,255

[TimingPoints]
233,392.156862745098,4,2,1,42,1,0
1802,-200,4,2,1,42,0,0
2978,-100,4,2,1,42,0,0
4939,-200,4,2,1,42,0,0
6115,-100,4,2,1,42,0,0
8076,-100,4,2,1,0,0,0
10135,-100,4,2,1,42,0,0
11213,-200,4,2,1,42,0,0
11802,-100,4,2,1,42,0,0
14351,-100,4,2,1,32,0,0
15135,-100,4,2,1,22,0,0
15919,-100,4,2,1,7,0,0
16703,-100,4,2,1,2,0,0
17390,-100,4,2,1,0,0,0
17586,-100,4,2,1,40,0,0
29449,-133.333333333333,4,2,1,42,0,0
30429,-100,4,2,1,42,0,0
33174,-200,4,2,1,42,0,0
33566,-100,4,2,1,42,0,0
33958,-200,4,2,1,42,0,0
34351,-100,4,2,1,42,0,0
34743,-200,4,2,1,42,0,0
35135,-100,4,2,1,42,0,0
35527,-200,4,2,1,42,0,0
35919,-100,4,2,1,42,0,0
39351,-100,4,2,1,32,0,0
39547,-100,4,2,1,40,0,0
45625,-100,4,2,1,30,0,0
45821,-100,4,2,1,40,0,0
51998,-100,4,2,1,30,0,0
52096,-100,4,2,1,40,0,0
53468,-100,4,2,1,30,0,0
53664,-100,4,2,1,40,0,0
54351,-100,4,2,1,30,0,0
54449,-100,4,2,1,40,0,0
54645,-100,4,2,1,30,0,0
54841,-100,4,2,1,40,0,0
55135,-100,4,2,1,30,0,0
55233,-100,4,2,1,40,0,0
58272,-100,4,2,1,42,0,1
86507,-100,4,2,1,42,0,0

[Colours]
Combo1 : 128,0,255
Combo2 : 255,0,0
Combo3 : 255,128,255

[HitObjects]
256,192,625,1,0
96,192,1017,1,0
256,192,1409,1,0
256,192,1802,2,0,B|376:192,2,120
176,192,3174,1,2
176,192,3370,1,0
136,320,3958,5,0
136,320,4154,1,0
136,160,4547,1,0
280,240,4939,2,0,B|152:240,2,120
208,96,6507,5,0
288,96,6703,1,2
248,168,6900,1,0
248,328,7292,5,0
248,328,7684,1,0
256,192,8076,12,0,10037
184,64,10429,5,0
328,64,10821,1,0
256,208,11213,2,0,B|256:80,1,120
336,328,12390,5,2
256,104,12782,1,0
176,328,13174,1,2
256,104,13566,1,0
336,328,13958,1,2
256,192,14351,12,0,17488
352,144,20625,5,4
176,312,21017,5,8
96,312,21213,1,0
136,240,21409,1,0
136,240,21507,1,2
136,240,21605,1,0
216,240,21802,2,0,B|296:240,1,80,8|0
392,56,22390,5,0
312,56,22586,1,8
352,128,22782,1,0
352,128,22880,1,2
352,128,22978,2,0,B|240:128,1,80,0|0
272,128,23370,1,8
128,56,23762,5,0
48,56,23958,1,0
88,128,24154,1,8
168,128,24351,1,0
168,128,24449,1,0
168,128,24547,2,0,B|280:128,1,80,0|2
248,128,24939,1,8
152,248,25330,5,0
224,224,25526,1,2
272,288,25723,1,8
344,264,25919,1,0
392,200,26115,1,0
472,176,26311,2,0,B|456:128|400:112,1,80,2|8
344,88,26703,1,0
344,88,26802,1,0
344,88,26900,1,8
344,336,27292,5,8
272,352,27488,1,0
200,320,27684,1,2
128,352,27880,1,0
64,312,28076,1,8
64,312,28174,1,0
64,312,28272,1,2
64,312,28468,2,0,B|64:208,1,80,0|0
136,264,28860,2,0,B|136:160,2,80,8|2|0
216,264,29449,2,0,B|336:264,1,119.999996423721,0|2
336,264,29939,1,0
336,264,30037,1,8
256,48,30429,5,8
344,128,30625,1,2
256,208,30821,1,0
112,80,31017,6,0,B|40:136|88:224,1,160,0|2
296,320,31605,2,0,B|368:264|320:176,1,160,0|0
321,178,32390,1,8
256,48,32978,5,0
256,48,33174,2,0,B|256:128,1,80,0|8
312,184,33762,1,0
312,184,33958,2,0,B|240:232,1,80,0|8
88,136,34743,6,0,B|184:136,1,80,0|8
144,216,35331,1,0
144,216,35527,2,0,B|224:248,1,80,0|8
218,245,36115,1,0
136,48,36312,6,0,B|248:48,1,80,0|2
312,120,36704,2,0,B|208:120,1,80,8|2
80,176,37096,6,0,B|176:176,1,80,0|2
336,240,37488,2,0,B|232:240,1,80,0|2
40,312,37880,6,0,B|128:312,1,80,0|2
384,352,38272,2,0,B|304:352,1,80,0|2
304,352,38664,1,0
256,64,39449,5,4
192,224,39841,6,0,B|216:280|296:280|320:224,1,160,0|8
256,176,40429,2,0,B|232:120|152:120|128:176,1,160,0|2
129,174,41018,1,0
409,56,41410,5,10
408,192,41606,1,0
256,72,41998,5,0
256,72,42096,1,0
256,72,42194,2,0,B|256:152,1,80,8|2
256,152,42586,1,0
96,144,42978,6,0,B|40:167|40:248|96:272,1,160,8|0
152,208,43567,1,0
152,208,43665,1,0
152,208,43763,2,0,B|264:208,1,80,8|2
272,96,44154,6,0,B|296:40|376:40|400:96,1,160,0|8
336,144,44743,1,0
336,144,44939,1,8
336,224,45135,1,0
336,224,45233,1,0
336,224,45331,2,0,B|336:336,1,80,8|2
336,304,45723,1,4
208,96,46115,6,8,B|24:96,1,160
80,168,46704,1,0
80,168,46802,1,0
80,168,46900,2,0,B|160:168,1,80,8|2
368,232,47292,6,0,B|200:232,1,160,0|8
232,312,47880,1,0
232,312,48076,1,8
312,312,48273,1,0
312,312,48371,1,0
312,312,48469,2,0,B|416:312,1,80,8|2
464,224,48860,6,0,B|392:224|440:136|344:136,1,160,0|8
264,136,49449,1,0
184,136,49645,2,0,B|112:136|160:224|64:224,1,160,0|8
264,240,50233,5,2
368,184,50429,2,0,B|432:256|352:344,1,160,0|8
264,240,51018,1,0
160,328,51213,2,0,B|96:256|176:168,1,160,0|8
256,112,51802,5,2
256,112,51900,1,0
256,112,51998,2,0,B|448:112|448:112,1,160,4|8
464,176,52586,1,0
416,240,52782,2,0,B|248:240|248:240,1,160,0|8
200,176,53371,1,2
152,112,53566,2,0,B|96:135|96:216|152:240,1,160,4|8
280,296,54155,5,2
280,296,54253,1,0
280,296,54351,2,4,B|280:208,1,80,4|2
408,80,54743,2,0,B|408:168,1,80,12|0
408,160,55135,1,4
256,192,55233,12,8,56703
256,72,57096,5,0
144,288,57488,1,0
368,288,57880,1,0
320,128,58273,6,0,B|320:216,1,80,0|2
144,288,58665,2,0,B|144:200,1,80,8|2
144,208,59057,1,0
104,56,59449,5,8
184,56,59645,1,2
144,128,59841,2,0,B|312:128|312:128,1,160,0|8
304,128,60429,1,2
352,64,60625,2,0,B|408:87|408:168|352:192,1,160,0|8
216,264,61410,6,0,B|112:248,1,80,0|2
168,176,61802,2,0,B|96:136,1,80,8|2
99,138,62194,1,0
392,240,62586,6,0,B|392:152,1,80,8|2
392,80,62978,1,0
392,240,63371,1,10
248,304,63763,6,0,B|160:328|96:272,1,160,2|8
176,128,64547,2,0,B|264:101|322:169,1,160,0|8
320,168,65037,1,0
320,168,65135,1,2
400,168,65331,2,0,B|415:226|350:275|297:245,1,160,0|8
248,64,66115,6,0,B|160:37|102:105,1,160,0|8
104,104,66605,1,0
104,104,66703,1,2
24,104,66899,2,0,B|9:162|74:211|127:181,1,160,0|8
296,232,67684,5,0
296,232,67880,1,2
296,152,68076,1,8
296,152,68273,1,2
216,152,68469,1,0
216,232,68665,2,0,B|216:280,2,40,2|0|8
216,232,69057,1,2
216,232,69253,1,2
48,88,69645,5,8
48,88,70037,2,0,B|48:256,1,160,0|8
176,320,70821,5,0
176,320,71017,1,2
272,248,71213,1,8
272,248,71409,1,2
368,320,71605,1,0
192,112,71998,6,0,B|136:135|136:216|192:240,1,160,8|2
400,288,72782,5,8
320,288,72978,1,0
400,288,73174,2,0,B|400:120,1,160,0|8
256,56,73959,5,0
256,56,74155,1,2
136,56,74351,1,8
136,56,74547,1,2
192,160,74743,1,0
192,320,75135,5,10
192,320,75331,1,2
192,320,75527,2,0,B|376:320,1,160,0|2
448,224,76311,6,0,B|448:56,1,160
288,88,77096,2,0,B|104:88,1,160,0|8
128,88,77586,1,0
128,88,77684,1,2
72,32,77880,2,0,B|16:55|16:136|72:160,1,160,0|8
208,232,78664,6,0,B|392:232,1,160,0|8
368,232,79154,1,0
368,232,79252,1,2
424,176,79448,2,0,B|480:199|480:280|424:304,1,160,0|8
400,112,80233,6,0,B|320:160,1,80,0|2
128,112,80625,2,0,B|208:160,1,80,8|2
256,344,81017,2,0,B|256:240,1,80,0|2
256,264,81409,1,8
256,40,81801,5,0
96,192,82194,1,8
256,352,82586,1,2
416,192,82978,1,2
256,192,83370,12,4,86507
