osu file format v9

[General]
AudioFilename: Tsukishirube (Tv size).mp3
AudioLeadIn: 1500
PreviewTime: 57096
Countdown: 0
SampleSet: Soft
StackLeniency: 0.7
Mode: 0
LetterboxInBreaks: 1

[Editor]
DistanceSpacing: 1
BeatDivisor: 4
GridSize: 8

[Metadata]
Title:Tsukishirube (TV size)
Artist:Nanri Yuuka
Creator:KanaRin
Version:KPYs
Source:Ookami Kakushi
Tags:climbb65588 kanpakyin koko6162006

[Difficulty]
HPDrainRate:4
CircleSize:4
OverallDifficulty:6
ApproachRate:7
SliderMultiplier:1.6
SliderTickRate:2

[Events]
//Background and Video events
0,0,"BG.jpg"
//Break Periods
2,17688,19725
//Storyboard Layer 0 (Background)
//Storyboard Layer 1 (Fail)
//Storyboard Layer 2 (Pass)
//Storyboard Layer 3 (Foreground)
//Storyboard Sound Samples
//Background Colour Transformations
3,100,163,162,255

[TimingPoints]
233,392.156862745098,4,2,1,40,1,0
9056,-100,4,2,1,19,0,0
10429,-100,4,2,1,40,0,0
26802,-100,4,2,1,31,0,0
26998,-100,4,2,1,41,0,0
35723,-100,4,2,1,50,0,0
36409,-100,4,2,1,42,0,0
58272,-100,4,2,1,59,0,1
80233,-100,4,2,1,61,0,1
80821,-100,4,2,1,59,0,1
86507,-100,4,2,1,40,0,0

[Colours]
Combo1 : 128,0,255
Combo2 : 255,0,0
Combo3 : 255,128,255

[HitObjects]
235,153,625,1,0
235,153,1017,1,2
235,153,1409,1,0
235,153,1802,2,0,B|146:166|66:152,1,160,2|0
50,77,2390,1,0
50,77,2586,2,0,B|66:157|66:157|41:254,1,160,2|0
210,271,3370,5,2
210,271,3762,1,0
281,231,3958,1,0
281,231,4154,2,0,B|454:231,2,160,2|2|4
214,85,5331,2,0,B|175:62|128:58,1,80,2|0
149,138,5723,1,0
149,138,6115,2,0,B|68:111|-22:136,2,160,2|0|2
151,218,7096,1,0
151,297,7292,6,0,B|229:329|320:299,1,160,2|0
314,383,7880,1,0
314,383,8076,2,0,B|300:288|314:205,1,160,2|0
389,222,8664,2,4,B|395:180|388:135,1,80,2|6
256,192,9056,12,4,10429
254,191,10821,5,0
254,191,11213,1,2
197,133,11409,1,0
171,208,11605,1,2
171,208,11802,1,0
171,208,11998,2,0,B|3:208,2,160,2|0|4
229,155,12978,6,0,B|257:124|257:124|302:110,1,80,0|8
308,191,13370,2,0,B|359:176|404:182,1,80,0|8
369,258,13762,2,0,B|419:275|450:326,1,80,0|8
361,338,14154,1,0
361,338,14351,2,0,B|176:339,1,160,6|0
256,192,14939,12,2,17488
192,120,20625,5,4
192,120,21017,2,0,B|128:88|128:88|32:72,2,160,8|2|8
152,192,21998,1,0
152,192,22194,2,0,B|180:276|153:348,2,160,2|8|2
231,192,23174,5,0
231,192,23370,2,0,B|198:108|236:22,2,160,8|2|8
308,170,24351,1,0
308,170,24547,2,0,B|339:138|339:138|396:122,1,80,2|0
380,207,24939,6,0,B|463:181|551:214,2,160,8|2|8
375,127,25919,1,0
375,127,26115,2,0,B|403:211|374:303,1,160,2|8
309,249,26703,5,0
309,249,26900,2,0,B|273:215|216:206,1,80,4|0
232,291,27292,1,8
232,291,27488,1,0
232,291,27684,2,0,B|160:295|173:352|64:346,1,160,2|8
92,266,28272,5,0
92,266,28468,2,0,B|92:92,1,160,2|8
165,75,29056,2,0,B|165:237,1,160
241,209,29645,1,8
293,148,29841,2,0,B|325:112|388:109,1,80,0|2
206,147,30429,6,0,B|177:104|134:94,1,80,8|0
119,173,30821,1,2
119,173,31017,2,0,B|159:251|118:333,1,160,0|2
64,268,31605,1,4
64,268,31998,2,0,B|231:269,1,160,8|2
251,193,32586,1,0
251,193,32782,2,0,B|339:192,2,80,8|0|6
205,127,33370,5,0
154,65,33566,2,0,B|101:92|101:165|161:196,1,160,0|2
237,198,34154,1,0
317,201,34351,2,0,B|369:221|374:311|310:334,1,160,8|2
272,264,34939,1,0
272,264,35135,2,0,B|96:264,1,160,8|2
116,184,35723,2,0,B|88:125|9:106,2,120,2|2|2
190,214,36507,6,0,B|189:263,2,40,0|0|8
246,156,36900,1,2
256,192,37096,12,4,39449
215,244,39841,5,8
215,245,40233,2,0,B|171:243|143:194,2,80,2|0|8
231,166,40821,1,0
231,166,41017,2,0,B|394:168,2,160,2|8|2
265,93,41998,1,0
265,93,42194,2,0,B|306:139|309:213|245:245,1,160,8|2
184,235,42782,5,0
184,235,42978,2,0,B|83:234,2,80,8|0|2
154,309,43566,1,0
154,309,43762,2,0,B|332:311,2,160,8|2|8
181,233,44743,1,0
181,233,44939,2,0,B|98:232|111:185|21:185,2,160,2|8|2
181,233,45919,1,0
181,153,46115,6,0,B|181:55,2,80,8|0|2
260,153,46703,1,0
260,153,46900,2,0,B|287:109|347:101,2,80,8|0|2
334,182,47488,1,0
334,182,47684,2,0,B|508:184,2,160,8|2|8
256,202,48664,6,0,B|213:205|169:229,1,80,0|2
235,281,49056,2,0,B|187:300|166:337,1,80,0|8
246,358,49449,1,0
246,358,49645,2,0,B|167:352|167:352|59:357,2,160,2|8|4
301,208,50821,1,8
301,208,51017,2,0,B|365:215|365:215|433:208,2,120,2|2|2
299,288,51802,5,0
299,288,51998,2,0,B|299:117,1,160,4|8
224,157,52586,1,0
224,157,52782,2,0,B|228:113|221:73,2,80,2|0|8
221,236,53370,2,0,B|188:268|135:276,1,80,0|4
158,193,53762,1,0
158,193,53958,2,0,B|76:220|-14:189,2,160,8|2|8
161,112,54939,2,0,B|161:33,1,80,0|4
256,192,55331,12,2,56703
426,126,57096,5,0
233,343,57488,1,0
140,93,57880,1,0
140,93,58272,5,4
140,93,58664,1,8
207,136,58860,1,0
139,178,59056,2,0,B|138:284,2,80,2|0|8
212,209,59645,1,0
212,209,59841,2,0,B|212:144|212:144|229:110|229:110|229:39,2,160,2|8|2
289,189,60821,1,0
289,189,61017,2,0,B|289:293,1,80,8|0
351,319,61409,6,0,B|334:375|245:377|222:310,2,160,2|8|2
353,238,62390,2,0,B|338:198|338:198|303:160,1,80,0|8
269,237,62782,2,0,B|241:199|195:185,1,80,0|2
184,265,63174,1,0
184,265,63370,2,0,B|24:265,2,160,8|2|8
247,314,64351,2,0,B|266:351,2,40,0|0|2
267,236,64743,5,0
267,236,64939,2,0,B|279:158|263:56,1,160,8|2
194,112,65527,1,0
194,112,65723,2,0,B|173:69|173:69|139:40,2,80,8|0|2
114,117,66311,1,0
114,117,66507,2,0,B|103:207|115:303,1,160,8|2
192,304,67096,2,0,B|216:256|264:248,1,80,0|8
184,200,67488,1,0
184,200,67684,2,0,B|104:200,3,80,2|0|8|4
256,192,68468,12,4,69645
403,284,70037,5,4
373,34,70429,1,4
176,172,70821,1,4
176,172,71213,5,8
176,172,71409,1,0
176,172,71605,2,0,B|144:140|144:140|80:116,2,80,2|0|8
256,173,72194,1,0
256,173,72390,2,0,B|448:173,2,160,2|8|2
176,174,73370,5,0
96,174,73566,1,8
96,174,73762,2,0,B|11:174,2,80,0|2|0
139,241,74351,2,0,B|144:289|184:340,1,80,8|0
238,268,74743,2,0,B|261:312|318:336,1,80,2|0
335,256,75135,2,0,B|506:255,2,160,8|2|8
255,117,76311,5,2
255,117,76703,1,8
255,117,77096,2,0,B|215:95|170:90,1,80,6|0
188,170,77488,2,0,B|108:148|22:167,2,160,8|2|8
186,249,78468,1,0
186,249,78664,2,0,B|182:300|188:352,1,80,2|0
260,301,79056,2,0,B|263:215|260:127,1,160,8|2
218,72,79645,5,0
218,72,79841,2,0,B|186:121|135:132,1,80,8|0
126,50,80233,2,0,B|3:49,2,120,6|0|2
119,129,81017,2,0,B|203:131|180:173|278:173,1,160,2|8
260,93,81605,1,0
260,93,81801,2,0,B|303:104|303:104|353:142,1,80,6|0
270,177,82194,2,0,B|316:204|334:253,1,80,8|0
251,264,82586,2,0,B|85:265,2,160,6|8|6
256,192,83566,12,4,86507
