osu file format v9

[General]
AudioFilename: Tsukishirube (Tv size).mp3
AudioLeadIn: 1500
PreviewTime: 57096
Countdown: 0
SampleSet: Soft
StackLeniency: 0.7
Mode: 0
LetterboxInBreaks: 1

[Editor]
DistanceSpacing: 1
BeatDivisor: 2
GridSize: 8

[Metadata]
Title:Tsukishirube (TV size)
Artist:Nanri Yuuka
Creator:KanaRin
Version:Easy
Source:Ookami Kakushi
Tags:climbb65588 kanpakyin koko6162006

[Difficulty]
HPDrainRate:1
CircleSize:3
OverallDifficulty:1
ApproachRate:1
SliderMultiplier:0.8
SliderTickRate:2

[Events]
//Background and Video events
0,0,"BG.jpg"
//Break Periods
2,17688,18945
//Storyboard Layer 0 (Background)
//Storyboard Layer 1 (Fail)
//Storyboard Layer 2 (Pass)
//Storyboard Layer 3 (Foreground)
//Storyboard Sound Samples
//Background Colour Transformations
3,100,163,162,255

[TimingPoints]
233,392.156862745098,4,2,1,40,1,0
33174,-133.333333333333,4,2,1,40,0,0
36311,-100,4,2,1,40,0,0
38468,-100,4,2,1,40,0,0
58272,-100,4,2,1,40,0,1
86507,-100,4,2,1,40,0,0

[Colours]
Combo1 : 128,0,255
Combo2 : 255,0,0
Combo3 : 255,128,255

[HitObjects]
256,192,625,1,0
256,192,1017,1,0
256,192,1409,1,0
256,192,1802,2,0,B|256:72,2,120,4|0|0
256,192,3370,1,0
128,288,4154,6,0,B|232:288,1,80
288,288,4939,2,0,B|432:288,2,120,4|0|0
208,288,6507,1,0
256,136,7292,6,0,B|256:240|256:240,1,80
256,192,8076,12,0,9645
184,160,10429,6,0,B|272:160,1,80
328,104,11213,2,0,B|360:120|368:200|320:224,1,120,4|0
256,296,12390,5,2
216,224,12782,1,0
176,296,13174,1,2
136,224,13566,1,0
96,296,13958,1,2
256,192,14351,12,0,17488
256,104,20625,5,4
96,104,21409,1,8
176,248,22194,2,0,B|176:336|176:336,2,80,0|0|8
256,112,23762,5,0
256,272,24547,1,8
392,192,25331,2,0,B|480:192,2,80,0|0|8
232,192,26900,5,0
232,352,27684,1,8
96,272,28468,2,0,B|200:272,1,80,0|8
256,272,29252,2,0,B|368:272,1,80,0|8
256,136,30429,5,0
256,296,31213,1,8
256,296,31605,2,0,B|168:296,3,80,0|8|0|8
56,280,33174,6,0,B|56:144|56:144|184:144|184:144|184:48|184:48|256:48,1,419.999987483025
344,56,36311,2,0,B|456:56|456:56|456:256|456:256|296:256|296:256|296:256|296:256|296:256,1,440
96,304,39449,5,4
96,304,40233,1,0
176,168,41017,2,0,B|176:64,2,80,0|8|0
176,168,42194,1,8
176,248,42586,5,8
336,248,43370,1,0
256,112,44154,2,0,B|160:112,2,80,8|0|0
256,112,45331,1,8
336,112,45723,5,4
336,272,46507,1,0
200,192,47292,2,0,B|152:184|144:120,2,80,0|8|0
200,192,48468,1,8
280,192,48860,5,4
280,352,49645,1,0
416,272,50429,2,0,B|472:256|472:200,2,80,0|8|0
416,272,51605,1,0
368,176,51997,6,0,B|336:80|256:48|176:80|136:176,1,320,4|4
192,328,54351,1,8
256,280,54743,1,8
320,328,55135,1,4
184,48,57096,5,8
264,48,57488,1,0
224,120,57880,1,8
224,200,58272,2,0,B|224:328,1,120,4|0
104,320,59449,1,8
104,320,59841,1,8
264,320,60625,5,0
344,320,61017,1,8
304,248,61409,2,0,B|304:104,1,120,4|0
424,128,62586,1,8
424,128,62978,1,8
424,288,63762,5,0
424,208,64154,1,8
352,248,64547,2,0,B|224:248,1,120,4|0
232,128,65723,1,8
232,128,66115,1,8
80,192,66900,6,0,B|96:240|168:240,1,80,8|0
152,160,67684,2,0,B|216:160|224:240,1,120,4|0
312,328,68860,2,0,B|200:328,1,80,12|12
152,328,69645,5,8
152,328,70037,1,12
152,328,70429,1,8
152,248,70821,2,0,B|152:104,1,120,4|0
272,128,71998,1,8
272,128,72390,1,8
272,288,73174,5,8
328,344,73566,1,8
384,288,73958,2,0,B|384:144|384:144,2,120,4|0|0
440,344,75527,1,8
440,344,75919,1,8
440,264,76311,5,0
440,264,76703,1,8
256,192,77096,12,0,78665
392,256,79449,1,8
336,312,79841,1,8
280,256,80233,2,0,B|280:192|280:192|280:112,1,120,4|0
104,128,81409,5,8
144,200,81801,1,4
184,128,82194,1,8
224,200,82586,1,8
264,128,82978,1,8
256,192,83370,12,4,86507
