osu file format v14

[General]
AudioFilename: Nano & Vin - PONPONPON1.mp3
AudioLeadIn: 0
PreviewTime: 25854
Countdown: 0
SampleSet: None
StackLeniency: 0.7
Mode: 0
LetterboxInBreaks: 1
WidescreenStoryboard: 0

[Editor]
DistanceSpacing: 0.5
BeatDivisor: 4
GridSize: 32
TimelineZoom: 1

[Metadata]
Title:PONPONPON
TitleUnicode:PONPONPON
Artist:Nano & Vin
ArtistUnicode:Nano & Vin
Creator:Ameyy
Version:PonPon!
Source:
Tags:Nano Vin PONPONPON
BeatmapID:721707
BeatmapSetID:324789

[Difficulty]
HPDrainRate:7
CircleSize:4
OverallDifficulty:8
ApproachRate:9
SliderMultiplier:1.5
SliderTickRate:1

[Events]
//Background and Video events
0,0,"cute-anime-wallpaper-1920x1080-hd-widescreen-11.jpg",0,0
//Break Periods
//Storyboard Layer 0 (Background)
//Storyboard Layer 1 (Fail)
//Storyboard Layer 2 (Pass)
//Storyboard Layer 3 (Foreground)
//Storyboard Sound Samples

[TimingPoints]
13254,400,4,3,0,50,1,0
19654,-100,4,2,0,75,0,0
26054,-83.3333333333333,4,2,0,80,0,1
38454,-83.3333333333333,4,2,0,80,0,0
38854,-83.3333333333333,4,2,0,80,0,1
51654,-133.333333333333,4,3,0,50,0,0
61354,-83.3333333333333,4,2,0,50,0,0
62254,-83.3333333333333,4,2,0,60,0,0
62654,-83.3333333333333,4,2,0,70,0,0
63254,-83.3333333333333,4,2,0,80,0,0

[HitObjects]
128,96,13254,6,0,L|32:96,2,75
128,192,13854,1,0,0:0:0:0:
256,192,14054,1,0,0:0:0:0:
384,192,14254,2,0,P|416:128|416:32,1,150
384,32,14854,5,8,0:0:0:0:
256,32,15054,1,8,0:0:0:0:
320,128,15254,1,8,0:0:0:0:
160,160,15454,2,0,P|128:224|128:256,1,75
384,288,15854,2,0,P|416:224|416:192,1,75
416,224,16254,1,0,0:0:0:0:
224,320,16454,6,0,L|128:320,1,75
160,224,16854,1,0,0:0:0:0:
160,128,17054,2,0,L|256:128,1,75
352,128,17454,1,0,0:0:0:0:
416,64,17654,2,0,B|384:32|384:32|288:64|192:32,1,225
96,64,18454,5,0,0:0:0:0:
96,160,18654,2,0,L|192:160,1,75
96,288,19054,2,0,L|192:288,2,75
32,352,19654,5,0,0:0:0:0:
256,256,19854,1,0,0:0:0:0:
64,128,20054,1,0,0:0:0:0:
224,32,20254,2,8,L|288:32,1,37.5
288,32,20454,5,8,0:0:0:0:
448,192,20654,1,0,0:0:0:0:
320,328,20854,1,0,0:0:0:0:
192,192,21054,1,8,0:0:0:0:
192,192,21154,1,8,0:0:0:0:
192,192,21254,5,8,0:0:0:0:
64,64,21454,1,0,0:0:0:0:
256,192,21654,1,0,0:0:0:0:
64,320,21854,1,8,0:0:0:0:
64,320,21954,1,8,0:0:0:0:
64,320,22054,1,8,0:0:0:0:
224,320,22254,1,0,0:0:0:0:
384,320,22454,1,0,0:0:0:0:
384,128,22654,5,0,0:0:0:0:
160,224,22854,1,0,0:0:0:0:
192,0,23054,1,0,0:0:0:0:
384,64,23254,2,0,L|480:64,1,75
416,192,23654,2,0,L|320:192,1,75
256,192,24054,1,0,0:0:0:0:
160,192,24254,1,0,0:0:0:0:
64,192,24454,1,8,0:0:0:0:
256,192,24654,12,0,25654,0:0:0:0:
128,128,26054,6,0,P|96:192|108:240,1,89.9999972534181,4|0,0:0|0:0,0:0:0:0:
384,256,26454,2,8,P|416:192|416:160,1,89.9999972534181
192,96,26854,1,8,0:0:0:0:
320,192,27054,1,8,0:0:0:0:
200,296,27254,1,8,0:0:0:0:
384,352,27454,5,0,0:0:0:0:
384,352,27554,1,0,0:0:0:0:
384,352,27654,2,0,L|480:352,1,89.9999972534181
480,224,28054,2,0,L|480:128,1,89.9999972534181
480,32,28454,1,0,0:0:0:0:
384,96,28654,1,0,0:0:0:0:
288,160,28854,1,0,0:0:0:0:
128,256,29054,1,0,0:0:0:0:
128,256,29154,1,0,0:0:0:0:
128,256,29254,6,4,P|96:192|96:160,1,89.9999972534181
384,128,29654,2,8,P|416:192|416:224,1,89.9999972534181
192,288,30054,1,8,0:0:0:0:
320,192,30254,1,8,0:0:0:0:
192,96,30454,1,8,0:0:0:0:
64,32,30654,6,0,P|32:96|32:128,1,89.9999972534181
96,192,31054,1,0,0:0:0:0:
192,128,31254,1,0,0:0:0:0:
256,224,31454,1,0,0:0:0:0:
256,352,31654,2,0,P|192:320|160:320,1,89.9999972534181
174,318,32054,1,0,0:0:0:0:
352,288,32254,1,0,0:0:0:0:
480,192,32454,6,4,L|384:192,1,89.9999972534181
128,96,32854,2,8,L|224:96,1,89.9999972534181
384,192,33254,1,8,0:0:0:0:
224,96,33454,1,8,0:0:0:0:
384,192,33654,1,8,0:0:0:0:
256,320,33854,5,0,0:0:0:0:
256,320,33954,1,0,0:0:0:0:
256,320,34054,2,0,P|192:352|160:352,1,89.9999972534181
96,256,34454,1,0,0:0:0:0:
64,128,34654,1,0,0:0:0:0:
160,32,34854,1,0,0:0:0:0:
288,32,35054,2,0,L|384:96,1,89.9999972534181
448,256,35454,5,0,0:0:0:0:
448,256,35554,1,0,0:0:0:0:
448,256,35654,2,4,P|384:224|352:224,1,89.9999972534181
96,160,36054,2,8,P|160:192|192:192,1,89.9999972534181
256,96,36454,1,8,0:0:0:0:
256,320,36654,1,8,0:0:0:0:
256,96,36854,1,8,0:0:0:0:
256,320,37054,6,0,P|192:352|160:352,1,89.9999972534181
64,288,37454,1,0,0:0:0:0:
64,160,37654,1,0,0:0:0:0:
128,64,37854,2,0,P|160:32|224:32,1,89.9999972534181
288,96,38254,1,0,0:0:0:0:
380,152,38454,5,8,0:0:0:0:
396,136,38554,1,8,0:0:0:0:
412,120,38654,1,8,0:0:0:0:
428,104,38754,1,8,0:0:0:0:
448,92,38854,2,4,P|480:156|480:188,1,89.9999972534181
192,224,39254,2,8,P|160:160|160:128,1,89.9999972534181
384,64,39654,1,8,0:0:0:0:
256,160,39854,1,8,0:0:0:0:
384,256,40054,1,8,0:0:0:0:
256,352,40254,5,0,0:0:0:0:
256,352,40354,1,0,0:0:0:0:
256,352,40454,2,0,P|196:368|144:352,1,89.9999972534181
64,320,40854,1,0,0:0:0:0:
32,224,41054,1,0,0:0:0:0:
64,128,41254,1,0,0:0:0:0:
128,64,41454,1,0,0:0:0:0:
128,64,41654,2,0,L|224:64,1,89.9999972534181
480,192,42054,6,4,L|384:192,1,89.9999972534181
160,288,42454,2,8,L|288:288,1,89.9999972534181
480,192,42854,1,8,0:0:0:0:
384,192,43054,1,8,0:0:0:0:
288,192,43254,1,8,0:0:0:0:
128,96,43454,5,0,0:0:0:0:
128,96,43554,1,0,0:0:0:0:
128,96,43654,2,0,P|96:128|64:192,1,89.9999972534181
64,256,44054,1,0,0:0:0:0:
64,352,44254,2,0,L|192:352,1,89.9999972534181
224,288,44654,1,0,0:0:0:0:
224,128,44854,5,8,0:0:0:0:
236,108,44954,1,8,0:0:0:0:
252,92,45054,1,8,0:0:0:0:
268,76,45154,1,8,0:0:0:0:
288,64,45254,2,4,P|348:68|408:92,1,89.9999972534181
224,320,45654,2,8,P|164:316|104:292,1,89.9999972534181
96,192,46054,1,8,0:0:0:0:
224,128,46254,1,8,0:0:0:0:
288,256,46454,1,8,0:0:0:0:
384,160,46654,5,0,0:0:0:0:
384,160,46754,1,0,0:0:0:0:
384,160,46854,2,0,L|480:160,1,89.9999972534181
480,320,47254,2,0,L|384:320,1,89.9999972534181
256,320,47654,1,0,0:0:0:0:
320,192,47854,1,0,0:0:0:0:
360,264,48054,6,0,L|392:232,1,44.999998626709
320,192,48254,2,0,L|288:224,1,44.999998626709
424,200,48454,2,4,P|456:168|456:104,1,89.9999972534181
256,64,48854,2,8,P|224:96|224:160,1,89.9999972534181
76,128,49254,1,8,0:0:0:0:
36,264,49454,1,8,0:0:0:0:
168,328,49654,1,8,0:0:0:0:
256,224,49854,5,0,0:0:0:0:
256,224,49954,1,0,0:0:0:0:
256,224,50054,2,0,P|320:256|352:224,1,89.9999972534181
416,128,50454,2,0,P|384:96|320:96,1,89.9999972534181
320,96,50754,1,0,0:0:0:0:
288,96,50854,1,8,0:0:0:0:
256,96,50954,1,8,0:0:0:0:
224,96,51054,1,8,0:0:0:0:
192,96,51154,1,8,0:0:0:0:
160,96,51254,1,8,0:0:0:0:
128,96,51354,1,8,0:0:0:0:
96,96,51454,1,8,0:0:0:0:
64,96,51554,1,8,0:0:0:0:
32,96,51654,6,0,L|32:224,1,112.500004291535
224,192,52454,2,0,L|288:96,1,112.500004291535
448,64,53254,2,0,P|480:128|448:160,1,112.500004291535
352,160,54054,2,0,P|320:224|352:256,1,112.500004291535
448,256,54854,1,0,0:0:0:0:
448,384,55254,1,0,0:0:0:0:
320,384,55654,1,0,0:0:0:0:
192,384,56054,6,0,B|96:384|96:384|64:384,1,112.500004291535
64,256,56854,2,0,L|64:128,1,112.500004291535
96,128,57454,1,8,0:0:0:0:
128,96,57654,1,8,0:0:0:0:
160,64,57854,1,8,0:0:0:0:
192,32,58054,6,0,L|424:32|424:32,1,225.000008583069
460,96,59054,1,8,0:0:0:0:
428,292,59254,1,8,0:0:0:0:
460,96,59454,1,8,0:0:0:0:
428,292,59654,2,0,B|380:272|380:272|304:316|200:276,1,225.000008583069
116,200,60654,2,8,L|184:200,1,56.2500021457673
56,288,61054,2,0,P|24:236|24:176,1,112.500004291535
256,64,61654,5,8,0:0:0:0:
160,288,61854,1,8,0:0:0:0:
392,160,62054,1,8,0:0:0:0:
128,152,62254,1,8,0:0:0:0:
360,300,62454,1,8,0:0:0:0:
256,32,62654,5,8,0:0:0:0:
128,320,62854,1,8,0:0:0:0:
416,128,63054,1,8,0:0:0:0:
96,128,63254,1,8,0:0:0:0:
384,320,63454,1,8,0:0:0:0:
256,64,63654,1,8,0:0:0:0:
236,64,63754,1,8,0:0:0:0:
220,68,63854,1,8,0:0:0:0:
200,68,63954,1,8,0:0:0:0:
180,64,64054,1,8,0:0:0:0:
164,60,64154,1,8,0:0:0:0:
148,52,64254,1,8,0:0:0:0:
136,40,64354,1,12,0:0:0:0:
256,192,64654,12,4,67654,0:0:0:0:
