osu file format v9

[General]
AudioFilename: bgm[1].mp3
AudioLeadIn: 0
PreviewTime: 53200
Countdown: 0
SampleSet: Soft
StackLeniency: 0.7
Mode: 1
LetterboxInBreaks: 1

[Editor]
DistanceSpacing: 0
BeatDivisor: 8
GridSize: 16

[Metadata]
Title:DRAGONLADY
Artist:Nankumo
Creator:Nyan
Version:Taiko Oni
Source:BOF2009
Tags:HAPPY 7.31Dancers Cube3

[Difficulty]
HPDrainRate:7
CircleSize:3
OverallDifficulty:5
ApproachRate:5
SliderMultiplier:1.4
SliderTickRate:2

[Events]
//Background and Video events
0,0,"cube_stagefile_00.JPG"
Video,1899,"DRAGONLADY_(Original).flv"
//Break Periods
//Storyboard Layer 0 (Background)
//Storyboard Layer 1 (Fail)
//Storyboard Layer 2 (Pass)
//Storyboard Layer 3 (Foreground)
//Storyboard Sound Samples
//Background Colour Transformations
3,100,163,162,255

[TimingPoints]
2000,400,4,2,0,100,1,0
53599,-100,4,2,0,100,0,1
66000,-100,4,2,0,100,0,0

[HitObjects]
256,192,2000,1,6
256,192,2200,1,0
256,192,2300,1,0
256,192,2400,1,2
256,192,2700,1,2
256,192,3000,1,0
256,192,3200,1,2
256,192,3500,1,2
256,192,3800,1,0
256,192,4000,1,2
256,192,4300,1,2
256,192,4400,1,0
256,192,4600,1,0
256,192,4800,1,2
256,192,5100,1,2
256,192,5200,1,0
256,192,5400,1,0
256,192,5600,1,2
256,192,5900,1,2
256,192,6000,1,0
256,192,6200,1,0
256,192,6300,1,0
256,192,6400,1,2
256,192,6700,1,2
256,192,6800,1,0
256,192,7000,1,0
256,192,7100,1,0
256,192,7200,1,2
256,192,7500,1,2
256,192,7600,1,0
256,192,7700,1,2
256,192,7800,1,0
256,192,7900,1,0
256,192,8000,1,0
256,192,8100,1,0
256,192,8200,1,0
256,192,8300,1,0
256,192,8400,1,0
256,192,8600,1,0
256,192,8800,1,2
256,192,8900,1,0
256,192,9000,1,0
256,192,9100,1,2
256,192,9200,1,0
256,192,9400,1,0
256,192,9600,1,2
256,192,9700,1,0
256,192,9800,1,0
256,192,9900,1,2
256,192,10000,1,0
256,192,10200,1,0
256,192,10400,1,2
256,192,10500,1,0
256,192,10600,1,0
256,192,10700,1,2
256,192,10800,1,0
256,192,10900,1,2
256,192,11000,1,0
256,192,11200,1,2
256,192,11300,1,0
256,192,11400,1,0
256,192,11500,1,2
256,192,11600,1,0
256,192,11800,1,0
256,192,12000,1,2
256,192,12100,1,0
256,192,12200,1,0
256,192,12300,1,2
256,192,12400,1,0
256,192,12600,1,0
256,192,12800,1,2
256,192,12900,1,0
256,192,13000,1,0
256,192,13100,1,2
256,192,13200,1,0
256,192,13400,1,0
256,192,13600,1,2
256,192,13700,1,0
256,192,13800,1,0
256,192,13900,1,2
256,192,14200,1,6
256,192,14500,1,6
256,192,14700,1,0
256,192,14800,1,2
256,192,15000,1,2
256,192,15200,1,2
256,192,15300,1,0
256,192,15400,1,0
256,192,15500,1,2
256,192,15600,1,2
256,192,15800,1,2
256,192,16000,1,2
256,192,16100,1,0
256,192,16200,1,0
256,192,16300,1,2
256,192,16400,1,2
256,192,16600,1,2
256,192,16800,1,2
256,192,16900,1,0
256,192,17000,1,0
256,192,17100,1,2
256,192,17200,1,2
256,192,17400,1,0
256,192,17500,1,0
256,192,17600,1,2
256,192,17700,1,0
256,192,17800,1,0
256,192,17900,1,2
256,192,18000,1,2
256,192,18200,1,2
256,192,18400,1,2
256,192,18500,1,0
256,192,18600,1,0
256,192,18700,1,2
256,192,18800,1,2
256,192,19000,1,2
256,192,19200,1,2
256,192,19300,1,0
256,192,19400,1,0
256,192,19500,1,2
256,192,19600,1,2
256,192,19800,1,2
256,192,20000,1,2
256,192,20100,1,0
256,192,20200,1,0
256,192,20300,1,2
256,192,20400,1,0
256,192,20500,1,2
256,192,20600,1,0
256,192,20800,1,2
256,192,20850,1,2
256,192,20900,1,2
256,192,21000,1,2
256,192,21200,1,4
256,192,21400,1,2
256,192,21600,1,4
256,192,21800,1,2
256,192,22000,1,4
256,192,22200,1,2
256,192,22400,1,4
256,192,22600,1,2
256,192,22800,1,4
256,192,23000,1,2
256,192,23200,1,4
256,192,23400,1,2
256,192,23600,12,4,24200
256,192,24400,5,4
256,192,24600,1,2
256,192,24800,1,4
256,192,25000,1,2
256,192,25200,1,4
256,192,25400,1,2
256,192,25600,1,4
256,192,25800,1,2
256,192,26000,1,4
256,192,26200,1,2
256,192,26400,1,4
256,192,26600,1,2
256,192,26800,1,0
256,192,27100,1,0
256,192,27200,1,2
256,192,27250,1,2
256,192,27300,1,2
256,192,27400,1,2
256,192,27600,1,2
256,192,27700,1,0
256,192,27900,1,0
256,192,28100,1,2
256,192,28200,1,2
256,192,28300,1,2
256,192,28400,1,0
256,192,28500,1,2
256,192,28600,1,2
256,192,28700,1,0
256,192,28800,1,0
256,192,28900,1,2
256,192,29000,1,2
256,192,29200,1,2
256,192,29400,1,0
256,192,29500,1,0
256,192,29600,1,2
256,192,29700,1,2
256,192,29800,1,2
256,192,29900,1,2
256,192,30000,1,0
256,192,30100,1,2
256,192,30200,1,0
256,192,30300,1,0
256,192,30400,1,2
256,192,30600,1,2
256,192,30700,1,2
256,192,30800,1,0
256,192,31000,1,0
256,192,31300,1,2
256,192,31400,1,2
256,192,31500,1,2
256,192,31600,1,0
256,192,31700,1,2
256,192,31800,1,2
256,192,31900,1,0
256,192,32000,1,0
256,192,32100,1,2
256,192,32200,1,2
256,192,32400,1,6
256,192,32700,1,0
256,192,32800,1,2
256,192,32900,1,0
256,192,33000,1,0
256,192,33100,1,2
256,192,33200,1,2
256,192,33300,1,0
256,192,33400,1,2
256,192,33500,1,0
256,192,33600,1,2
256,192,34000,1,0
256,192,34100,1,0
256,192,34200,1,0
256,192,34300,1,0
256,192,34400,1,0
256,192,34500,1,2
256,192,34700,1,0
256,192,34800,1,0
256,192,34900,1,2
256,192,35000,1,2
256,192,35100,1,0
256,192,35200,1,0
256,192,35300,1,2
256,192,35400,1,2
256,192,35600,1,2
256,192,35800,1,0
256,192,35900,1,0
256,192,36000,1,2
256,192,36100,1,2
256,192,36200,1,2
256,192,36300,1,0
256,192,36400,1,2
256,192,36500,1,2
256,192,36600,1,2
256,192,36800,1,2
256,192,37000,1,2
256,192,37100,1,2
256,192,37200,1,2
256,192,37600,1,6
256,192,38000,1,2
256,192,38100,1,2
256,192,38200,1,2
256,192,38300,1,2
256,192,38400,1,2
256,192,38800,1,2
256,192,39100,1,2
256,192,39300,1,2
256,192,39500,1,2
256,192,39600,1,0
256,192,39700,1,0
256,192,39800,1,0
256,192,39900,1,0
256,192,40000,1,0
256,192,40100,1,0
256,192,40200,1,0
256,192,40300,1,0
256,192,40400,1,0
256,192,40500,1,0
256,192,40700,1,6
256,192,40900,1,6
256,192,41100,1,6
256,192,41300,1,2
256,192,41400,1,0
256,192,41500,1,0
256,192,41600,1,2
256,192,42000,1,0
256,192,42100,1,0
256,192,42300,1,6
256,192,42500,1,6
256,192,42700,1,6
256,192,42900,1,2
256,192,43000,1,0
256,192,43100,1,0
256,192,43200,1,2
256,192,43600,1,0
256,192,43700,1,0
256,192,43900,1,6
256,192,44100,1,6
256,192,44300,1,2
256,192,44400,1,0
256,192,44500,1,2
256,192,44600,1,0
256,192,44700,1,0
256,192,44800,1,2
256,192,45200,1,0
256,192,45300,1,0
256,192,45500,1,6
256,192,45700,1,6
256,192,45900,1,2
256,192,46100,1,2
256,192,46200,1,0
256,192,46300,1,0
256,192,46400,1,2
256,192,46450,1,2
256,192,46500,1,2
256,192,46600,1,2
256,192,46700,1,2
256,192,46800,1,0
256,192,47100,1,6
256,192,47300,1,6
256,192,47500,1,6
256,192,47700,1,2
256,192,47800,1,0
256,192,47900,1,0
256,192,48000,1,2
256,192,48300,1,2
256,192,48400,1,0
256,192,48500,1,0
256,192,48700,1,6
256,192,48900,1,6
256,192,49100,1,6
256,192,49300,1,2
256,192,49400,1,0
256,192,49500,1,0
256,192,49600,1,2
256,192,50000,1,0
256,192,50100,1,0
256,192,50300,1,6
256,192,50500,1,6
256,192,50700,1,2
256,192,50800,1,0
256,192,50900,1,0
256,192,51100,1,6
256,192,51300,1,6
256,192,51500,1,2
256,192,51600,1,0
256,192,51700,1,0
256,192,51900,1,2
256,192,52000,1,0
256,192,52100,1,0
256,192,52300,1,2
256,192,52400,1,0
256,192,52500,1,0
256,192,52600,1,0
256,192,52700,1,0
256,192,52800,1,0
256,192,52900,1,0
256,192,53000,1,0
256,192,53100,1,0
256,192,53200,1,2
256,192,53600,1,0
256,192,53700,1,2
256,192,53900,1,2
256,192,54000,1,0
256,192,54100,1,0
256,192,54200,1,0
256,192,54300,1,0
256,192,54500,1,0
256,192,54700,1,0
256,192,54800,1,0
256,192,54900,1,0
256,192,55100,1,2
256,192,55300,1,2
256,192,55500,1,2
256,192,55600,1,0
256,192,55700,1,0
256,192,55800,1,0
256,192,55900,1,2
256,192,56100,1,2
256,192,56300,1,2
256,192,56400,1,0
256,192,56500,1,0
256,192,56700,1,2
256,192,56900,1,2
256,192,57100,1,2
256,192,57200,1,0
256,192,57300,1,0
256,192,57400,1,0
256,192,57500,1,0
256,192,57600,1,2
256,192,57700,1,0
256,192,57900,1,0
256,192,58000,1,0
256,192,58100,1,0
256,192,58300,1,2
256,192,58500,1,2
256,192,58700,1,2
256,192,58800,1,2
256,192,58900,1,0
256,192,59000,1,2
256,192,59100,1,0
256,192,59200,1,2
256,192,59300,1,0
256,192,59400,1,0
256,192,59500,1,2
256,192,59600,1,0
256,192,59700,1,0
256,192,59900,1,2
256,192,60100,1,2
256,192,60300,1,2
256,192,60400,1,0
256,192,60500,1,0
256,192,60600,1,0
256,192,60700,1,0
256,192,60800,1,2
256,192,60900,1,0
256,192,61100,1,0
256,192,61200,1,0
256,192,61300,1,0
256,192,61500,1,2
256,192,61700,1,2
256,192,61900,1,2
256,192,62000,1,0
256,192,62100,1,2
256,192,62200,1,0
256,192,62300,1,0
256,192,62400,1,2
256,192,62500,1,0
256,192,62700,1,0
256,192,62800,1,0
256,192,62900,1,0
256,192,63100,1,2
256,192,63300,1,2
256,192,63500,1,2
256,192,63600,1,0
256,192,63700,1,0
256,192,63800,1,0
256,192,63900,1,2
256,192,64100,1,2
256,192,64300,1,2
256,192,64400,1,0
256,192,64500,1,0
256,192,64700,1,2
256,192,64900,1,2
256,192,65100,1,2
256,192,65200,1,0
256,192,65300,1,2
256,192,65400,1,0
256,192,65500,1,2
256,192,65600,1,0
256,192,65700,1,0
256,192,65800,1,0
256,192,65900,1,0
256,192,66400,1,0
256,192,66500,1,2
256,192,66700,1,6
256,192,67200,1,0
256,192,67300,1,2
256,192,67500,1,6
256,192,68000,1,0
256,192,68100,1,2
256,192,68300,1,6
256,192,68800,1,0
256,192,68900,1,2
256,192,69100,1,6
256,192,69600,1,0
256,192,69700,1,2
256,192,69900,1,2
256,192,70000,1,0
256,192,70400,1,0
256,192,70500,1,2
256,192,70700,1,2
256,192,70800,12,0,73800
256,192,74000,5,4
256,192,74200,1,0
256,192,74800,1,4
256,192,75000,1,0
256,192,75600,1,4
256,192,75800,1,0
256,192,76000,1,4
256,192,76200,1,0
256,192,76400,1,0
256,192,76500,1,0
256,192,76600,1,0
256,192,76700,1,0
256,192,76800,1,0
256,192,76900,1,0
256,192,77000,1,0
256,192,77100,1,0
256,192,77200,1,0
256,192,77400,1,0
256,192,77600,1,2
256,192,77700,1,0
256,192,77800,1,0
256,192,77900,1,2
256,192,78000,1,0
256,192,78200,1,0
256,192,78400,1,2
256,192,78500,1,0
256,192,78600,1,0
256,192,78700,1,2
256,192,78800,1,0
256,192,79000,1,0
256,192,79200,1,2
256,192,79300,1,0
256,192,79400,1,0
256,192,79500,1,2
256,192,79600,1,0
256,192,79700,1,2
256,192,79800,1,0
256,192,80000,1,2
256,192,80100,1,0
256,192,80200,1,0
256,192,80300,1,2
256,192,80400,1,0
256,192,80600,1,0
256,192,80800,1,2
256,192,80900,1,0
256,192,81000,1,0
256,192,81100,1,2
256,192,81200,1,0
256,192,81400,1,0
256,192,81600,1,2
256,192,81700,1,0
256,192,81800,1,0
256,192,81900,1,2
256,192,82000,1,0
256,192,82200,1,0
256,192,82300,1,0
256,192,82400,1,2
256,192,82500,1,0
256,192,82600,1,0
256,192,82700,1,2
256,192,82800,1,0
256,192,82900,1,2
256,192,83000,1,0
256,192,83200,1,2
256,192,83250,1,2
256,192,83300,1,2
256,192,83400,1,2
256,192,83600,1,4
256,192,83800,1,2
256,192,84000,1,4
256,192,84200,1,2
256,192,84400,1,4
256,192,84600,1,2
256,192,84800,1,4
256,192,85000,1,2
256,192,85200,1,4
256,192,85400,1,2
256,192,85600,1,4
256,192,85800,1,2
256,192,86000,12,4,86600
256,192,86800,5,4
256,192,87000,1,2
256,192,87200,1,4
256,192,87400,1,2
256,192,87600,1,4
256,192,87800,1,2
256,192,88000,1,4
256,192,88200,1,2
256,192,88400,1,4
256,192,88600,1,2
256,192,88800,1,4
256,192,89000,1,2
256,192,89200,1,0
256,192,89500,1,0
256,192,89600,1,2
256,192,89650,1,2
256,192,89700,1,2
256,192,89800,1,2
256,192,89900,1,2
