osu file format v9

[General]
AudioFilename: bgm[1].mp3
AudioLeadIn: 0
PreviewTime: 53200
Countdown: 0
SampleSet: Normal
StackLeniency: 0.7
Mode: 0
LetterboxInBreaks: 1

[Editor]
DistanceSpacing: 1
BeatDivisor: 4
GridSize: 8

[Metadata]
Title:DRAGONLADY
Artist:Nankumo
Creator:Nyan
Version:ReMiX
Source:BOF2009
Tags:HAPPY 7.31Dancers Cube3

[Difficulty]
HPDrainRate:7
CircleSize:4
OverallDifficulty:8
ApproachRate:8
SliderMultiplier:2
SliderTickRate:2

[Events]
//Background and Video events
0,0,"cube_stagefile_00.JPG"
Video,1899,"DRAGONLADY_(Original).flv"
//Break Periods
2,40600,52450
//Storyboard Layer 0 (Background)
//Storyboard Layer 1 (Fail)
//Storyboard Layer 2 (Pass)
//Storyboard Layer 3 (Foreground)
//Storyboard Sound Samples
//Background Colour Transformations
3,100,163,162,255

[TimingPoints]
2000,400,4,1,0,31,1,0
7550,-100,4,1,0,70,0,0
8350,-100,4,1,0,100,0,0
38700,-100,4,1,0,0,0,0
39500,-100,4,1,0,19,0,0
39600,-100,4,1,0,41,0,0
39700,-100,4,1,0,59,0,0
39800,-100,4,1,0,79,0,0
40100,-100,4,1,0,80,0,0
40200,-100,4,1,0,61,0,0
40300,-100,4,1,0,39,0,0
40500,-100,4,1,0,21,0,0
53100,-100,4,1,0,0,0,0
53500,-100,4,1,0,100,0,0
53600,-100,4,1,0,100,0,1
65950,-100,4,1,0,0,0,0
66470,-100,4,1,0,100,0,0
66800,-100,4,1,0,0,0,0
67270,-100,4,1,0,100,0,0
67600,-100,4,1,0,0,0,0
68070,-100,4,1,0,100,0,0
68400,-100,4,1,0,0,0,0
68870,-100,4,1,0,100,0,0
69200,-100,4,1,0,0,0,0
69670,-100,4,1,0,100,0,0
69970,-100,4,1,0,0,0,0
70470,-100,4,1,0,100,0,0

[Colours]
Combo1 : 255,128,0
Combo2 : 4,166,61
Combo3 : 221,117,148
Combo4 : 0,122,181

[HitObjects]
112,192,1999,1,0
256,56,2400,2,0,B|304:72|304:72|352:40|352:40|400:56|400:56,1,150,2|2
184,192,3200,2,0,B|136:208|136:208|88:176|88:176|40:192|40:192,1,150,2|2
256,320,4000,6,0,B|304:336|304:336|344:304|344:304|384:336|384:336|432:320|432:320,1,200,2|2
384,232,4600,1,0
360,216,4700,1,0
344,200,4800,2,0,B|304:184|304:184|336:120|336:120|296:104,1,150,2|2
303,106,5200,1,0
128,8,5600,6,0,B|80:40|80:40|112:120|112:120|64:152,1,200,2|2
32,352,6400,2,0,B|64:312|64:312|160:320|160:320|200:272,1,200,2|2
264,320,7200,6,0,B|312:288|312:224|264:192,1,150,2|2
248,176,7600,1,0
224,176,7700,1,2
200,192,7800,1,0
184,208,7900,1,0
176,232,8000,1,0
184,256,8100,1,0
200,272,8200,1,0
224,280,8300,1,0
248,280,8400,5,4
344,248,8600,1,0
416,184,8800,2,0,B|456:224|456:288|408:328|408:328,1,150,2|2
415,320,9200,1,4
344,248,9400,1,0
264,312,9600,2,0,B|216:280|216:216|272:160|272:160,1,150,2|2
257,178,10000,5,4
344,128,10200,1,0
264,64,10400,2,0,B|228:25|152:24|120:72|120:72,2,150,2|2|2
200,136,11200,2,0,B|200:288,1,150,2|2
368,144,11600,6,0,B|368:73,2,70,4|0|0
256,160,12300,1,0
256,160,12400,2,0,B|256:80,2,70,4|0|0
144,144,13100,1,2
144,144,13200,2,0,B|144:64,2,70,4|0|0
48,192,13900,5,6
256,192,14200,1,6
464,192,14500,1,6
472,264,14700,5,0
472,264,14800,1,4
416,312,15000,1,0
360,264,15200,1,2
360,264,15300,2,0,B|248:264,1,105,0|4
288,200,15800,1,0
320,136,16000,1,2
320,136,16100,2,0,B|208:136,1,105,0|4
232,200,16600,5,0
208,264,16800,1,2
208,264,16900,2,0,B|128:264,1,70,0|2
138,264,17200,1,4
112,200,17400,1,0
144,136,17600,2,2,B|80:136,2,35,2|0|0
192,64,18000,5,4
256,144,18200,1,2
320,64,18400,1,4
384,144,18600,1,2
320,240,18800,5,4
256,320,19000,1,2
192,240,19200,1,4
128,320,19400,1,2
64,240,19600,5,4
128,160,19800,1,2
64,80,20000,1,4
128,160,20200,1,2
192,80,20400,5,4
256,160,20600,1,0
192,240,20800,2,2,B|176:256,2,17.5
224,200,21000,1,2
304,96,21200,5,4
400,144,21400,1,2
304,192,21600,1,4
208,240,21800,1,2
304,288,22000,5,4
400,240,22200,1,2
304,192,22400,1,4
208,144,22600,1,2
208,288,22800,5,4
112,240,23000,1,2
208,192,23200,1,4
304,144,23400,1,2
208,96,23600,5,4
112,144,23800,1,2
208,192,24000,1,4
304,240,24200,1,2
368,192,24400,5,4
432,240,24600,1,0
368,288,24800,2,8,B|400:312,2,35
304,336,25200,1,0
240,288,25400,1,0
304,240,25600,2,8,B|272:216,2,35
240,288,26000,5,0
176,336,26200,1,0
112,288,26400,2,8,B|80:264,2,35
176,240,26800,2,0,B|176:128,1,105
144,112,27200,2,8,B|120:112,2,17.5
176,88,27400,1,8
248,104,27600,6,0,B|280:72|280:72,1,35
328,120,27900,1,0
384,80,28100,2,0,B|416:112|416:112,3,35,0|2|2|0
424,120,28500,2,0,B|456:88|456:88,5,35,0|0|2|0|0|2
456,168,29200,5,0
472,232,29400,1,0
424,280,29600,2,8,B|456:312|456:312,4,35,8|8|8|8|0
360,264,30200,2,0,B|328:296|328:296,2,35,0|0|2
408,216,30600,2,2,B|440:184|440:184,2,35,2|2|0
344,200,31000,1,0
320,96,31300,6,8,B|288:64|288:64,3,35,8|8|8|0
256,96,31700,2,8,B|224:128|224:128,3,35,8|8|8|0
256,160,32100,2,8,B|224:192|224:192,1,35
256,288,32400,5,0
192,320,32600,1,0
160,256,32800,2,0,B|128:288|128:288,3,35,2|0|0|2
120,248,33200,2,0,B|88:280|88:280,1,35,8|0
80,240,33400,2,0,B|48:272|48:272,1,35,8|0
40,232,33600,1,12
208,304,34000,6,0,B|176:336|176:336,2,35
240,288,34300,2,0,B|272:256|272:256,2,35,0|0|2
304,320,34700,1,0
304,320,34800,2,2,B|416:208|416:208,1,140,2|0
432,240,35300,1,2
448,272,35400,1,2
384,288,35600,5,0
352,224,35800,1,0
352,192,35900,1,0
368,160,36000,2,8,B|336:128|336:128,3,35
336,96,36400,2,8,B|368:64|368:64,2,35
272,96,36800,1,2
208,96,37000,2,2,B|176:64|176:64,1,35
183,71,37200,5,6
336,304,37600,1,6
256,192,38000,5,6
256,192,38100,1,6
256,192,38200,1,6
256,192,38300,1,6
256,192,38400,1,6
144,112,38800,6,2,B|64:32|64:32,2,105
144,112,39500,1,0
144,112,39600,1,0
144,112,39700,1,0
144,112,39800,1,0
144,112,39900,1,0
144,112,40000,1,0
144,112,40100,1,0
144,112,40200,1,0
144,112,40300,1,0
144,112,40400,1,0
256,192,53200,5,6
352,96,53600,5,0
352,96,53700,1,2
280,96,53900,1,2
280,96,54000,2,0,B|248:64|248:64,3,35
192,48,54500,1,0
128,72,54700,1,0
128,72,54800,2,0,B|96:104|96:104,1,35
48,144,55100,5,2
104,192,55300,1,2
48,240,55500,1,2
48,240,55600,2,0,B|16:272|16:272,3,35
56,328,56100,1,0
112,368,56300,1,0
112,368,56400,2,0,B|144:336,1,35
184,288,56700,5,2
240,336,56900,1,2
296,288,57100,1,2
296,288,57200,2,0,B|328:320|328:320,3,35
376,264,57700,1,0
320,216,57900,1,0
320,216,58000,2,0,B|288:184|288:184,1,35
240,240,58300,5,2
192,296,58500,1,2
144,240,58700,1,2
144,240,58800,2,0,B|128:208|128:208,1,35,0|2
160,192,59000,2,0,B|144:160|144:160,1,35,0|2
176,144,59200,2,0,B|160:112|160:112,1,35,0|2
192,96,59400,2,0,B|176:64|176:64,1,35,0|2
208,48,59600,6,0,B|224:80|224:80,1,35
272,160,59900,1,2
320,80,60100,1,2
368,160,60300,1,2
368,160,60400,2,0,B|384:128|384:128,3,35
432,48,60900,1,0
480,128,61100,1,0
480,128,61200,2,0,B|464:160|464:160,1,35
416,240,61500,5,2
320,240,61700,1,2
368,320,61900,1,2
368,320,62000,2,0,B|352:352|352:352,3,35
272,320,62500,1,0
192,352,62700,1,0
192,352,62800,2,0,B|176:320,1,35
224,240,63100,5,2
272,160,63300,1,2
224,80,63500,1,2
224,80,63600,2,0,B|176:80|176:80,3,35
96,80,64100,1,0
96,176,64300,1,0
96,176,64400,2,0,B|144:176|144:176,1,35
224,176,64700,5,2
240,272,64900,1,2
336,272,65100,1,2
336,272,65200,2,0,B|352:240|352:240,1,35,0|2
336,208,65400,2,0,B|352:176|352:176,1,35,0|2
336,144,65600,2,0,B|352:112|352:112,1,35,0|2
336,80,65800,2,0,B|352:48|352:48,1,35,0|2
351,48,66000,1,6
96,304,66400,6,8,B|96:256|96:256,1,35,0|8
96,269,66700,1,8
416,61,67200,6,8,B|416:109|416:109,1,35
416,96,67500,1,8
96,51,68000,6,8,B|48:51|48:51,1,35,0|8
61,51,68300,1,8
416,304,68800,6,8,B|464:304|464:304,1,35,0|8
451,304,69100,1,8
64,189,69600,6,8,B|64:237|64:237,1,35,0|8
64,224,69900,2,8,B|64:269|64:269,1,35,8|0
448,192,70400,6,8,B|448:144|448:144,1,35,0|8
448,157,70700,1,8
256,192,70900,12,4,74000
160,104,74200,5,0
464,336,74800,5,4
464,336,75000,1,0
352,96,75600,5,4
352,96,75800,1,0
304,144,76000,5,4
304,144,76200,1,0
256,192,76400,5,0
256,192,76500,1,0
256,192,76600,1,0
256,192,76700,1,0
256,192,76800,1,0
256,192,76900,1,0
256,192,77000,1,0
256,192,77100,1,0
256,192,77200,5,4
208,144,77400,1,0
208,80,77600,2,0,B|176:112|144:112|112:80|112:80,1,105,2|2
114,82,78000,1,4
112,144,78200,1,0
48,144,78400,2,0,B|80:176|80:208|48:240|48:240,1,105,2|2
50,237,78800,5,4
112,240,79000,1,0
112,304,79200,2,0,B|144:272|176:272|208:304|208:304,1,105,2|2
205,301,79600,1,4
208,240,79800,1,0
208,176,80000,1,2
224,144,80100,1,0
256,128,80200,1,0
288,144,80300,1,2
304,176,80400,5,4
304,240,80600,1,0
304,304,80800,2,0,B|336:336|368:336|400:304|400:304,1,105,2|2
397,306,81200,1,4
400,240,81400,1,0
464,240,81600,2,0,B|496:208|496:176|464:144|464:144,1,105,2|2
466,146,82000,5,4
400,144,82200,1,0
400,80,82400,2,0,B|368:48|336:48|304:80|304:80,1,105,2|2
280,96,82800,2,2,B|246:131|214:131|182:99|182:99,1,105,2|2
160,80,83200,2,8,B|144:64|144:64,2,17.5
192,56,83400,1,8
192,192,83600,5,4
128,96,83800,1,2
64,192,84000,1,4
128,288,84200,1,2
192,192,84400,5,4
256,96,84600,1,2
320,192,84800,1,4
256,288,85000,1,2
320,192,85200,5,4
384,96,85400,1,2
448,192,85600,1,4
384,288,85800,1,2
320,192,86000,5,4
256,112,86200,1,2
192,192,86400,1,4
256,288,86600,1,2
192,272,86800,5,0
144,224,87000,1,0
128,160,87200,1,2
160,128,87300,2,0,B|128:96|128:96,2,35,0|0|2
192,96,87600,5,0
256,112,87800,1,0
320,96,88000,1,2
352,128,88100,2,0,B|384:96,2,35,0|0|2
384,160,88400,5,0
368,224,88600,1,0
320,272,88800,1,0
256,304,89000,1,0
256,240,89200,6,0,B|224:224|224:224|256:208|256:208|224:192|224:192,1,105
