osu file format v13

[General]
AudioFilename: Arifureta Kanashimi no Hate.mp3
AudioLeadIn: 1500
PreviewTime: 45821
Countdown: 0
SampleSet: Soft
StackLeniency: 0.7
Mode: 0
LetterboxInBreaks: 1
WidescreenStoryboard: 0

[Editor]
DistanceSpacing: 1.1
BeatDivisor: 8
GridSize: 4
TimelineZoom: 2

[Metadata]
Title:Arifureta Kanashimi no Hate
TitleUnicode:ありふれた悲しみの果て
Artist:Nanjou Yoshino
ArtistUnicode:南條愛乃
Creator:Hinsvar
Version:Hard
Source:ラブライブ!School idol project
Tags:Love Live! 絢瀬絵里 Ayase Eli Eri Nanjolno soldier game duo trio single cd 4 Best Album Collection
BeatmapID:470989
BeatmapSetID:198516

[Difficulty]
HPDrainRate:5
CircleSize:4
OverallDifficulty:6
ApproachRate:7.2
SliderMultiplier:2.4
SliderTickRate:4

[Events]
//Background and Video events
0,0,"Eli.jpg",0,0
//Break Periods
2,71066,80972
2,167652,175362
2,188505,189813
//Storyboard Layer 0 (Background)
//Storyboard Layer 1 (Fail)
//Storyboard Layer 2 (Pass)
//Storyboard Layer 3 (Foreground)
//Storyboard Sound Samples

[TimingPoints]
639,731.707317073171,4,2,1,40,1,0
24054,-100,4,2,1,50,0,0
44541,-100,4,2,1,55,0,0
45273,-100,4,2,1,60,0,0
46004,-100,4,2,1,65,0,0
46736,-100,4,2,1,70,0,0
47452,731.707317073171,4,1,1,90,1,1
47452,-80,4,1,1,90,0,1
58793,-80,4,1,1,90,0,0
59159,-80,4,1,1,90,0,1
70866,-100,4,2,1,50,0,0
116232,-100,4,2,1,60,0,0
116964,-100,4,2,1,70,0,0
117695,-80,4,1,1,90,0,1
129037,-80,4,1,1,90,0,0
129403,-80,4,1,1,90,0,1
141110,-100,4,1,1,70,0,0
163061,-133.333333333333,4,1,1,80,0,0
176232,-100,4,1,1,80,0,0
187939,731.707317073171,5,1,1,80,1,0
191598,731.707317073171,4,1,1,90,1,0
191598,-80,4,1,1,90,0,1
202939,-80,4,1,1,90,0,0
203305,-80,4,1,1,90,0,1
215012,-133.333333333333,4,2,1,40,0,0
224341,882.352941176471,4,2,1,40,1,0
224782,1348.31460674157,4,2,1,40,1,8
225456,902.255639097744,4,2,1,40,1,8
225907,1111.11111111111,4,2,1,40,1,8
226462,1395.3488372093,4,2,1,40,1,8
227159,1304.34782608696,4,2,1,40,1,8
228463,937.5,4,2,1,40,1,0
228580,1224.48979591837,4,2,1,40,1,8
228733,1463.41463414634,4,2,1,40,1,8
228915,1052.63157894737,4,2,1,40,1,8
229178,-100,4,2,1,5,0,0

[Colours]
Combo1 : 235,196,75
Combo2 : 255,255,128
Combo3 : 255,128,0
Combo4 : 248,234,201

[HitObjects]
101,328,456,5,0,0:0:0:0:
101,328,547,1,0,0:0:0:0:
101,328,639,2,0,P|158:346|219:313,1,120,2|0,0:0|0:0,0:0:0:0:
264,266,1187,1,2,0:0:0:0:
258,188,1370,2,0,L|247:65,2,120,8|0|2,0:0|0:0|0:0,0:0:0:0:
265,266,2285,1,0,3:0:0:0:
141,360,2651,1,0,0:0:0:0:
65,342,2834,2,0,P|41:294|69:233,1,120,2|0,0:0|0:0,0:0:0:0:
136,203,3382,1,2,0:0:0:0:
136,203,3474,1,0,0:0:0:0:
136,203,3565,6,0,P|193:222|254:197,1,120,2|2,0:0|0:0,0:0:0:0:
354,88,4297,1,8,0:0:0:0:
426,117,4480,1,0,0:0:0:0:
474,178,4663,2,0,P|481:214|479:251,1,60,2|0,0:0|0:0,0:0:0:0:
461,313,5029,1,2,0:0:0:0:
400,360,5212,1,0,3:0:0:0:
322,364,5395,1,0,3:0:0:0:
172,332,5760,2,0,P|145:275|169:214,1,120,2|0,0:0|0:0,0:0:0:0:
228,184,6309,1,2,0:0:0:0:
228,184,6401,1,0,0:0:0:0:
228,184,6492,6,0,P|282:200|341:176,2,120,2|0|10,3:2|0:0|0:0,0:0:0:0:
160,148,7407,2,0,P|113:167|91:241,1,120,2|0,0:0|0:0,0:0:0:0:
106,304,7956,1,2,0:0:0:0:
172,345,8139,1,0,3:0:0:0:
248,332,8321,1,0,0:0:0:0:
342,206,8687,2,0,P|397:193|459:220,1,120,2|0,0:0|0:0,0:0:0:0:
505,283,9236,1,2,0:0:0:0:
505,283,9328,1,0,0:0:0:0:
505,283,9419,6,0,L|513:161,1,120,2|2,0:0|0:0,0:0:0:0:
409,37,10151,1,8,0:0:0:0:
355,93,10334,1,2,0:0:0:0:
280,115,10517,1,0,0:0:0:0:
207,86,10699,1,0,0:0:0:0:
160,23,10882,2,0,L|95:29,2,60,2|0|0,0:0|3:0|0:0,0:0:0:0:
268,196,11614,2,0,L|260:261,1,60,2|0,0:0|0:0,0:0:0:0:
336,274,11980,2,0,L|328:339,1,60,2|0,0:0|0:0,0:0:0:0:
352,347,12254,1,0,0:0:0:0:
377,356,12346,6,0,P|433:341|459:281,1,120,2|2,0:0|0:0,0:0:0:0:
476,133,13078,2,0,P|461:77|401:51,1,120,10|2,0:0|0:0,0:0:0:0:
343,94,13626,1,0,3:0:0:0:
272,61,13809,2,0,P|237:59|201:70,1,60,2|0,0:0|0:0,0:0:0:0:
162,123,14175,2,0,P|98:128|42:103,1,120,2|8,0:0|0:0,0:0:0:0:
47,107,14907,2,0,L|43:37,1,60
122,208,15273,6,0,L|106:335,1,120,2|0,0:0|0:0,0:0:0:0:
172,368,15821,1,0,0:0:0:0:
172,368,16004,2,0,P|221:382|292:365,1,120,10|0,0:0|0:0,0:0:0:0:
362,346,16553,1,0,0:0:0:0:
430,308,16736,2,0,P|453:255|427:198,1,120,2|0,0:0|0:0,0:0:0:0:
429,200,18017,1,0,0:0:0:0:
429,200,18108,1,0,0:0:0:0:
429,200,18199,6,0,P|370:216|303:196,1,120,2|0,0:0|0:0,0:0:0:0:
191,105,18931,2,0,P|132:89|65:109,1,120,10|2,0:0|0:0,0:0:0:0:
48,176,19480,1,0,0:0:0:0:
34,253,19663,2,0,L|26:314,2,60,2|0|0,0:0|0:0|0:0,0:0:0:0:
34,253,20578,1,0,0:0:0:0:
111,244,20760,2,0,P|143:243|183:262,1,60
193,264,21035,1,0,0:0:0:0:
217,275,21126,6,0,P|280:283|337:260,1,120,2|0,0:0|0:0,0:0:0:0:
391,213,21675,2,0,L|402:150,2,60,0|10|0,0:0|0:0|0:0,0:0:0:0:
466,347,22407,1,0,0:0:0:0:
466,347,22590,2,0,L|393:356,1,60,2|0,3:2|3:0,0:0:0:0:
334,322,22956,2,0,L|261:313,1,60,0|2,0:0|0:0,0:0:0:0:
204,279,23321,1,8,0:0:0:0:
154,218,23504,1,2,0:0:0:0:
134,142,23687,1,2,0:0:0:0:
165,70,23870,1,0,0:0:0:0:
233,31,24053,6,0,B|294:20|294:20|369:37,2,120,2|2|8,0:0|0:0|0:0,0:0:0:0:
141,157,25151,1,2,0:0:0:0:
141,157,25334,1,0,0:0:0:0:
141,157,25517,2,0,L|131:217,2,60,2|0|0,0:0|0:0|0:0,0:0:0:0:
276,233,26248,1,8,0:0:0:0:
392,128,26614,2,0,P|422:122|457:128,1,60
477,199,26980,6,0,P|423:225|365:199,1,120,2|0,0:0|0:0,0:0:0:0:
301,166,27529,1,0,0:0:0:0:
301,166,27712,2,0,L|171:183,2,120,8|0|2,0:0|0:0|0:0,0:0:0:0:
342,231,28626,1,0,0:0:0:0:
332,308,28809,1,0,0:0:0:0:
184,360,29175,1,10,0:0:0:0:
76,246,29541,1,0,0:0:0:0:
64,168,29724,1,0,0:0:0:0:
64,168,29815,1,0,0:0:0:0:
64,168,29907,6,0,P|69:111|119:69,2,120,2|0|10,0:0|0:0|0:0,0:0:0:0:
161,289,31004,1,0,0:0:0:0:
238,299,31187,1,0,0:0:0:0:
309,267,31370,2,0,P|368:263|438:282,2,120,2|0|10,0:0|0:0|0:0,0:0:0:0:
301,345,32285,1,0,0:0:0:0:
246,198,32651,1,0,0:0:0:0:
246,198,32742,1,0,0:0:0:0:
246,198,32834,6,0,L|257:61,1,120,2|0,0:0|0:0,0:0:0:0:
330,101,33382,2,0,L|336:36,1,60,0|10,0:0|0:0,0:0:0:0:
388,150,33748,2,0,P|444:152|476:96,1,120,2|0,0:0|0:0,0:0:0:0:
464,24,34297,1,2,0:0:0:0:
328,100,34663,1,0,0:0:0:0:
188,28,35029,1,10,0:0:0:0:
188,28,35212,2,0,P|128:40|92:88,1,120,2|0,0:0|0:0,0:0:0:0:
72,160,35760,6,0,B|63:194|63:194|73:240|73:240|60:278,2,120,2|0|8,0:0|0:0|0:0,0:0:0:0:
148,140,36675,1,2,0:0:0:0:
224,144,36858,1,0,0:0:0:0:
276,204,37041,1,2,0:0:0:0:
292,280,37224,2,0,L|352:281,2,60,0|2|0,0:0|0:0|3:0,0:0:0:0:
148,344,37956,1,8,0:0:0:0:
347,374,38321,1,2,0:0:0:0:
246,196,38687,6,0,P|307:174|359:187,1,120,2|0,0:0|0:0,0:0:0:0:
419,236,39236,1,0,0:0:0:0:
436,160,39419,2,0,L|446:97,1,60,10|0,0:0|0:0,0:0:0:0:
467,312,39968,1,0,0:0:0:0:
467,312,40151,2,0,P|408:324|350:295,1,120,2|0,0:0|0:0,0:0:0:0:
220,232,40882,1,8,0:0:0:0:
220,232,41065,2,0,L|151:239,2,60,2|0|0,0:0|0:0|0:0,0:0:0:0:
290,196,41614,6,0,P|311:142|285:80,1,120,2|0,0:0|3:0,0:0:0:0:
220,52,42163,2,0,L|151:45,1,60,0|8,0:0|0:0,0:0:0:0:
291,86,42529,2,0,L|431:76,1,120,2|0,0:0|0:0,0:0:0:0:
467,131,43078,1,2,0:0:0:0:
488,205,43260,1,0,0:0:0:0:
462,278,43443,1,0,0:0:0:0:
314,328,43809,2,0,L|251:320,1,60,8|0,0:0|0:0,0:0:0:0:
187,279,44175,2,0,L|124:287,1,60,2|0,0:0|0:0,0:0:0:0:
101,278,44449,1,0,0:0:0:0:
80,259,44541,6,0,P|63:204|79:146,1,120,2|0,0:0|0:0,0:0:0:0:
271,145,45273,2,0,P|288:200|272:258,1,120,10|0,0:0|0:0,0:0:0:0:
106,356,46004,2,0,L|39:367,2,60,2|0|0,0:0|3:0|3:0,0:0:0:0:
301,362,46736,1,2,3:2:0:0:
266,280,46919,2,0,P|268:220|307:175,1,120,2|0,3:2|0:0,0:0:0:0:
495,250,47452,6,0,B|429:276|429:276|351:253,1,150,4|0,0:0|0:0,0:0:0:0:
305,176,48000,1,0,0:0:0:0:
273,91,48183,2,0,B|266:52|266:52|280:11,2,75,8|0|0,0:0|0:0|0:0,0:0:0:0:
357,59,48732,1,0,0:0:0:0:
219,164,48915,2,0,B|145:183|145:183|59:151,1,150,2|0,0:0|0:0,0:0:0:0:
32,78,49464,1,0,0:0:0:0:
76,157,49647,2,0,B|89:231|89:231|52:308,1,150,8|0,0:0|0:0,0:0:0:0:
4,370,50195,1,0,0:0:0:0:
148,329,50378,6,0,P|225:308|306:340,1,150,2|0,0:0|0:0,0:0:0:0:
369,372,50927,2,0,L|444:364,1,75,0|8,0:0|0:0,0:0:0:0:
421,276,51293,2,0,L|496:268,2,75,0|0|0,0:0|0:0|0:0,0:0:0:0:
344,226,51842,1,2,0:0:0:0:
301,146,52025,1,8,0:0:0:0:
325,59,52208,1,0,0:0:0:0:
325,59,52573,2,0,L|401:49,1,75,10|0,0:0|0:0,0:0:0:0:
235,74,52939,2,0,L|159:64,1,75,0|0,0:0|0:0,0:0:0:0:
301,146,53305,6,0,B|321:223|321:223|294:298,1,150,6|0,0:0|0:0,0:0:0:0:
217,332,53854,1,0,0:0:0:0:
130,307,54037,1,8,0:0:0:0:
69,240,54220,2,0,B|49:163|49:163|76:88,1,150,0|0,0:0|0:0,0:0:0:0:
163,103,54769,2,0,P|237:123|309:85,1,150,2|0,0:0|0:0,0:0:0:0:
384,60,55317,1,0,0:0:0:0:
464,100,55500,1,8,0:0:0:0:
464,100,55866,2,0,P|476:132|464:180,1,75
435,255,56232,6,0,P|371:296|291:276,1,150,2|0,0:0|0:0,0:0:0:0:
216,314,56781,1,0,0:0:0:0:
216,314,56964,2,0,P|208:282|216:234,1,75,8|0,0:0|0:0,0:0:0:0:
292,128,57330,2,0,P|300:160|292:208,1,75,0|0,0:0|0:0,0:0:0:0:
126,232,57695,2,0,P|98:168|126:88,1,150,2|0,0:0|3:0,0:0:0:0:
200,50,58244,2,0,L|274:46,1,75,0|8,0:0|0:0,0:0:0:0:
363,66,58610,1,0,0:0:0:0:
469,197,58793,6,0,L|395:193,1,75,4|8,2:0|0:0,0:0:0:0:
264,300,59159,6,0,P|192:268|204:200,1,150,4|0,0:0|0:0,0:0:0:0:
235,124,59708,1,0,0:0:0:0:
235,124,59891,2,0,L|153:112,2,75,8|0|0,0:0|0:0|0:0,0:0:0:0:
289,195,60439,1,0,0:0:0:0:
289,195,60622,2,0,B|364:169|364:169|394:102,1,150,2|0,0:0|0:0,0:0:0:0:
349,25,61171,2,0,L|266:18,1,75,0|8,0:0|0:0,0:0:0:0:
140,140,61720,1,0,0:0:0:0:
140,140,61903,1,0,0:0:0:0:
140,140,62086,6,0,P|127:218|186:253,1,150,2|0,3:1|0:0,0:0:0:0:
268,256,62634,2,0,L|347:251,1,75,0|8,0:0|0:0,0:0:0:0:
331,161,63000,2,0,L|414:149,2,75,0|0|0,0:0|0:0|0:0,0:0:0:0:
264,99,63549,1,2,0:0:0:0:
180,133,63732,1,8,0:0:0:0:
99,91,63915,1,0,0:0:0:0:
99,91,64281,2,0,P|52:118|46:182,2,112.5,8|0|0,0:0|0:0|0:0,0:0:0:0:
180,133,65012,6,0,P|248:154|316:113,1,150,6|0,0:0|0:0,0:0:0:0:
359,39,65561,1,0,0:0:0:0:
269,35,65744,1,8,0:0:0:0:
392,166,66110,2,0,B|431:176|431:176|471:165,1,75
496,251,66476,2,0,B|426:275|426:275|387:340,1,150,6|0,0:0|0:0,0:0:0:0:
204,336,67208,2,0,B|165:271|165:271|95:247,1,150,8|0,0:0|0:0,0:0:0:0:
303,224,67939,6,0,L|309:70,1,150,6|0,0:0|0:0,0:0:0:0:
242,12,68488,1,0,0:0:0:0:
309,74,68671,2,0,P|343:78|390:53,2,75,8|0|0,0:0|0:0|0:0,0:0:0:0:
242,12,69220,1,0,0:0:0:0:
171,67,69403,2,0,P|95:88|27:53,1,150,2|0,0:0|0:0,0:0:0:0:
152,293,70134,5,8,0:0:0:0:
40,238,70317,1,0,0:0:0:0:
165,215,70500,1,0,0:0:0:0:
76,306,70683,1,0,0:0:0:0:
93,182,70866,1,2,0:0:0:0:
128,104,81842,5,4,3:2:0:0:
128,104,82573,6,0,P|184:88|244:112,2,120,4|0|8,3:2|0:0|0:0,0:0:0:0:
68,156,83488,1,2,0:0:0:0:
68,156,83854,2,0,L|54:218,2,60,0|2|0,0:0|3:2|0:0,0:0:0:0:
141,183,84403,2,0,L|160:315,2,120,0|10|0,3:0|0:0|0:0,0:0:0:0:
136,105,85317,1,0,0:0:0:0:
192,53,85500,6,0,P|250:40|308:60,1,120,2|0,3:2|0:0,0:0:0:0:
342,128,86049,1,0,0:0:0:0:
342,128,86232,2,0,L|473:135,2,120,10|2|0,0:0|0:0|3:2,0:0:0:0:
249,254,87330,1,0,3:0:0:0:
96,184,87695,1,10,0:0:0:0:
96,184,87878,2,0,P|77:133|97:68,1,120,0|2,0:0|0:0,0:0:0:0:
167,42,88427,6,0,L|292:48,2,120,2|0|10,3:2|0:0|0:0,0:0:0:0:
167,120,89342,2,0,P|213:145|274:123,1,120,2|0,0:0|0:0,0:0:0:0:
347,147,89891,2,0,L|335:208,1,60,2|0,3:2|0:0,0:0:0:0:
394,256,90256,2,0,L|382:317,1,60,0|0,3:0|0:0,0:0:0:0:
432,375,90622,1,10,0:0:0:0:
279,343,90988,1,0,0:0:0:0:
126,376,91354,6,0,P|65:381|18:343,2,120,2|0|10,3:2|0:0|0:0,0:0:0:0:
182,321,92269,2,0,P|186:288|176:251,1,60,0|2,0:0|0:0,0:0:0:0:
50,176,92817,2,0,L|179:164,1,120,2|2,3:2|3:2,0:0:0:0:
231,212,93366,1,2,0:0:0:0:
231,212,93549,2,0,P|248:175|241:143,1,60,8|2,0:0|0:0,0:0:0:0:
168,20,94098,1,0,0:0:0:0:
168,20,94281,6,0,L|49:33,2,120,2|0|8,3:2|0:0|0:0,0:0:0:0:
185,96,95195,2,0,P|241:113|298:97,1,120,2|0,0:0|0:0,0:0:0:0:
327,24,95744,1,2,3:2:0:0:
304,178,96110,1,2,3:2:0:0:
404,58,96476,2,0,P|464:62|504:114,1,120,10|0,0:0|0:0,0:0:0:0:
498,183,97025,1,0,0:0:0:0:
498,183,97208,6,0,L|485:313,2,120,2|0|10,3:2|0:0|0:0,0:0:0:0:
421,196,98122,1,2,0:0:0:0:
265,184,98488,1,0,0:0:0:0:
265,184,98671,2,0,B|238:130|238:130|254:73,1,120,2|0,3:2|3:0,0:0:0:0:
293,4,99220,1,0,0:0:0:0:
330,72,99403,2,0,P|390:90|442:67,1,120,10|0,0:0|0:0,0:0:0:0:
487,216,100134,6,0,L|501:341,2,120,2|0|10,3:2|0:0|0:0,0:0:0:0:
423,170,101049,1,2,0:0:0:0:
276,224,101415,1,0,0:0:0:0:
276,224,101598,2,0,L|208:218,1,60,2|0,3:2|0:0,0:0:0:0:
165,278,101964,2,0,L|100:254,1,60,0|0,3:0|0:0,0:0:0:0:
31,271,102330,2,0,B|6:219|6:219|22:158,1,120,10|0,0:0|0:0,0:0:0:0:
157,81,103061,6,0,P|214:68|277:95,1,120,2|0,3:2|0:0,0:0:0:0:
301,242,103793,2,0,P|244:255|181:228,1,120,10|2,0:0|0:0,0:0:0:0:
122,189,104342,1,0,0:0:0:0:
172,129,104525,1,0,0:0:0:0:
172,129,104708,2,0,B|176:101|176:101|156:36|156:36|163:0,1,120,0|0,3:0|0:0,0:0:0:0:
236,32,105256,1,8,0:0:0:0:
98,106,105622,1,0,0:0:0:0:
220,203,105988,6,0,P|272:220|342:196,2,120,6|0|8,0:0|0:0|0:0,0:0:0:0:
197,127,106903,2,0,P|280:85|350:123,1,180,0|2,0:0|3:2,0:0:0:0:
396,186,107634,2,0,L|466:174,1,60,0|0,0:0|3:0,0:0:0:0:
476,330,108183,1,10,0:0:0:0:
403,357,108366,1,0,0:0:0:0:
325,346,108549,2,0,P|295:338|264:316,1,60,2|0,0:0|0:0,0:0:0:0:
273,201,108915,6,0,P|191:260|71:209,1,240,2|10,3:2|0:0,0:0:0:0:
48,134,109830,2,0,L|63:70,1,60,2|0,0:0|0:0,0:0:0:0:
203,10,110378,2,0,L|226:129,1,120,2|0,3:2|0:0,0:0:0:0:
189,197,110927,1,0,0:0:0:0:
189,197,111110,2,0,B|131:186|131:186|68:219,1,120,8|0,0:0|0:0,0:0:0:0:
86,370,111842,6,0,P|143:381|203:366,1,120,2|0,3:2|0:0,0:0:0:0:
349,315,112573,2,0,P|386:269|401:211,1,120,8|0,0:0|0:0,0:0:0:0:
418,55,113305,2,0,L|480:59,2,60,2|0|0,3:2|0:0|3:0,0:0:0:0:
318,176,114037,1,8,0:0:0:0:
219,55,114403,1,2,0:0:0:0:
140,56,114586,1,0,0:0:0:0:
76,101,114769,6,0,P|51:158|70:220,1,120,2|0,3:2|0:0,0:0:0:0:
233,325,115500,2,0,P|258:268|239:206,1,120,10|0,0:0|0:0,0:0:0:0:
162,54,116232,1,2,0:0:0:0:
162,54,116415,2,0,L|298:46,1,120,0|0,3:0|0:0,0:0:0:0:
338,101,116964,1,10,0:0:0:0:
338,101,117147,2,0,L|404:106,2,60,0|0|0,3:0|3:0|3:0,0:0:0:0:
198,156,117695,6,0,P|164:217|207:274,1,150,4|0,0:0|0:0,0:0:0:0:
295,251,118244,1,0,0:0:0:0:
377,287,118427,1,8,0:0:0:0:
460,254,118610,2,0,B|471:212|471:212|451:150|451:150|462:102,1,150,0|0,0:0|0:0,0:0:0:0:
491,24,119159,2,0,L|342:12,1,150,2|0,0:0|0:0,0:0:0:0:
278,77,119708,1,0,0:0:0:0:
320,156,119891,1,8,0:0:0:0:
320,156,120256,2,0,P|326:188|310:240,1,75
237,273,120622,6,0,L|87:267,1,150,2|0,0:0|0:0,0:0:0:0:
41,188,121171,1,0,0:0:0:0:
41,188,121354,2,0,P|32:153|45:112,1,75,8|0,0:0|0:0,0:0:0:0:
112,59,121720,1,0,0:0:0:0:
197,88,121903,2,0,P|269:113|341:78,1,150,2|8,0:0|0:0,0:0:0:0:
393,153,122452,2,0,P|368:225|403:297,2,150,0|8|0,0:0|0:0|0:0,0:0:0:0:
340,80,123366,1,0,0:0:0:0:
340,80,123458,1,0,0:0:0:0:
340,80,123549,6,0,B|297:91|267:69|267:69|236:91|194:75,1,150,6|0,0:0|0:0,0:0:0:0:
108,57,124098,1,0,0:0:0:0:
29,100,124281,2,0,P|16:136|24:181,1,75,8|0,0:0|0:0,0:0:0:0:
153,293,124830,1,0,0:0:0:0:
153,293,125012,2,0,P|226:264|292:295,1,150,2|0,0:0|0:0,0:0:0:0:
347,358,125561,2,0,L|426:354,1,75,0|8,0:0|0:0,0:0:0:0:
498,190,126110,1,0,0:0:0:0:
324,141,126476,6,0,P|280:85|318:19,1,150,2|0,0:0|0:0,0:0:0:0:
400,41,127025,2,0,P|415:77|406:110,1,75,0|8,0:0|0:0,0:0:0:0:
273,231,127573,1,0,0:0:0:0:
155,94,127939,6,0,P|85:84|39:144,1,150,2|0,0:0|0:0,0:0:0:0:
31,230,128488,1,0,0:0:0:0:
78,306,128671,2,0,L|165:301,1,75,12|0,2:0|0:0,0:0:0:0:
266,227,129037,2,0,L|179:222,1,75,0|0,0:0|0:0,0:0:0:0:
94,126,129403,6,0,P|149:87|218:130,1,150,4|0,0:0|0:0,0:0:0:0:
304,137,129952,2,0,L|317:64,1,75,0|8,0:0|0:0,0:0:0:0:
399,100,130317,2,0,L|412:173,2,75,0|0|0,0:0|0:0|0:0,0:0:0:0:
354,244,130866,2,0,P|427:261|488:223,1,150,2|0,0:0|0:0,0:0:0:0:
506,135,131415,1,0,0:0:0:0:
467,53,131598,1,8,0:0:0:0:
261,144,131964,1,0,0:0:0:0:
261,144,132147,1,0,0:0:0:0:
261,144,132330,6,0,P|187:157|129:108,1,150,2|0,0:0|0:0,0:0:0:0:
58,61,132878,1,0,0:0:0:0:
58,61,133061,2,0,L|23:129,1,75,8|0,0:0|0:0,0:0:0:0:
81,197,133427,2,0,L|46:265,1,75,0|0,0:0|0:0,0:0:0:0:
94,341,133793,1,2,0:0:0:0:
175,377,133976,1,0,0:0:0:0:
257,340,134159,1,0,0:0:0:0:
310,168,134525,2,0,L|312:54,2,112.5,8|0|0,0:0|0:0|0:0,0:0:0:0:
375,229,135256,6,0,P|438:260|502:211,1,150,6|0,0:0|0:0,0:0:0:0:
478,130,135805,1,0,0:0:0:0:
388,141,135988,1,8,0:0:0:0:
268,275,136354,1,0,0:0:0:0:
184,309,136537,1,0,0:0:0:0:
103,268,136720,2,0,P|71:201|104:126,1,150,6|0,0:0|0:0,0:0:0:0:
325,205,137452,2,0,P|357:272|324:347,1,150,8|0,0:0|0:0,0:0:0:0:
37,278,138183,6,0,P|104:253|173:283,1,150,6|0,0:0|0:0,0:0:0:0:
239,343,138732,1,0,0:0:0:0:
239,343,138915,2,0,L|316:338,1,75,8|0,0:0|0:0,0:0:0:0:
278,255,139281,2,0,L|355:250,1,75
314,168,139647,2,0,L|391:163,2,75,2|0|0,0:0|0:0|0:0,0:0:0:0:
144,229,140378,2,0,P|105:167|138:96,1,150,8|0,0:0|0:0,0:0:0:0:
214,64,140927,1,0,0:0:0:0:
303,73,141110,6,0,L|372:85,2,60,6|0|0,0:0|0:0|0:0,0:0:0:0:
257,137,141659,1,0,0:0:0:0:
232,211,141842,2,0,P|218:272|249:325,1,120,8|0,0:0|0:0,0:0:0:0:
310,361,142391,1,0,0:0:0:0:
310,361,142573,2,0,P|250:359|192:388,2,120,2|0|8,0:0|0:0|0:0,0:0:0:0:
386,377,143488,2,0,P|442:349|446:285,1,120,2|2,0:0|0:0,0:0:0:0:
401,235,144037,5,0,0:0:0:0:
409,157,144220,2,0,P|417:128|437:93,2,60,0|0|0,0:0|0:0|0:0,0:0:0:0:
401,235,144769,2,0,L|276:226,1,120,8|0,0:0|0:0,0:0:0:0:
203,229,145317,1,0,0:0:0:0:
135,267,145500,2,0,P|123:237|126:204,1,60,2|0,0:0|0:0,0:0:0:0:
148,135,145866,2,0,P|158:74|134:18,2,120,0|8|2,0:0|0:0|0:0,0:0:0:0:
71,153,146781,1,0,0:0:0:0:
148,135,146964,6,0,P|211:129|263:164,1,120,2|0,0:0|0:0,0:0:0:0:
292,227,147512,2,0,L|295:293,1,60,0|8,0:0|0:0,0:0:0:0:
159,363,148061,1,0,0:0:0:0:
159,363,148244,2,0,P|129:354|102:332,2,60,0|2|0,0:0|0:0|0:0,0:0:0:0:
237,361,148793,2,0,P|287:344|363:362,1,120,0|8,0:0|0:0,0:0:0:0:
428,372,149342,1,0,0:0:0:0:
428,372,149525,2,0,L|435:306,1,60,2|0,0:0|0:0,0:0:0:0:
434,233,149891,6,0,L|418:105,1,120,0|0,0:0|0:0,0:0:0:0:
226,182,150622,2,0,L|242:310,1,120,8|0,0:0|0:0,0:0:0:0:
300,105,151354,1,2,0:0:0:0:
224,85,151537,1,8,0:0:0:0:
153,118,151720,2,0,P|91:133|26:111,2,120,0|8|8,0:0|0:0|0:0,0:0:0:0:
338,32,152817,5,6,0:0:0:0:
392,87,153000,1,0,0:0:0:0:
406,163,153183,2,0,B|406:223|406:223|371:284,2,120,0|8|0,0:0|0:0|0:0,0:0:0:0:
256,116,154281,1,2,0:0:0:0:
106,163,154647,2,0,B|106:223|106:223|141:284,2,120,0|8|0,0:0|0:0|0:0,0:0:0:0:
120,87,155561,1,0,0:0:0:0:
174,32,155744,6,0,P|235:25|277:65,1,120,2|0,0:0|0:0,0:0:0:0:
320,211,156476,2,0,P|381:218|423:178,2,120,8|0|2,0:0|0:0|0:0,0:0:0:0:
249,177,157391,1,0,0:0:0:0:
178,141,157573,2,0,P|123:138|69:176,1,120,0|8,0:0|0:0,0:0:0:0:
36,242,158122,2,0,P|30:273|43:313,1,60
183,353,158671,5,2,0:0:0:0:
249,312,158854,1,0,0:0:0:0:
322,339,159037,1,0,0:0:0:0:
322,339,159403,2,0,P|374:314|390:253,1,120,8|0,0:0|0:0,0:0:0:0:
373,180,159952,2,0,P|362:150|341:128,1,60,0|2,0:0|0:0,0:0:0:0:
274,93,160317,2,0,P|242:84|210:88,1,60
86,174,160866,2,0,B|66:234|66:234|92:298,1,120,8|0,0:0|0:0,0:0:0:0:
145,339,161415,1,0,0:0:0:0:
219,363,161598,6,0,P|275:367|343:340,1,120,2|0,0:0|0:0,0:0:0:0:
319,142,162330,2,0,P|262:137|204:170,1,120,8|0,0:0|0:0,0:0:0:0:
372,240,163061,6,2,P|421:178|411:83,1,180.000006866455,6|8,0:0|0:0,0:0:0:0:
334,35,163976,1,0,0:0:0:0:
260,87,164159,1,0,0:0:0:0:
183,39,164342,1,0,0:0:0:0:
109,90,164525,1,6,0:0:0:0:
256,192,164708,12,0,167452,0:0:0:0:
352,258,176232,6,0,L|358:329,2,60,4|0|2,0:0|0:0|0:0,0:0:0:0:
332,181,176781,1,2,0:0:0:0:
267,137,176964,1,8,0:0:0:0:
267,137,177147,2,0,B|206:128|206:128|148:145,1,120,2|0,0:0|0:0,0:0:0:0:
154,222,177695,2,0,B|215:231|215:231|273:214,1,120,2|0,0:0|0:0,0:0:0:0:
262,58,178427,2,0,B|201:49|201:49|143:66,1,120,8|0,0:0|0:0,0:0:0:0:
72,202,179159,6,0,L|62:336,1,120,0|2,3:0|3:1,0:0:0:0:
125,369,179708,1,0,0:0:0:0:
195,336,179891,1,8,0:0:0:0:
195,336,180073,2,0,B|254:321|254:321|316:334,1,120,2|0,0:0|0:0,0:0:0:0:
372,284,180622,2,0,B|357:225|357:225|370:163,2,120,2|0|8,0:0|0:0|0:0,0:0:0:0:
448,301,181537,1,0,0:0:0:0:
496,244,181720,1,0,0:0:0:0:
500,168,181903,1,0,0:0:0:0:
464,100,182086,6,0,B|410:75|410:75|342:91,1,120,2|0,0:0|0:0,0:0:0:0:
262,212,182817,2,0,B|208:237|208:237|140:221,1,120,8|2,0:0|0:0,0:0:0:0:
73,201,183366,1,0,0:0:0:0:
149,223,183549,2,0,P|159:283|131:348,1,120,2|0,0:0|0:0,0:0:0:0:
65,364,184098,1,0,0:0:0:0:
139,337,184281,2,0,B|196:328|196:328|259:352,1,120,8|0,0:0|0:0,0:0:0:0:
408,372,185012,6,0,P|433:322|415:257,1,120,0|2,0:0|0:0,0:0:0:0:
363,206,185561,1,0,0:0:0:0:
286,189,185744,1,10,0:0:0:0:
226,239,185927,2,0,P|167:257|110:231,1,120,0|8,0:0|0:0,0:0:0:0:
65,175,186476,6,0,B|49:118|49:118|65:54,1,120,0|2,0:0|0:0,0:0:0:0:
137,33,187025,1,0,0:0:0:0:
137,33,187208,2,0,L|205:38,1,60,10|0,0:0|0:0,0:0:0:0:
255,89,187573,2,0,L|323:84,1,60,0|0,0:0|0:0,0:0:0:0:
392,75,187939,5,8,0:0:0:0:
392,279,188305,1,8,0:0:0:0:
318,290,190683,5,0,0:0:0:0:
318,290,190775,1,0,0:0:0:0:
318,290,190866,2,0,L|255:296,1,60,10|0,0:0|0:0,0:0:0:0:
189,257,191232,2,0,L|126:263,1,60,0|0,0:0|0:0,0:0:0:0:
33,165,191598,6,0,P|3:100|32:25,1,150,6|0,0:0|0:0,0:0:0:0:
116,12,192146,1,0,0:0:0:0:
193,58,192329,2,0,P|263:85|337:54,1,150,8|0,0:0|0:0,0:0:0:0:
481,158,193061,1,2,0:0:0:0:
476,248,193244,1,0,0:0:0:0:
412,312,193427,1,0,0:0:0:0:
252,230,193793,2,0,P|182:210|106:245,1,150,8|0,0:0|0:0,0:0:0:0:
60,311,194341,1,0,0:0:0:0:
60,311,194524,6,0,L|66:153,1,150,2|0,0:0|0:0,0:0:0:0:
151,133,195073,2,0,L|144:57,1,75,0|8,0:0|0:0,0:0:0:0:
227,23,195439,2,0,P|299:52|369:13,1,150
436,72,195988,2,0,L|423:145,2,75,2|0|0,0:0|0:0|0:0,0:0:0:0:
468,248,196719,2,0,P|396:258|333:219,1,150,8|0,0:0|0:0,0:0:0:0:
272,152,197268,1,0,0:0:0:0:
272,152,197451,6,0,B|201:141|201:141|120:181,1,150,6|0,0:0|0:0,0:0:0:0:
49,215,198000,1,0,0:0:0:0:
124,264,198183,1,8,0:0:0:0:
131,176,198366,2,0,P|79:127|1:138,1,150
45,307,198915,2,0,P|94:347|178:330,1,150,2|0,0:0|0:0,0:0:0:0:
248,281,199463,2,0,P|288:278|330:290,1,75,0|8,0:0|0:0,0:0:0:0:
482,371,200012,1,0,0:0:0:0:
382,202,200378,6,0,P|384:127|436:62,2,150,2|0|8,0:0|0:0|0:0,0:0:0:0:
311,270,201293,2,0,P|238:245|162:272,1,150
88,302,201841,2,0,L|80:132,1,150,2|0,0:0|0:0,0:0:0:0:
80,60,202390,1,0,0:0:0:0:
160,100,202573,2,0,P|231:123|306:83,1,150,6|0,0:2|0:0,0:0:0:0:
468,152,203305,6,0,P|491:232|467:308,1,150,6|0,0:0|0:0,0:0:0:0:
391,332,203854,1,0,0:0:0:0:
307,297,204037,2,0,P|235:271|164:303,2,150,8|0|2,0:0|0:0|0:0,0:0:0:0:
376,240,204951,1,0,0:0:0:0:
376,240,205134,2,0,L|367:166,1,75
357,75,205500,1,8,0:0:0:0:
357,75,205866,2,0,P|326:62|283:61,1,75
196,78,206232,6,0,P|134:115|110:189,1,150,2|0,0:0|0:0,0:0:0:0:
138,270,206780,1,0,0:0:0:0:
138,270,206963,2,8,L|223:265,1,75
387,219,207512,1,0,0:0:0:0:
387,219,207695,2,0,P|341:162|375:83,1,150,2|0,0:0|0:0,0:0:0:0:
484,226,208427,2,0,L|495:345,2,112.5,8|0|0,0:0|0:0|0:0,0:0:0:0:
468,76,209158,6,0,P|396:95|324:58,1,150,6|0,0:0|0:0,0:0:0:0:
254,14,209707,1,0,0:0:0:0:
176,59,209890,1,8,0:0:0:0:
88,216,210256,2,0,P|81:255|93:299,1,75
160,343,210622,2,0,P|230:323|302:345,1,150,6|0,0:0|0:0,0:0:0:0:
382,183,211354,2,0,P|312:203|240:181,1,150,8|0,0:0|0:0,0:0:0:0:
468,105,212085,6,0,P|498:181|476:248,1,150,6|0,0:0|0:0,0:0:0:0:
418,310,212634,1,0,0:0:0:0:
333,340,212817,2,0,L|249:330,1,75,8|0,0:0|0:0,0:0:0:0:
177,289,213183,2,0,L|93:299,1,75,0|0,0:0|0:0,0:0:0:0:
28,245,213549,1,2,0:0:0:0:
4,158,213732,2,0,P|49:91|120:95,1,150,8|0,0:0|0:0,0:0:0:0:
144,108,214189,1,0,0:0:0:0:
170,134,214280,2,0,L|183:212,2,75,8|0|0,0:0|0:0|0:0,0:0:0:0:
250,92,214829,1,0,0:0:0:0:
348,136,215012,6,0,L|336:233,1,90.0000034332277,2|0,0:0|0:0,0:0:0:0:
327,314,215561,1,0,0:0:0:0:
179,356,215927,2,0,L|162:211,1,135.000005149841,2|2,0:0|0:0,0:0:0:0:
152,80,216841,1,0,0:0:0:0:
164,223,217207,2,0,P|118:230|66:215,1,90.0000034332277,2|0,0:0|0:0,0:0:0:0:
40,146,217756,6,0,L|27:296,1,135.000005149841,2|2,0:0|0:0,0:0:0:0:
104,329,218488,1,2,0:0:0:0:
280,292,218854,1,2,0:0:0:0:
63,348,219402,1,2,0:0:0:0:
154,291,219768,1,0,0:0:0:0:
197,192,220134,2,0,P|203:147|185:96,1,90.0000034332277,2|0,0:0|0:0,0:0:0:0:
117,67,220683,6,0,L|268:54,1,135.000005149841,2|0,0:0|0:0,0:0:0:0:
341,46,221415,2,0,L|389:42,2,45.0000017166138,0|0|2,0:0|0:0|0:0,0:0:0:0:
216,285,222329,1,2,0:0:0:0:
316,328,222695,1,0,0:0:0:0:
427,328,223061,2,0,P|452:293|462:238,1,90.0000034332277,2|0,0:0|0:0,0:0:0:0:
464,175,223610,1,2,0:0:0:0:
436,106,223793,6,0,L|340:101,1,90.0000034332277,2|0,0:0|0:0,0:0:0:0:
270,97,224341,5,2,0:0:0:0:
145,303,224782,5,2,0:0:0:0:
145,303,225456,5,2,0:0:0:0:
134,222,225907,5,2,0:0:0:0:
121,141,226462,6,0,P|140:81|189:58,1,120,2|2,0:0|0:0,0:0:0:0:
411,206,228580,6,0,L|413:238,1,30,2|0,0:0|0:0,0:0:0:0:
491,207,228915,6,0,L|496:178,1,30,0|2,0:0|0:0,0:0:0:0:
256,192,229178,12,0,233125,0:0:0:0:
