osu file format v13

[General]
AudioFilename: Garasu no Hanazono.mp3
AudioLeadIn: 1500
PreviewTime: 62130
Countdown: 0
SampleSet: Soft
StackLeniency: 0.7
Mode: 0
LetterboxInBreaks: 0
WidescreenStoryboard: 1

[Editor]
Bookmarks: 234408
DistanceSpacing: 1.3
BeatDivisor: 2
GridSize: 4
TimelineZoom: 0.9999989

[Metadata]
Title:Garasu no Hanazono
TitleUnicode:硝子の花園
Artist:Nanjou Yoshino & Kusuda Aina
ArtistUnicode:南條愛乃 & 楠田亜衣奈
Creator:Hinsvar
Version:Normal
Source:Love Live! School idol project
Tags:ラブライブ! 絢瀬絵里 東條希 Ayase Eli Eri Toujou Nozomi Original Song CD 6 1st season Garden of Glass NozoEli NozoEri
BeatmapID:441678
BeatmapSetID:184512

[Difficulty]
HPDrainRate:4
CircleSize:3.5
OverallDifficulty:4
ApproachRate:5
SliderMultiplier:1.2
SliderTickRate:1

[Events]
//Background and Video events
0,0,"nozoeli.jpg",0,0
//Break Periods
2,179933,189894
//Storyboard Layer 0 (Background)
//Storyboard Layer 1 (Fail)
//Storyboard Layer 2 (Pass)
//Storyboard Layer 3 (Foreground)
//Storyboard Sound Samples
//Background Colour Transformations
3,100,255,255,255

[TimingPoints]
799,355.029585798817,4,1,1,60,1,0
799,-100,4,1,1,60,0,0
6479,-100,4,1,1,70,0,0
29201,-100,4,2,1,50,0,0
40562,-100,4,2,1,60,0,0
54763,-100,4,2,1,50,0,0
57603,-100,4,2,1,60,0,0
63284,-100,4,1,1,80,0,1
83165,-100,4,2,1,60,0,0
84585,-100,4,2,1,70,0,0
86006,-100,4,1,1,70,0,1
86094,-100,4,1,1,70,0,0
97367,-100,4,2,1,50,0,0
108727,-100,4,2,1,60,0,0
130739,-100,4,2,1,60,0,0
131449,-100,4,1,1,80,0,1
151331,-100,4,2,1,60,0,0
152751,-100,4,2,1,70,0,0
154171,-100,4,1,1,70,0,1
154260,-100,4,1,1,70,0,0
176893,-100,4,1,1,60,0,0
178313,-100,4,2,1,50,0,0
191094,-100,4,1,1,60,0,0
192514,-100,4,1,1,70,0,0
195355,-100,4,1,1,90,0,1
216656,-100,4,1,1,90,0,0
218077,-100,4,1,1,90,0,1
237958,-100,4,2,1,75,0,0
239378,-100,4,2,1,90,0,0
240799,-100,4,1,1,80,0,1
240887,-100,4,1,1,80,0,0
263875,-100,4,1,1,80,0,1
264941,-100,4,1,1,80,0,0
265118,-100,4,1,1,60,0,0
266006,-100,4,1,1,50,0,0
267071,-100,4,1,1,40,0,0
267781,-100,4,2,1,30,0,0

[Colours]
Combo1 : 50,205,128
Combo2 : 255,255,119
Combo3 : 147,51,114
Combo4 : 0,198,198

[HitObjects]
360,63,799,6,0,L|451:48,2,90,6|0|2,3:1|0:0|0:0,0:0:0:0:
204,65,1686,2,0,L|144:46,2,60,0|8|2,0:0|0:0|0:0,0:0:0:0:
255,123,2219,6,0,P|260:158|256:189,1,60
214,247,2574,1,8,0:0:0:0:
137,260,2751,1,0,0:0:0:0:
70,218,2929,2,0,P|53:164|75:102,1,120,0|8,0:0|0:0,0:0:0:0:
225,76,3639,6,0,L|321:85,2,90,2|0|2,0:0|0:0|0:0,0:0:0:0:
186,227,4526,2,0,L|246:257,2,60,0|8|0,0:0|0:0|0:0,0:0:0:0:
108,216,5059,6,0,L|11:239,2,90,2|2|0,3:2|0:0|0:0,0:0:0:0:
111,137,5769,2,0,L|21:121,2,90,2|2|0,3:2|0:0|0:0,0:0:0:0:
158,74,6479,6,0,P|216:60|281:86,1,120,6|8,0:0|0:0,0:0:0:0:
309,147,7012,2,0,P|315:176|309:218,1,60,0|2,0:0|0:0,0:0:0:0:
197,312,7544,1,8,0:0:0:0:
68,223,7899,2,0,P|41:170|56:109,1,120,2|8,0:0|0:0,0:0:0:0:
116,66,8432,2,0,L|245:64,1,120,10|2,0:2|0:0,0:0:0:0:
297,111,8964,1,8,0:0:0:0:
375,246,9319,6,0,L|509:258,2,120,2|8|2,0:0|0:0|0:0,0:0:0:0:
219,263,10384,2,0,P|190:276|176:310,1,60,8|0,0:0|0:0,0:0:0:0:
149,373,10739,2,0,L|27:358,1,120,2|8,0:0|0:0,0:0:0:0:
4,284,11272,1,10,0:2:0:0:
22,129,11627,2,0,P|46:114|78:108,1,60,0|8,0:0|0:0,0:0:0:0:
211,187,12159,6,0,P|267:204|341:177,1,120,2|8,0:0|0:0,0:0:0:0:
343,33,12870,1,2,0:0:0:0:
187,36,13225,1,8,0:0:0:0:
64,132,13580,2,0,P|49:194|71:255,1,120,2|8,0:2|0:0,0:0:0:0:
111,308,14112,2,0,L|235:308,1,120,8|2,0:0|0:0,0:0:0:0:
294,261,14645,1,8,0:0:0:0:
376,128,15000,6,0,P|440:119|501:140,2,120,2|8|2,0:0|0:0|0:0,0:0:0:0:
295,262,16065,1,8,0:0:0:0:
164,175,16420,2,0,P|147:117|170:46,1,120,2|8,0:0|0:0,0:0:0:0:
317,53,17130,2,0,P|330:110|313:167,1,120,2|8,0:0|0:0,0:0:0:0:
190,265,17840,6,0,L|64:267,1,120,2|8,0:0|0:0,0:0:0:0:
4,125,18550,1,10,0:0:0:0:
121,19,18905,1,8,0:0:0:0:
209,147,19260,2,0,P|269:159|329:131,1,120,10|8,0:0|0:0,0:0:0:0:
439,34,19970,2,0,L|500:45,2,60,10|0|8,0:0|0:0|0:0,0:0:0:0:
321,137,20680,6,0,P|312:199|348:265,1,120,10|8,0:0|0:0,0:0:0:0:
489,261,21390,1,10,0:0:0:0:
471,105,21745,1,8,0:0:0:0:
327,43,22100,2,0,P|270:50|228:101,1,120,2|8,0:0|0:0,0:0:0:0:
208,170,22633,2,0,L|84:161,2,120,2|2|0,0:0|0:0|0:0,0:0:0:0:
274,213,23520,6,0,P|288:274|261:341,1,120,2|8,0:0|0:0,0:0:0:0:
118,357,24230,2,0,P|104:296|131:229,1,120,2|0,0:0|0:0,0:0:0:0:
192,103,24941,2,0,L|323:99,1,120,2|8,0:2|0:0,0:0:0:0:
338,172,25473,2,0,L|475:191,1,120,8|2,0:0|0:2,0:0:0:0:
502,124,26006,1,8,0:0:0:0:
475,277,26361,6,0,P|423:302|362:287,1,120,2|8,0:0|0:0,0:0:0:0:
297,248,26893,2,0,P|235:237|179:262,1,120,10|2,0:2|0:0,0:0:0:0:
143,325,27426,1,8,0:0:0:0:
90,178,27781,6,0,L|79:103,2,60,2|0|8,0:0|0:0|0:0,0:0:0:0:
163,151,28313,2,0,P|246:124|329:174,1,180,2|8,0:0|0:0,0:0:0:0:
313,322,29201,6,0,L|173:330,1,120,6|8,0:0|0:0,0:0:0:0:
54,258,29911,2,0,P|38:198|54:134,1,120,2|8,0:0|0:0,0:0:0:0:
99,82,30443,1,0,0:0:0:0:
173,58,30621,2,0,L|297:50,2,120,2|8|2,0:0|0:0|0:0,0:0:0:0:
186,213,31686,1,8,0:0:0:0:
186,213,31864,1,0,0:0:0:0:
186,213,32041,6,0,B|193:243|193:243|184:300|184:300|191:335,2,120,2|8|2,0:0|0:0|0:0,0:0:0:0:
152,142,32929,2,0,P|148:109|155:68,1,60,0|8,0:0|0:0,0:0:0:0:
295,23,33461,2,0,L|419:19,2,120,2|8|2,0:0|0:0|0:0,0:0:0:0:
251,172,34526,1,8,0:0:0:0:
392,165,34881,6,0,P|460:178|500:227,2,120,2|8|2,0:0|0:0|0:0,0:0:0:0:
303,293,35946,1,8,0:0:0:0:
172,207,36301,2,0,P|148:150|164:94,1,120,2|8,0:0|0:0,0:0:0:0:
219,26,36834,2,0,P|251:21|294:26,1,60,2|0,0:0|0:0,0:0:0:0:
429,62,37367,1,8,0:0:0:0:
501,199,37722,6,0,P|513:260|489:316,1,120,2|8,0:0|0:0,0:0:0:0:
429,358,38254,1,10,0:0:0:0:
429,358,38432,2,0,L|308:353,1,120,0|8,0:0|0:0,0:0:0:0:
177,268,39142,1,2,0:0:0:0:
249,129,39497,1,8,0:0:0:0:
404,155,39852,2,0,P|422:96|400:37,1,120,2|8,0:0|0:0,0:0:0:0:
330,16,40384,1,0,0:0:0:0:
251,20,40562,6,0,L|118:27,1,120,6|8,0:0|0:0,0:0:0:0:
57,163,41272,2,0,L|190:170,1,120,2|8,0:0|0:0,0:0:0:0:
251,191,41804,1,0,0:0:0:0:
305,246,41982,2,0,P|325:303|291:360,1,120,2|8,0:0|0:0,0:0:0:0:
143,356,42692,2,0,P|123:299|157:242,1,120,2|8,0:0|0:0,0:0:0:0:
263,143,43402,6,0,B|279:85|279:85|251:19,1,120,2|8,0:0|0:0,0:0:0:0:
179,13,43935,2,0,B|135:94|135:94|185:166,1,180,2|8,0:0|0:0,0:0:0:0:
306,263,44822,2,0,P|363:281|418:251,1,120,2|8,0:0|0:0,0:0:0:0:
443,182,45355,2,0,P|395:114|305:109,1,180,2|8,0:0|0:0,0:0:0:0:
188,213,46242,6,0,P|130:229|68:202,1,120,2|8,0:0|0:0,0:0:0:0:
30,145,46775,1,10,0:0:0:0:
151,46,47130,1,0,0:0:0:0:
151,46,47307,2,0,L|273:43,1,120,8|2,0:0|0:0,0:0:0:0:
346,179,48017,2,0,L|224:176,2,120,8|2|8,0:0|0:0|0:0,0:0:0:0:
453,292,49083,6,0,P|413:326|338:325,1,120,2|8,0:0|0:0,0:0:0:0:
285,282,49615,2,0,L|153:288,1,120,2|2,0:0|0:0,0:0:0:0:
99,244,50148,1,8,0:0:0:0:
124,90,50503,1,2,0:0:0:0:
279,119,50858,1,8,0:0:0:0:
279,119,51035,2,0,P|355:118|427:39,1,180,10|8,0:0|0:0,0:0:0:0:
450,201,51923,6,0,L|466:332,1,120,4|8,0:0|0:0,0:0:0:0:
393,352,52455,1,0,0:0:0:0:
316,368,52633,2,0,P|253:362|206:322,2,120,10|8|10,0:0|0:0|0:0,0:0:0:0:
322,212,53698,1,8,0:0:0:0:
322,56,54053,2,0,P|259:62|212:102,1,120,10|8,0:0|0:0,0:0:0:0:
322,211,54763,6,0,L|443:209,1,120,4|8,0:0|0:0,0:0:0:0:
491,61,55473,2,0,B|446:22|446:22|380:4,1,120,2|8,0:0|0:0,0:0:0:0:
311,21,56006,1,0,0:0:0:0:
311,21,56183,2,0,P|271:65|279:135,1,120,2|8,0:0|0:0,0:0:0:0:
366,247,56893,2,0,P|406:203|398:133,1,120,2|8,0:0|0:0,0:0:0:0:
311,21,57603,6,0,B|251:15|251:15|185:35,1,120,2|8,0:0|0:0,0:0:0:0:
141,97,58136,2,0,L|131:220,1,120,2|0,0:2|0:0,0:0:0:0:
160,288,58668,1,8,0:0:0:0:
316,266,59023,2,0,P|371:254|438:268,1,120,2|8,0:0|0:0,0:0:0:0:
473,332,59556,2,0,P|433:244|474:177,1,180,8|8,0:0|0:0,0:0:0:0:
370,59,60443,5,2,0:0:0:0:
370,59,60976,2,0,L|239:53,1,120,2|8,0:0|0:0,0:0:0:0:
186,99,61509,2,0,P|168:153|193:219,1,120,10|10,0:0|0:0,0:0:0:0:
488,296,62574,2,0,P|506:242|481:176,1,120,2|8,0:0|0:0,0:0:0:0:
381,69,63284,6,0,P|324:50|255:65,1,120,6|8,0:0|0:0,0:0:0:0:
196,95,63816,2,0,P|137:104|81:85,2,120,8|2|0,0:0|0:0|0:0,0:0:0:0:
249,152,64704,2,0,P|261:211|248:285,1,120,2|8,0:0|0:0,0:0:0:0:
186,309,65236,1,10,0:0:0:0:
64,211,65591,2,0,L|56:145,2,60,0|10|0,0:0|0:2|0:0,0:0:0:0:
32,282,66124,6,0,P|41:340|102:367,1,120,2|10,0:0|0:2,0:0:0:0:
169,365,66656,2,0,L|296:353,1,120,10|2,0:2|0:2,0:0:0:0:
366,346,67189,1,8,0:0:0:0:
490,252,67544,2,0,L|500:120,1,120,2|8,0:0|0:0,0:0:0:0:
345,160,68254,2,0,L|335:28,1,120,2|8,0:0|0:0,0:0:0:0:
259,24,68787,1,0,0:0:0:0:
193,66,68964,6,0,P|133:82|73:62,1,120,2|8,0:0|0:0,0:0:0:0:
30,127,69497,2,0,P|65:215|48:315,1,180,10|8,0:0|0:0,0:0:0:0:
189,378,70384,1,2,0:0:0:0:
239,231,70739,1,8,0:0:0:0:
355,334,71094,1,2,0:0:0:0:
397,183,71449,1,8,0:0:0:0:
273,87,71804,6,0,P|219:71|161:90,1,120,2|8,0:0|0:0,0:0:0:0:
117,156,72337,1,10,0:2:0:0:
117,156,72514,2,0,L|101:287,1,120,2|8,0:0|0:0,0:0:0:0:
226,370,73225,2,0,P|285:381|346:357,1,120,2|8,0:0|0:0,0:0:0:0:
378,210,73935,2,0,P|319:199|258:223,1,120,2|8,0:0|0:0,0:0:0:0:
129,298,74645,6,0,P|72:305|12:276,1,120,2|8,0:2|0:0,0:0:0:0:
6,202,75177,1,0,0:0:0:0:
50,137,75355,2,0,P|107:130|167:159,1,120,10|8,0:0|0:0,0:0:0:0:
283,253,76065,2,0,L|412:243,1,120,10|8,0:0|0:0,0:0:0:0:
470,206,76597,1,0,0:0:0:0:
512,143,76775,2,0,L|502:14,1,120,10|8,0:0|0:0,0:0:0:0:
355,73,77485,6,0,P|299:91|235:69,1,120,2|10,0:0|0:2,0:0:0:0:
172,39,78017,2,0,P|116:21|52:43,1,120,2|0,0:0|0:0,0:0:0:0:
30,110,78550,1,8,0:0:0:0:
69,260,78905,2,0,B|126:274|126:274|186:256,1,120,2|8,0:0|0:0,0:0:0:0:
326,183,79615,2,0,B|384:165|384:165|441:179,1,120,2|8,0:0|0:0,0:0:0:0:
393,327,80325,6,0,P|335:351|269:332,1,120,2|8,0:2|0:0,0:0:0:0:
213,300,80858,2,0,L|143:297,1,60,8|2,0:0|0:0,0:0:0:0:
29,201,81390,1,8,0:0:0:0:
133,85,81745,2,0,P|187:68|247:84,1,120,2|8,0:0|0:0,0:0:0:0:
293,146,82278,2,0,L|414:132,2,120,10|0|2,0:0|0:0|0:0,0:0:0:0:
234,197,83165,6,0,P|246:296|450:263,1,360,2|0,0:0|0:0,0:0:0:0:
474,113,84585,2,0,L|464:15,2,90,2|0|2,1:0|0:0|1:0,0:0:0:0:
399,138,85296,2,0,L|355:45,2,90,2|0|2,1:0|0:0|1:0,0:0:0:0:
367,209,86006,6,0,P|310:227|250:209,1,120,2|8,0:0|0:0,0:0:0:0:
148,95,86716,2,0,L|152:18,2,60,2|0|8,0:0|0:0|0:0,0:0:0:0:
64,226,87426,2,0,P|44:278|72:338,1,120,2|8,0:0|0:0,0:0:0:0:
138,367,87958,1,2,0:2:0:0:
209,334,88136,2,0,P|232:280|213:225,1,120,2|8,0:0|0:0,0:0:0:0:
284,87,88846,6,0,L|414:79,2,120,2|8|2,0:0|0:0|0:0,0:0:0:0:
179,202,89911,1,8,0:0:0:0:
284,317,90266,2,0,L|414:325,2,120,2|8|2,0:0|0:0|0:0,0:0:0:0:
205,316,91154,2,0,P|174:322|140:339,1,60,0|8,0:0|0:0,0:0:0:0:
37,224,91686,6,0,L|29:90,1,120,2|8,0:2|0:0,0:0:0:0:
75,40,92219,2,0,P|131:26|200:43,1,120,2|2,0:2|0:0,0:0:0:0:
237,100,92751,1,8,0:0:0:0:
332,223,93106,2,0,P|390:239|452:208,1,120,2|0,0:0|0:0,0:0:0:0:
443,138,93639,2,0,P|385:122|323:153,1,120,8|2,0:0|0:2,0:0:0:0:
264,183,94171,1,8,0:0:0:0:
137,274,94526,6,0,P|104:225|113:155,1,120,2|8,0:0|0:0,0:0:0:0:
146,98,95059,1,10,0:2:0:0:
300,74,95414,2,0,L|376:68,2,60,2|8|0,0:0|0:0|0:0,0:0:0:0:
238,121,95946,1,2,0:0:0:0:
238,121,96124,1,8,0:0:0:0:
134,237,96479,2,0,P|133:312|216:365,1,180,2|8,0:0|0:0,0:0:0:0:
370,363,97367,6,0,P|412:332|423:255,1,120,6|8,0:0|0:0,0:0:0:0:
401,195,97899,1,8,0:0:0:0:
338,147,98077,2,0,L|209:139,1,120,2|8,0:0|0:0,0:0:0:0:
159,284,98787,2,0,L|288:276,1,120,2|8,0:0|0:0,0:0:0:0:
350,246,99319,2,0,P|404:239|459:345,1,180,2|8,0:0|0:0,0:0:0:0:
312,378,100207,6,0,L|183:370,1,120,2|8,0:0|0:0,0:0:0:0:
116,353,100739,2,0,P|98:331|83:288,1,60,10|0,0:0|0:0,0:0:0:0:
88,145,101272,2,0,P|103:111|126:83,1,60,8|0,0:0|0:0,0:0:0:0:
189,65,101627,2,0,L|309:58,1,120,2|8,0:0|0:0,0:0:0:0:
366,110,102159,2,0,P|437:69|363:38,1,180,2|8,0:0|0:0,0:0:0:0:
284,151,103047,6,0,L|267:286,2,120,2|8|2,0:0|0:0|0:0,0:0:0:0:
173,41,104112,1,10,0:2:0:0:
98,64,104290,1,0,0:0:0:0:
48,124,104467,2,0,P|30:185|58:245,1,120,2|8,0:0|0:0,0:0:0:0:
201,242,105177,2,0,P|219:181|191:121,1,120,2|8,0:0|0:0,0:0:0:0:
329,44,105887,6,0,P|384:64|446:37,1,120,2|8,0:0|0:0,0:0:0:0:
493,189,106597,2,0,L|506:259,2,60,2|0|8,0:0|0:0|0:0,0:0:0:0:
338,166,107307,2,0,B|306:159|280:169|280:169|251:179|220:167,2,120,2|8|2,0:0|0:0|0:0,0:0:0:0:
289,314,108372,1,8,0:0:0:0:
133,324,108727,6,0,P|83:295|67:225,1,120,6|8,0:0|0:0,0:0:0:0:
149,106,109438,2,0,P|199:135|215:205,1,120,2|8,0:0|0:0,0:0:0:0:
296,325,110148,2,0,B|353:345|353:345|409:325,1,120,2|8,0:0|0:0,0:0:0:0:
480,186,110858,2,0,L|486:112,2,60,2|0|8,0:0|0:0|0:0,0:0:0:0:
324,199,111568,6,0,P|302:147|326:78,1,120,2|8,0:0|0:0,0:0:0:0:
266,29,112100,2,0,L|198:23,1,60,0|0,0:0|0:0,0:0:0:0:
59,79,112633,1,8,0:0:0:0:
29,232,112988,2,0,P|44:283|102:312,1,120,2|8,0:0|0:0,0:0:0:0:
176,293,113520,1,0,0:0:0:0:
176,293,113698,2,0,P|232:276|294:294,1,120,2|8,0:0|0:0,0:0:0:0:
428,363,114408,6,0,L|445:243,1,120,4|10,0:0|0:0,0:0:0:0:
382,197,114941,2,0,P|306:148|331:74,1,180,10|8,0:0|0:0,0:0:0:0:
455,167,115828,1,2,0:0:0:0:
336,285,116183,2,0,L|264:291,1,60,8|0,0:0|0:0,0:0:0:0:
214,241,116538,2,0,P|157:225|102:248,1,120,2|8,0:0|0:0,0:0:0:0:
155,100,117248,6,0,P|212:116|267:93,1,120,6|8,0:0|0:0,0:0:0:0:
325,42,117781,2,0,L|451:49,1,120,2|2,0:0|0:0,0:0:0:0:
492,110,118313,2,0,P|497:138|485:176,1,60,8|2,0:0|0:0,0:0:0:0:
429,217,118668,2,0,P|401:270|410:344,1,120,2|8,0:0|0:0,0:0:0:0:
328,348,119201,2,0,P|263:264|182:271,1,180,4|8,0:0|0:0,0:0:0:0:
71,357,120088,6,0,L|61:234,1,120,6|8,0:0|0:0,0:0:0:0:
84,162,120621,1,0,0:0:0:0:
84,162,120799,2,0,B|86:132|86:132|72:74|72:74|79:30,1,120,10|8,0:0|0:0,0:0:0:0:
229,75,121509,2,0,P|285:90|343:68,1,120,10|8,0:0|0:0,0:0:0:0:
448,182,122219,2,0,P|433:238|455:296,1,120,10|8,0:0|0:0,0:0:0:0:
393,343,122751,1,0,0:0:0:0:
393,343,122929,6,0,P|333:328|276:347,1,120,6|8,0:0|0:0,0:0:0:0:
124,363,123639,2,0,L|134:237,1,120,2|8,0:0|0:0,0:0:0:0:
190,190,124171,1,0,0:0:0:0:
264,165,124349,2,0,L|328:169,2,60,2|0|8,0:0|0:0|0:0,0:0:0:0:
108,148,125059,2,0,P|88:93|106:29,1,120,2|8,0:0|0:0,0:0:0:0:
257,17,125769,6,0,L|387:23,1,120,2|10,0:0|0:0,0:0:0:0:
424,83,126301,2,0,P|380:160|427:230,1,180,8|8,0:0|0:0,0:0:0:0:
479,285,127012,1,0,0:0:0:0:
479,285,127189,2,0,P|446:336|379:336,1,120,2|8,0:0|0:0,0:0:0:0:
320,307,127722,2,0,B|261:295|261:295|207:323|207:323|145:313,1,180,8|8,0:0|0:0,0:0:0:0:
77,175,128609,6,0,P|116:95|215:79,1,180,2|2,0:0|0:0,0:0:0:0:
305,189,129497,1,0,0:0:0:0:
305,189,129674,2,0,P|361:207|430:179,1,120,10|10,0:0|0:0,0:0:0:0:
417,189,130739,2,0,L|431:314,1,120,2|2,0:0|0:0,0:0:0:0:
280,351,131449,6,0,P|219:360|153:334,1,120,6|8,0:0|0:0,0:0:0:0:
122,275,131982,2,0,L|120:152,1,120,8|2,0:0|0:0,0:0:0:0:
159,87,132514,1,8,0:0:0:0:
306,137,132870,2,0,B|362:152|362:152|425:127,1,120,2|8,0:0|0:0,0:0:0:0:
415,51,133402,2,0,B|359:36|359:36|296:61,1,120,2|0,0:0|0:0,0:0:0:0:
237,103,133935,1,10,0:2:0:0:
101,54,134290,6,0,L|83:184,1,120,2|8,0:0|0:0,0:0:0:0:
165,195,134822,2,0,L|108:309,1,120,8|2,0:0|0:2,0:0:0:0:
171,352,135355,2,0,P|200:339|245:335,1,60,8|0,0:0|0:0,0:0:0:0:
304,351,135710,2,0,L|423:357,1,120,2|8,0:0|0:0,0:0:0:0:
475,209,136420,2,0,L|356:203,1,120,2|8,0:0|0:0,0:0:0:0:
206,158,137130,6,0,P|188:102|211:35,1,120,2|8,0:0|0:0,0:0:0:0:
280,30,137662,2,0,P|201:44|88:12,1,180,8|10,0:0|0:0,0:0:0:0:
44,165,138550,2,0,L|26:297,1,120,2|8,0:0|0:0,0:0:0:0:
87,334,139083,1,0,0:0:0:0:
87,334,139260,2,0,P|146:320|206:336,1,120,2|8,0:0|0:0,0:0:0:0:
355,365,139970,6,0,B|417:364|417:364|463:325,1,120,2|8,0:0|0:0,0:0:0:0:
471,249,140503,1,2,0:2:0:0:
466,171,140680,2,0,L|445:48,2,120,2|8|2,0:0|0:0|0:0,0:0:0:0:
382,302,141745,1,8,0:0:0:0:
300,168,142100,1,2,0:0:0:0:
226,305,142455,2,0,P|196:310|162:304,1,60,10|0,0:2|0:0,0:0:0:0:
110,251,142810,6,0,L|98:128,1,120,2|8,0:0|0:0,0:0:0:0:
144,68,143343,1,0,0:0:0:0:
144,68,143520,2,0,B|182:67|202:80|202:80|216:65|260:60,1,120,10|8,0:0|0:0,0:0:0:0:
400,122,144230,2,0,P|421:178|395:237,1,120,10|8,0:0|0:0,0:0:0:0:
335,276,144763,1,0,0:0:0:0:
257,270,144941,2,0,L|193:255,2,60,10|0|8,0:0|0:0|0:0,0:0:0:0:
390,350,145651,6,0,P|447:340|481:287,1,120,2|10,0:0|0:2,0:0:0:0:
469,214,146183,2,0,B|455:184|463:154|463:154|472:120|464:85,1,120,0|2,0:0|0:0,0:0:0:0:
411,40,146716,1,8,0:0:0:0:
255,32,147071,2,0,P|196:47|151:102,1,120,2|8,0:0|0:0,0:0:0:0:
207,236,147781,2,0,P|266:221|311:166,1,120,2|8,0:0|0:0,0:0:0:0:
414,67,148491,6,0,P|456:104|480:181,1,120,2|8,0:2|0:0,0:0:0:0:
483,240,149023,1,8,0:0:0:0:
405,232,149201,2,0,L|284:222,1,120,2|8,0:0|0:0,0:0:0:0:
148,297,149911,2,0,P|123:245|133:180,1,120,2|8,0:0|0:0,0:0:0:0:
152,110,150443,2,0,P|176:92|208:82,1,60,0|10,0:0|0:0,0:0:0:0:
272,121,150799,2,0,P|330:138|388:100,1,120,0|2,0:0|0:0,0:0:0:0:
446,71,151331,6,0,P|497:213|334:279,1,360
192,214,152751,2,0,L|101:221,2,90,2|0|2,1:0|0:0|1:0,0:0:0:0:
196,135,153461,2,0,L|104:108,2,90,2|0|2,1:0|0:0|1:0,0:0:0:0:
250,79,154171,6,0,P|310:63|371:74,2,120,2|8|2,0:0|0:0|0:0,0:0:0:0:
311,222,155236,1,8,0:0:0:0:
311,222,155414,1,0,0:0:0:0:
311,222,155591,2,0,B|367:238|367:238|437:226,1,120,2|8,0:0|0:0,0:0:0:0:
458,299,156124,2,0,B|423:265|431:228|431:228|452:176|437:123,1,180,2|8,0:0|0:0,0:0:0:0:
321,26,157012,6,0,P|263:9|201:28,1,120,2|8,0:0|0:0,0:0:0:0:
156,83,157544,2,0,B|132:131|143:170|143:170|156:210|130:259,1,180,8|10,0:0|0:0,0:0:0:0:
18,364,158432,1,0,0:0:0:0:
95,367,158609,2,0,L|166:368,2,60,2|8|2,0:0|0:0|0:0,0:0:0:0:
44,219,159319,1,0,0:0:0:0:
44,219,159497,2,0,P|51:188|75:164,1,60,10|2,0:2|0:0,0:0:0:0:
147,160,159852,6,0,L|281:169,1,120,4|8,0:0|0:0,0:0:0:0:
334,205,160384,2,0,P|383:217|442:168,1,120,8|2,0:0|0:0,0:0:0:0:
451,102,160917,1,8,0:0:0:0:
309,36,161272,2,0,B|252:27|252:27|185:50,1,120,0|10,0:0|0:2,0:0:0:0:
148,111,161804,1,2,0:0:0:0:
140,266,162159,2,0,L|146:330,2,60,0|8|0,0:0|0:0|0:0,0:0:0:0:
189,205,162692,6,0,P|249:190|326:213,1,120,2|8,0:0|0:0,0:0:0:0:
356,260,163225,2,0,B|416:275|416:275|475:257,1,120,8|2,0:0|0:0,0:0:0:0:
500,185,163757,2,0,L|505:118,1,60,8|2,0:0|0:0,0:0:0:0:
450,68,164112,2,0,P|389:83|336:63,1,120,4|8,0:0|0:0,0:0:0:0:
272,20,164645,1,10,0:2:0:0:
197,157,165000,1,2,0:0:0:0:
197,157,165177,2,0,L|128:155,1,60,10|2,0:2|0:0,0:0:0:0:
76,204,165532,6,0,P|59:266|84:328,1,120,2|10,0:0|0:0,0:0:0:0:
144,356,166065,2,0,L|272:348,2,120,10|2|0,0:2|0:0|0:0,0:0:0:0:
76,317,166952,1,2,0:0:0:0:
168,192,167307,1,10,0:0:0:0:
168,192,167485,2,0,L|184:68,2,120,0|2|2,0:0|0:0|0:0,0:0:0:0:
180,268,168372,6,0,P|236:288|296:276,1,120,2|10,0:0|0:0,0:0:0:0:
324,204,168905,2,0,P|380:184|436:208,1,120,8|2,0:0|0:0,0:0:0:0:
460,280,169438,1,8,0:0:0:0:
330,367,169793,2,0,L|210:371,1,120,0|10,0:0|0:0,0:0:0:0:
143,331,170325,2,0,B|133:297|142:270|142:270|149:245|137:209,1,120,10|2,0:2|0:0,0:0:0:0:
107,140,170858,1,8,0:0:0:0:
220,33,171213,6,0,L|350:30,1,120,4|10,0:0|0:0,0:0:0:0:
383,180,171923,2,0,L|253:183,1,120,2|8,0:0|0:0,0:0:0:0:
156,296,172633,2,0,P|97:309|47:278,1,120,2|8,0:0|0:0,0:0:0:0:
24,205,173165,2,0,P|56:137|153:118,1,180,8|10,0:0|0:0,0:0:0:0:
251,238,174053,5,2,0:0:0:0:
373,140,174409,1,8,0:0:0:0:
274,20,174763,1,2,0:0:0:0:
152,117,175118,1,8,0:0:0:0:
251,238,175473,2,0,P|299:257|372:233,1,120,2|8,0:0|0:0,0:0:0:0:
401,307,176006,2,0,P|305:335|225:312,1,180,10|8,0:0|0:0,0:0:0:0:
115,208,176893,5,2,0:0:0:0:
84,135,177071,1,0,0:0:0:0:
107,60,177248,2,0,L|234:51,1,120,8|2,0:0|0:0,0:0:0:0:
382,58,177958,1,8,0:0:0:0:
422,125,178136,1,0,0:0:0:0:
392,196,178313,1,2,0:0:0:0:
256,192,178491,12,4,179733,0:0:0:0:
308,203,191094,6,0,B|330:145|330:145|314:78,1,120,2|8,0:0|0:0,0:0:0:0:
247,52,191627,2,0,B|202:130|202:130|227:217,1,180,8|8,0:0|0:0,0:0:0:0:
346,329,192514,2,0,L|444:346,2,90,2|0|2,0:0|0:0|0:0,0:0:0:0:
267,329,193225,2,0,L|169:346,2,90,2|0|2,0:0|0:0|0:0,0:0:0:0:
306,261,193935,6,0,L|308:194,2,60,8|0|8,0:0|0:0|0:0,0:0:0:0:
150,269,194645,1,2,0:0:0:0:
66,137,195000,1,8,0:0:0:0:
195,49,195355,6,0,P|256:28|308:44,1,120,6|8,0:0|0:0,0:0:0:0:
329,118,195887,2,0,L|328:241,2,120,2|2|0,0:0|0:0|0:0,0:0:0:0:
383,61,196775,1,2,0:0:0:0:
489,174,197130,1,8,0:0:0:0:
489,174,197307,2,0,B|495:235|495:235|471:290,1,120,2|0,0:0|0:0,0:0:0:0:
422,349,197840,1,8,0:0:0:0:
275,294,198195,6,0,P|219:281|151:302,1,120,2|8,0:0|0:0,0:0:0:0:
121,228,198727,2,0,P|160:186|176:116,1,120,8|2,0:0|0:0,0:0:0:0:
193,50,199260,1,8,0:0:0:0:
38,30,199615,1,2,0:0:0:0:
25,185,199970,2,0,L|18:246,2,60,8|0|2,0:0|0:0|0:0,0:0:0:0:
165,251,200680,1,0,0:0:0:0:
297,169,201035,6,0,P|327:227|324:283,1,120,2|8,0:0|0:0,0:0:0:0:
280,344,201568,2,0,L|209:349,1,60,8|2,0:0|0:0,0:0:0:0:
81,273,202100,1,8,0:0:0:0:
97,117,202455,2,0,P|127:65|191:35,1,120,2|8,0:2|0:0,0:0:0:0:
255,47,202988,1,8,0:0:0:0:
307,104,203165,1,2,0:0:0:0:
230,239,203520,1,10,0:2:0:0:
77,206,203875,6,0,B|52:263|52:263|66:332,1,120,2|8,0:0|0:0,0:0:0:0:
133,355,204408,1,2,0:2:0:0:
133,355,204585,2,0,L|262:353,1,120,2|10,0:2|0:0,0:0:0:0:
363,241,205296,2,0,P|419:226|484:245,1,120,2|8,0:0|0:0,0:0:0:0:
482,85,206006,2,0,P|426:100|361:81,1,120,2|8,0:0|0:0,0:0:0:0:
221,27,206716,6,0,B|158:22|158:22|98:48,1,120,2|0,0:2|0:0,0:0:0:0:
66,111,207248,1,0,0:0:0:0:
66,111,207426,2,0,L|56:176,1,60,10|0,0:0|0:0,0:0:0:0:
124,212,207781,2,0,L|134:277,1,60,8|0,0:0|0:0,0:0:0:0:
196,320,208136,2,0,B|250:336|250:336|311:320,1,120,10|8,0:0|0:0,0:0:0:0:
340,247,208668,1,0,0:0:0:0:
366,173,208846,2,0,B|420:157|420:157|481:173,1,120,10|8,0:0|0:0,0:0:0:0:
510,326,209556,6,0,P|457:349|398:329,1,120,2|8,0:0|0:0,0:0:0:0:
375,256,210088,2,0,L|250:259,1,120,2|0,0:0|0:0,0:0:0:0:
214,325,210621,1,8,0:0:0:0:
152,181,210976,2,0,B|96:162|96:162|33:182,1,120,2|8,0:0|0:0,0:0:0:0:
9,333,211686,2,0,B|65:352|65:352|128:332,1,120,2|10,0:0|0:2,0:0:0:0:
224,215,212396,6,0,P|302:193|387:248,1,180,2|8,0:0|0:0,0:0:0:0:
406,315,213106,2,0,L|471:312,2,60,2|0|8,0:0|0:0|0:0,0:0:0:0:
259,369,213816,2,0,B|199:362|199:362|154:321,1,120,2|8,0:2|0:0,0:0:0:0:
145,244,214349,2,0,P|111:238|70:248,1,60,0|2,0:0|0:0,0:0:0:0:
8,376,214881,1,8,0:0:0:0:
86,241,215236,6,0,P|99:154|56:77,2,180,2|2|8,0:0|0:0|0:0,0:0:0:0:
212,332,216656,2,0,L|314:348,2,90,2|0|2,0:0|0:0|0:0,0:0:0:0:
228,256,217367,2,0,P|283:224|348:228,1,120,2|8,0:0|0:0,0:0:0:0:
466,312,218077,6,0,L|472:187,1,120,6|8,0:0|0:0,0:0:0:0:
433,124,218609,2,0,P|371:128|309:95,1,120,8|2,0:0|0:0,0:0:0:0:
276,38,219142,1,8,0:0:0:0:
171,153,219497,2,0,B|146:209|146:209|161:271,1,120,2|10,0:0|0:2,0:0:0:0:
237,273,220029,2,0,B|262:217|262:217|248:159,1,120,10|2,0:2|0:0,0:0:0:0:
219,87,220562,1,8,0:0:0:0:
55,124,220917,6,0,P|32:182|49:245,1,120,2|10,0:2|0:2,0:0:0:0:
100,289,221449,2,0,L|230:283,1,120,10|2,0:2|0:0,0:0:0:0:
284,239,221982,2,0,P|314:233|353:246,1,60,8|0,0:0|0:0,0:0:0:0:
396,296,222337,2,0,B|457:296|457:296|501:258,1,120,2|8,0:0|0:0,0:0:0:0:
501,179,222870,2,0,L|487:107,1,60,10|0,0:0|0:0,0:0:0:0:
353,43,223402,1,8,0:0:0:0:
258,167,223757,6,0,P|199:178|141:156,1,120,2|8,0:0|0:0,0:0:0:0:
125,81,224290,2,0,B|145:156|145:156|96:258,1,180,8|8,0:0|0:0,0:0:0:0:
14,378,225177,2,0,P|66:355|135:368,1,120,2|8,0:2|0:0,0:0:0:0:
282,353,225887,2,0,P|305:301|292:232,1,120,2|8,0:0|0:0,0:0:0:0:
170,147,226597,6,0,B|114:166|114:166|47:133,1,120,2|8,0:0|0:0,0:0:0:0:
20,207,227130,1,0,0:0:0:0:
20,207,227307,2,0,L|33:334,2,120,0|10|2,0:0|0:0|0:0,0:0:0:0:
59,56,228372,1,8,0:0:0:0:
196,129,228727,1,2,0:0:0:0:
325,41,229083,1,10,0:2:0:0:
438,148,229438,6,0,P|448:207|420:272,1,120,2|8,0:0|0:0,0:0:0:0:
366,309,229970,1,0,0:0:0:0:
290,328,230148,2,0,L|230:316,2,60,10|0|8,0:0|0:0|0:0,0:0:0:0:
323,187,230858,2,0,B|335:155|322:127|322:127|307:98|321:65,1,120,2|8,0:0|0:0,0:0:0:0:
383,27,231390,1,0,0:0:0:0:
447,71,231568,2,0,B|458:98|443:127|443:127|430:155|442:187,1,120,2|8,0:0|0:0,0:0:0:0:
480,255,232100,1,0,0:0:0:0:
458,330,232278,6,0,P|401:353|343:335,1,120,2|8,0:0|0:0,0:0:0:0:
284,291,232810,2,0,P|227:268|169:286,1,120,2|0,0:0|0:0,0:0:0:0:
112,333,233343,1,8,0:0:0:0:
65,180,233698,2,0,L|79:59,1,120,2|8,0:0|0:0,0:0:0:0:
234,51,234408,2,0,L|220:172,1,120,2|10,0:0|0:2,0:0:0:0:
287,311,235118,6,0,B|371:348|371:348|467:306,1,180,2|8,0:2|0:0,0:0:0:0:
475,238,235828,1,2,0:0:0:0:
475,238,236006,2,0,L|467:168,1,60,0|8,0:0|0:0,0:0:0:0:
380,49,236538,2,0,P|319:59|250:36,1,120,2|8,0:2|0:0,0:0:0:0:
221,109,237071,2,0,L|210:172,1,60,8|2,0:0|0:0,0:0:0:0:
154,222,237426,2,0,L|161:298,2,60,0|8|0,0:0|0:0|0:0,0:0:0:0:
76,212,237958,6,0,P|89:58|266:44,1,360,2|8,0:0|0:0,0:0:0:0:
355,169,239378,2,0,L|454:166,2,90,2|0|2,1:0|0:0|1:0,0:0:0:0:
309,232,240088,2,0,L|210:229,2,90,2|0|2,1:0|0:0|1:0,0:0:0:0:
348,299,240799,6,0,P|406:317|467:295,1,120,2|8,0:0|0:0,0:0:0:0:
495,230,241331,2,0,B|501:172|501:172|479:117|479:117|496:50,1,180,8|0,0:0|0:0,0:0:0:0:
339,35,242219,2,0,P|283:55|217:34,1,120,2|8,0:0|0:0,0:0:0:0:
174,98,242751,2,0,L|152:232,1,120,8|2,0:0|0:0,0:0:0:0:
190,285,243284,1,8,0:0:0:0:
340,245,243639,6,0,P|399:233|467:253,1,120,2|8,0:0|0:0,0:0:0:0:
471,323,244171,2,0,P|383:352|306:315,1,180,8|8,0:0|0:0,0:0:0:0:
204,199,245059,2,0,B|150:180|150:180|84:198,1,120,2|8,0:0|0:0,0:0:0:0:
43,259,245591,1,10,0:2:0:0:
163,358,245946,2,0,L|228:349,1,60,2|8,0:2|0:0,0:0:0:0:
351,261,246479,6,0,P|368:203|343:148,1,120,2|0,0:2|0:0,0:0:0:0:
280,106,247012,1,0,0:0:0:0:
211,143,247189,2,0,P|153:158|96:132,1,120,2|8,0:0|0:0,0:0:0:0:
96,291,247899,2,0,P|150:268|207:283,1,120,2|8,0:2|0:0,0:0:0:0:
261,339,248432,2,0,L|270:213,1,120,8|2,0:0|0:0,0:0:0:0:
277,141,248964,1,8,0:0:0:0:
127,185,249319,6,0,P|113:129|138:65,1,120,2|8,0:2|0:0,0:0:0:0:
282,29,250029,2,0,P|296:85|271:149,1,120,2|0,0:0|0:0,0:0:0:0:
195,276,250739,2,0,L|124:283,2,60,2|0|8,0:0|0:0|0:0,0:0:0:0:
251,330,251272,2,0,P|311:347|368:326,1,120,2|0,0:0|0:0,0:0:0:0:
409,265,251804,1,8,0:0:0:0:
377,112,252159,6,0,B|324:91|324:91|256:104,1,120,2|8,0:0|0:0,0:0:0:0:
196,144,252692,1,0,0:0:0:0:
196,144,252870,2,0,L|177:208,2,60,10|0|8,0:0|0:0|0:0,0:0:0:0:
213,299,253580,2,0,P|153:309|105:279,1,120,10|8,0:0|0:0,0:0:0:0:
67,211,254112,2,0,B|54:153|54:153|73:91,1,120,0|2,0:0|0:0,0:0:0:0:
131,44,254645,1,8,0:0:0:0:
271,110,255000,6,0,P|333:122|397:89,1,120,10|8,0:0|0:0,0:0:0:0:
451,62,255532,2,0,P|486:59|512:67,1,60,0|10,0:0|0:0,0:0:0:0:
468,217,256065,1,8,0:0:0:0:
332,294,256420,2,0,P|272:306|217:282,1,120,2|8,0:0|0:0,0:0:0:0:
171,222,256952,2,0,P|111:210|56:234,1,120,2|2,0:2|0:0,0:0:0:0:
30,304,257485,1,8,0:0:0:0:
41,148,257840,6,0,L|51:21,1,120,2|8,0:2|0:0,0:0:0:0:
126,12,258372,2,0,L|149:71,1,60,2|2,0:2|0:0,0:0:0:0:
208,212,258905,1,8,0:0:0:0:
292,80,259260,2,0,P|351:63|421:83,1,120,2|8,0:2|0:0,0:0:0:0:
446,142,259793,2,0,P|431:201|378:252,1,120,10|2,0:0|0:2,0:0:0:0:
318,267,260325,1,8,0:0:0:0:
186,183,260680,6,0,P|127:167|66:186,1,120,2|8,0:2|0:0,0:0:0:0:
29,247,261213,1,10,0:2:0:0:
65,314,261390,2,0,P|124:330|185:311,1,120,2|8,0:0|0:0,0:0:0:0:
322,252,262100,1,2,0:0:0:0:
322,252,262278,2,0,P|356:254|398:269,1,60,8|8,0:0|0:0,0:0:0:0:
427,323,262633,2,0,P|417:263|450:202,2,120,10|0|2,0:0|0:0|0:0,0:0:0:0:
266,153,263875,6,0,B|208:145|208:145|162:187|162:187|97:177,2,180,2|2|2,0:0|0:0|0:0,0:0:0:0:
256,192,265118,12,2,268846,0:0:0:0:
