osu file format v14

[General]
AudioFilename: Edge Works of Goddess ZABABA (TV Size).mp3
AudioLeadIn: 1600
PreviewTime: 32214
Countdown: 0
SampleSet: Soft
StackLeniency: 0.7
Mode: 0
LetterboxInBreaks: 0
WidescreenStoryboard: 0

[Editor]
Bookmarks: 24571,91250,146282,147811,230358,231887,238002,244116
DistanceSpacing: 0.9
BeatDivisor: 4
GridSize: 8
TimelineZoom: 1.5

[Metadata]
Title:Edge Works of Goddess ZABABA
TitleUnicode:Edge Works of Goddess ZABABA
Artist:Nanjo Yoshino x Kayano Ai (as Shirabe Tsukuyomi x Kirika Akatsuki)
ArtistUnicode:南條愛乃×茅野愛衣(as 月読 調×暁 切歌)
Creator:blissfulyoshi
Version:Insane Composition
Source:戦姫絶唱シンフォギアG
Tags:Senhime Zesshou Symphogear In the distance, that day, when the star became music...
BeatmapID:390130
BeatmapSetID:159750

[Difficulty]
HPDrainRate:4
CircleSize:4
OverallDifficulty:6
ApproachRate:9
SliderMultiplier:2.39999990463257
SliderTickRate:2

[Events]
//Background and Video events
Video,-23,"blah3.avi"
0,0,"38409178small.jpg",0,0
//Break Periods
//Storyboard Layer 0 (Background)
//Storyboard Layer 1 (Fail)
//Storyboard Layer 2 (Pass)
//Storyboard Layer 3 (Foreground)
//Storyboard Sound Samples

[TimingPoints]
113,382.165605095541,4,2,0,50,1,0
6227,-90.9090909090909,4,2,0,60,0,0
12342,-83.3333333333333,4,2,0,70,0,0
24571,-83.3333333333333,4,2,0,50,0,0
32214,-71.4285714285714,4,2,0,90,0,1
56673,-71.4285714285714,4,1,0,50,0,0
62788,-71.4285714285714,4,3,0,50,0,0

[Colours]
Combo1 : 255,133,136
Combo2 : 255,190,254
Combo3 : 160,32,74
Combo4 : 112,104,170
Combo5 : 24,127,105
Combo6 : 95,185,97

[HitObjects]
40,32,113,5,2,0:0:0:0:
144,64,304,2,0,P|184:104|168:184,1,119.999995231629,2|0,0:0|0:0,0:0:0:0:
128,256,686,2,0,P|120:328|184:360,1,119.999995231629,0|2,0:0|0:0,0:0:0:0:
256,360,1068,2,0,P|328:344|368:288,1,119.999995231629,0|0,0:0|0:0,0:0:0:0:
400,216,1450,1,0,0:0:0:0:
240,176,1641,5,2,0:0:0:0:
240,176,1832,2,0,P|168:164|120:116,1,119.999995231629,2|0,0:0|0:0,0:0:0:0:
224,72,2214,1,0,0:0:0:0:
320,128,2405,1,2,0:0:0:0:
328,240,2597,2,0,P|351:296|416:280,1,119.999995231629,0|0,0:0|0:0,0:0:0:0:
488,232,2979,1,2,3:0:0:0:
488,128,3170,70,0,P|472:64|400:48,1,119.999995231629,4|0,0:0|0:0,0:0:0:0:
376,24,3456,2,0,L|304:24,1,59.9999976158143,0|8,0:0|0:0,0:0:0:0:
224,72,3743,2,0,L|160:72,1,59.9999976158143,0|0,0:0|0:0,0:0:0:0:
112,80,3934,1,2,3:0:0:0:
64,136,4062,1,0,3:0:0:0:
72,208,4189,1,0,3:0:0:0:
108,272,4316,1,2,3:0:0:0:
176,300,4444,1,0,3:0:0:0:
244,284,4571,1,0,3:0:0:0:
304,240,4698,6,0,L|392:152,1,119.999995231629,4|0,0:0|0:0,0:0:0:0:
376,48,5081,2,0,L|288:136,1,119.999995231629,0|0,0:0|0:0,0:0:0:0:
416,248,5463,2,0,L|504:160,1,119.999995231629,8|0,3:0|0:0,0:0:0:0:
264,32,5845,2,0,L|176:120,1,119.999995231629,8|0,3:0|0:0,0:0:0:0:
8,280,6227,69,4,2:0:0:0:
112,336,6418,1,0,0:0:0:0:
232,352,6609,2,0,P|312:352|360:312,1,131.999998783112,2|0,3:0|0:0,0:0:0:0:
291,201,6991,2,0,P|247:284|224:257,1,131.999998783112,0|0,1:0|0:0,0:0:0:0:
200,280,7278,2,0,P|136:256|104:168,1,131.999998783112,0|0,0:0|0:0,0:0:0:0:
104,144,7565,1,0,0:0:0:0:
256,32,7756,5,4,0:0:0:0:
376,48,7947,1,0,0:0:0:0:
464,128,8138,2,0,P|496:216|464:264,1,131.999998783112,2|0,3:0|0:0,0:0:0:0:
392,320,8520,2,0,P|360:232|392:184,1,131.999998783112,0|0,1:0|0:0,0:0:0:0:
392,144,8807,2,0,P|328:152|264:120,1,131.999998783112,0|0,0:0|0:0,0:0:0:0:
216,96,9093,1,0,0:0:0:0:
32,224,9284,69,4,0:0:0:0:
96,320,9476,1,0,0:0:0:0:
208,360,9667,2,0,P|280:360|320:312,1,131.999998783112,2|0,3:0|0:0,0:0:0:0:
248,178,10049,2,0,P|216:242|269:299,1,131.999998783112,0|0,1:0|0:0,0:0:0:0:
283,235,10335,2,0,L|418:236,1,131.999998783112,0|0,0:0|0:0,0:0:0:0:
474,235,10622,1,0,0:0:0:0:
504,120,10813,5,8,3:0:0:0:
256,16,11100,1,0,0:0:0:0:
8,120,11386,1,8,3:0:0:0:
168,192,11577,1,8,3:0:0:0:
168,192,11673,1,0,0:0:0:0:
344,192,11864,1,8,3:0:0:0:
344,192,11960,2,0,L|344:328,1,131.999998783112,2|0,3:0|0:0,0:0:0:0:
168,320,12342,5,4,0:0:0:0:
40,296,12533,2,0,P|16:240|32:208,1,71.9999949417116,0|0,1:0|0:0,0:0:0:0:
56,184,12724,2,0,L|160:80,1,143.999989883423,2|0,3:0|1:0,0:0:0:0:
368,56,13106,2,0,L|248:176,1,143.999989883423,8|0,3:0|1:0,0:0:0:0:
344,192,13393,2,0,L|464:72,1,143.999989883423,0|0,0:0|0:0,0:0:0:0:
512,200,13679,2,0,L|392:320,1,143.999989883423,0|2,1:0|3:0,0:0:0:0:
248,352,14062,5,0,1:0:0:0:
120,320,14253,2,0,P|56:288|24:224,1,143.999989883423,2|0,3:0|1:0,0:0:0:0:
104,80,14635,2,0,L|168:48,1,71.9999949417116,8|0,3:0|0:0,0:0:0:0:
227,19,14826,1,0,1:0:0:0:
264,72,14921,2,0,L|344:192,1,143.999989883423,0|0,0:0|0:0,0:0:0:0:
316,280,15208,2,0,P|395:271|435:210,1,143.999989883423,0|2,1:0|3:0,0:0:0:0:
432,32,15590,70,0,L|432:104,1,71.9999949417116,0|0,1:0|0:0,0:0:0:0:
488,136,15781,2,0,P|506:210|481:279,1,143.999989883423,2|0,3:0|1:0,0:0:0:0:
296,352,16163,2,0,P|376:352|448:320,1,143.999989883423,8|0,3:0|1:0,0:0:0:0:
424,240,16450,2,0,P|437:198|335:151,1,143.999989883423,0|0,0:0|0:0,0:0:0:0:
280,136,16737,1,0,1:0:0:0:
112,32,16928,6,0,P|144:112|208:128,1,143.999989883423,4|0,3:0|1:0,0:0:0:0:
186,51,17214,2,0,L|58:147,1,143.999989883423,0|0,0:0|0:0,0:0:0:0:
72,232,17501,2,0,L|138:183,1,71.9999949417116,0|0,1:0|0:0,0:0:0:0:
232,216,17692,2,0,P|188:286|221:343,1,143.999989883423,4|0,3:0|1:0,0:0:0:0:
371,339,18074,2,0,P|325:279|236:305,1,143.999989883423,4|0,3:0|1:0,0:0:0:0:
72,360,18456,69,4,0:1:0:0:
72,232,18648,2,0,L|16:176,1,71.9999949417116,0|0,1:0|0:0,0:0:0:0:
104,152,18839,2,0,L|88:80,1,71.9999949417116,2|0,3:0|0:0,0:0:0:0:
184,120,19030,2,0,L|208:48,1,71.9999949417116,0|0,1:0|0:0,0:0:0:0:
280,120,19221,2,0,L|336:72,1,71.9999949417116,8|0,3:0|0:0,0:0:0:0:
376,152,19412,1,0,1:0:0:0:
480,120,19507,2,0,L|368:8,1,143.999989883423,0|0,0:0|0:0,0:0:0:0:
376,152,19794,2,0,P|372:246|312:304,1,143.999989883423,0|4,1:0|3:0,0:0:0:0:
176,352,20176,5,0,1:0:0:0:
72,280,20367,2,0,P|32:232|16:152,1,143.999989883423,2|0,3:0|1:0,0:0:0:0:
200,152,20749,1,8,3:0:0:0:
376,152,20941,2,0,P|363:81|319:25,1,143.999989883423,0|0,1:0|0:0,0:0:0:0:
200,152,21323,1,0,1:0:0:0:
296,304,21514,70,0,P|384:360|464:336,1,143.999989883423,4|0,3:0|1:0,0:0:0:0:
512,224,21800,2,0,P|424:280|344:256,1,143.999989883423,0|0,0:0|0:0,0:0:0:0:
280,192,22087,2,0,P|312:216|352:216,1,71.9999949417116,0|0,1:0|0:0,0:0:0:0:
448,184,22278,2,0,P|496:128|496:48,1,143.999989883423,4|0,3:0|0:0,0:0:0:0:
328,32,22660,2,0,L|176:32,1,143.999989883423,0|0,1:0|1:0,0:0:0:0:
104,128,23042,5,4,3:0:0:0:
256,352,23329,1,4,3:0:0:0:
408,128,23616,1,4,3:0:0:0:
256,192,23807,1,4,3:0:0:0:
448,352,24571,6,0,L|448:200,1,143.999989883423,8|0,3:0|0:0,0:0:0:0:
328,160,24953,2,0,L|328:16,1,143.999989883423,8|0,3:0|0:0,0:0:0:0:
184,16,25335,2,0,L|184:160,1,143.999989883423,8|0,3:0|0:0,0:0:0:0:
64,208,25718,2,0,L|64:352,1,143.999989883423,8|0,3:0|0:0,0:0:0:0:
216,356,26100,6,0,B|232:304|256:296|280:288|296:236,1,143.999989883423,8|0,0:0|0:0,0:0:0:0:
296,356,26482,2,0,B|280:304|256:296|232:288|216:236,1,143.999989883423,8|0,0:0|0:0,0:0:0:0:
256,128,26864,1,8,3:0:0:0:
480,128,27246,1,8,3:0:0:0:
368,56,27437,1,0,0:0:0:0:
240,32,27628,70,0,P|160:40|80:96,1,143.999989883423,2|0,3:0|0:0,0:0:0:0:
32,176,28011,2,0,P|112:168|192:112,1,143.999989883423,0|0,0:0|0:0,0:0:0:0:
256,224,28393,2,0,P|176:232|96:288,1,143.999989883423,8|0,3:0|0:0,0:0:0:0:
48,368,28775,2,0,P|128:360|208:304,1,143.999989883423,0|0,0:0|0:0,0:0:0:0:
328,248,29157,6,0,B|341:226|341:226|360:208|332:174|332:174|368:176|368:176|448:48|448:48|480:96|472:136|432:216|432:216|462:239|462:239|405:241|397:270|397:270|384:288,1,575.999959533693,8|2,3:0|3:0,0:0:0:0:
348,356,30049,1,2,3:0:0:0:
264,376,30176,1,2,3:0:0:0:
176,364,30304,1,2,3:0:0:0:
152,280,30431,1,2,3:0:0:0:
172,196,30558,1,2,3:0:0:0:
232,136,30686,70,0,P|256:56|216:24,1,143.999989883423,2|2,0:0|0:0,0:0:0:0:
136,128,31068,2,0,P|88:216|88:288,1,143.999989883423,2|2,0:0|0:0,0:0:0:0:
216,272,31450,2,0,P|280:296|336:240,1,143.999989883423,2|2,0:0|0:0,0:0:0:0:
352,120,31832,2,0,P|392:56|464:32,1,143.999989883423,2|2,0:0|0:0,0:0:0:0:
488,184,32214,6,0,P|472:296|256:352,1,335.999976394654,4|0,0:0|0:0,0:0:0:0:
336,216,32788,1,0,1:0:0:0:
456,104,32979,2,0,P|392:48|296:36,1,167.999988197327,4|0,3:0|1:0,0:0:0:0:
224,32,33265,2,0,P|143:47|81:103,1,167.999988197327,0|0,0:0|0:0,0:0:0:0:
40,176,33552,2,0,P|24:224|40:280,1,83.9999940986636,0|0,1:0|0:0,0:0:0:0:
56,336,33743,70,0,L|224:240,1,167.999988197327,4|0,3:0|0:0,0:0:0:0:
440,240,34125,2,0,L|272:336,1,167.999988197327,4|0,3:0|0:0,0:0:0:0:
128,208,34507,2,0,L|296:112,1,167.999988197327,4|0,3:0|0:0,0:0:0:0:
448,136,34890,2,0,L|280:232,1,167.999988197327,4|0,3:0|0:0,0:0:0:0:
128,208,35272,6,0,B|96:160|128:128|160:96|128:48,1,167.999988197327,4|0,0:0|1:0,0:0:0:0:
344,32,35654,2,0,B|376:80|344:112|312:144|344:192,1,167.999988197327,0|0,0:0|1:0,0:0:0:0:
480,352,36036,2,0,P|384:368|304:344,1,167.999988197327,8|0,3:0|1:0,0:0:0:0:
216,304,36323,2,0,P|128:288|16:320,1,167.999988197327,0|0,0:0|0:0,0:0:0:0:
96,368,36609,2,0,P|133:362|184:376,1,83.9999940986636,0|0,1:0|0:0,0:0:0:0:
318,348,36800,70,0,P|324:276|241:197,1,167.999988197327,4|0,3:0|0:0,0:0:0:0:
88,168,37183,2,0,L|32:96,1,83.9999940986636,4|0,3:0|0:0,0:0:0:0:
200,168,37374,2,0,L|264:88,1,83.9999940986636,0|0,1:0|0:0,0:0:0:0:
144,120,37565,2,0,P|200:40|408:88,1,335.999976394654,4|0,3:0|0:0,0:0:0:0:
448,136,38042,1,0,0:0:0:0:
480,200,38138,1,0,1:0:0:0:
448,256,38234,1,0,0:0:0:0:
392,280,38329,6,0,B|296:320|152:272|232:88|424:176|352:304|208:344,1,419.999970493318,4|0,0:0|0:0,0:0:0:0:
148,352,38902,2,0,P|108:362|68:352,1,83.9999940986636,0|0,1:0|0:0,0:0:0:0:
24,280,39093,2,0,B|60:264|108:280|108:280|156:264|192:280,1,167.999988197327,8|0,3:0|0:0,0:0:0:0:
400,352,39476,2,0,P|482:309|521:239,1,167.999988197327,0|0,0:0|1:0,0:0:0:0:
400,32,39858,70,0,P|482:75|521:145,1,167.999988197327,4|0,3:0|1:0,0:0:0:0:
328,272,40240,2,0,P|446:192|328:112,1,335.999976394654,4|2,3:0|3:0,0:0:0:0:
152,192,40813,1,0,1:0:0:0:
112,32,41004,2,0,P|30:75|-9:145,1,167.999988197327,0|0,0:0|0:0,0:0:0:0:
112,352,41386,6,0,P|30:309|-9:239,1,167.999988197327,4|0,0:0|1:0,0:0:0:0:
152,104,41769,2,0,L|232:56,1,83.9999940986636,0|0,0:0|0:0,0:0:0:0:
224,152,41960,2,0,L|328:128,1,83.9999940986636,0|0,1:0|0:0,0:0:0:0:
272,232,42151,2,0,P|368:240|448:288,1,167.999988197327,8|0,3:0|1:0,0:0:0:0:
400,376,42437,2,0,P|304:368|224:320,1,167.999988197327,0|0,0:0|0:0,0:0:0:0:
208,272,42724,2,0,L|112:248,1,83.9999940986636,0|0,1:0|0:0,0:0:0:0:
32,224,42915,70,0,B|-56:152|40:8|136:24|175:120|136:216|40:232|-56:88|32:16,1,503.999964591981,8|0,3:0|1:0,0:0:0:0:
504,120,43679,2,0,B|400:56|344:120|288:184|184:120,1,335.999976394654,8|0,3:0|0:0,0:0:0:0:
136,88,44157,1,0,0:0:0:0:
88,56,44253,1,0,1:0:0:0:
32,72,44348,1,0,0:0:0:0:
8,128,44444,6,0,P|0:200|96:264,1,167.999988197327,4|0,0:0|1:0,0:0:0:0:
184,280,44730,2,0,P|256:318|328:280,1,167.999988197327,0|0,0:0|0:0,0:0:0:0:
256,232,45017,2,0,L|256:128,1,83.9999940986636,0|0,1:0|0:0,0:0:0:0:
184,101,45208,2,0,P|256:63|328:101,1,167.999988197327,8|0,3:0|0:0,0:0:0:0:
416,256,45590,2,0,L|504:256,1,83.9999940986636,0|0,0:0|0:0,0:0:0:0:
500,128,45781,2,0,L|416:128,1,83.9999940986636,0|0,1:0|0:0,0:0:0:0:
328,192,45972,70,0,P|296:312|168:352,1,251.999982295991,4|0,3:0|0:0,0:0:0:0:
104,288,46355,2,0,P|136:168|264:128,1,251.999982295991,4|0,3:0|0:0,0:0:0:0:
416,152,46737,2,0,P|379:352|351:386,1,251.999982295991,4|0,3:0|0:0,0:0:0:0:
24,320,47119,2,0,P|61:120|89:86,1,251.999982295991,4|0,3:0|0:0,0:0:0:0:
256,40,47501,6,0,P|336:32|432:56,1,167.999988197327,4|0,0:0|1:0,0:0:0:0:
472,88,47788,1,0,0:0:0:0:
504,144,47883,1,0,0:0:0:0:
504,208,47979,1,0,0:0:0:0:
472,264,48074,1,0,1:0:0:0:
256,352,48265,2,0,B|200:328|160:256|208:232|256:248,1,167.999988197327,8|0,3:0|1:0,0:0:0:0:
336,336,48552,2,0,B|380:294|393:212|340:206|300:238,1,167.999988197327,0|0,0:0|0:0,0:0:0:0:
256,168,48839,2,0,P|240:128|192:104,1,83.9999940986636,0|0,1:0|0:0,0:0:0:0:
88,80,49030,70,0,P|16:128|64:216,1,167.999988197327,4|0,3:0|1:0,0:0:0:0:
336,336,49412,2,0,P|408:288|360:200,1,167.999988197327,4|0,3:0|0:0,0:0:0:0:
168,104,49794,2,0,P|120:168|96:264,1,167.999988197327,4|0,3:0|0:0,0:0:0:0:
256,312,50081,2,0,P|304:248|328:152,1,167.999988197327,0|0,0:0|0:0,0:0:0:0:
296,40,50367,2,0,L|248:136,1,83.9999940986636,0|0,0:0|0:0,0:0:0:0:
176,272,50558,2,0,L|224:176,1,83.9999940986636,4|0,0:0|0:0,0:0:0:0:
352,96,50749,6,0,L|432:64,1,83.9999940986636,0|0,1:0|0:0,0:0:0:0:
496,144,50941,2,0,L|416:176,1,83.9999940986636,2|0,0:0|0:0,0:0:0:0:
328,232,51132,2,0,L|408:264,1,83.9999940986636,0|0,1:0|0:0,0:0:0:0:
416,360,51323,2,0,L|336:328,1,83.9999940986636,2|0,0:0|0:0,0:0:0:0:
176,272,51514,70,0,L|136:368,1,83.9999940986636,0|0,1:0|0:0,0:0:0:0:
104,176,51705,2,0,L|32:240,1,83.9999940986636,2|0,0:0|0:0,0:0:0:0:
208,104,51896,2,0,L|216:208,1,83.9999940986636,0|0,1:0|0:0,0:0:0:0:
128,40,52087,2,0,L|64:120,1,83.9999940986636,2|0,0:0|0:0,0:0:0:0:
240,32,52278,6,0,L|344:32,1,83.9999940986636,0|0,1:0|0:0,0:0:0:0:
404,136,52469,2,0,L|320:136,1,83.9999940986636,2|0,0:0|0:0,0:0:0:0:
272,248,52660,2,0,L|376:248,1,83.9999940986636,0|0,1:0|0:0,0:0:0:0:
436,344,52851,2,0,L|352:344,1,83.9999940986636,2|0,0:0|0:0,0:0:0:0:
232,344,53042,70,0,L|120:336,1,83.9999940986636,0|0,1:0|0:0,0:0:0:0:
176,240,53234,2,0,L|72:192,1,83.9999940986636,2|0,0:0|0:0,0:0:0:0:
184,128,53425,2,0,L|128:48,1,83.9999940986636,0|0,1:0|0:0,0:0:0:0:
280,80,53616,6,0,P|320:48|448:64,1,167.999988197327,8|0,3:0|1:0,0:0:0:0:
512,160,53902,2,0,P|472:192|344:176,1,167.999988197327,0|0,0:0|0:0,0:0:0:0:
272,248,54189,2,0,P|320:280|376:288,1,83.9999940986636,0|0,1:0|0:0,0:0:0:0:
232,344,54380,70,0,P|128:352|48:320,1,167.999988197327,8|0,3:0|1:0,0:0:0:0:
16,224,54667,2,0,P|120:216|197:249,1,167.999988197327,0|0,0:0|0:0,0:0:0:0:
256,160,54953,2,0,P|224:136|152:112,1,83.9999940986636,0|0,1:0|0:0,0:0:0:0:
288,32,55144,6,0,L|448:144,1,167.999988197327,4|0,3:0|0:0,0:0:0:0:
392,8,55431,2,0,L|328:176,1,167.999988197327,0|0,0:0|0:0,0:0:0:0:
448,208,55718,2,0,L|352:248,1,83.9999940986636,0|0,0:0|0:0,0:0:0:0:
240,296,55909,2,0,L|64:160,1,167.999988197327,4|0,3:0|0:0,0:0:0:0:
16,88,56195,2,0,L|184:16,1,167.999988197327,0|0,0:0|0:0,0:0:0:0:
256,128,56482,2,0,L|168:168,1,83.9999940986636,0|0,0:0|0:0,0:0:0:0:
105,193,56673,69,4,3:0:0:0:
16,320,56864,1,0,0:0:0:0:
160,368,57055,2,0,P|272:360|328:312,1,167.999988197327,0|0,0:0|0:0,0:0:0:0:
376,192,57437,1,8,3:0:0:0:
296,40,57628,2,0,P|256:30|216:40,1,83.9999940986636,0|0,0:0|0:0,0:0:0:0:
64,184,57915,1,0,0:0:0:0:
64,184,58011,1,0,0:0:0:0:
112,368,58202,5,8,3:0:0:0:
248,304,58393,2,0,P|328:240|352:144,1,167.999988197327,0|0,0:0|0:0,0:0:0:0:
320,32,58775,1,0,0:0:0:0:
140,56,58966,1,8,3:0:0:0:
256,192,59157,1,0,0:0:0:0:
256,192,59253,1,0,0:0:0:0:
320,32,59444,1,0,0:0:0:0:
320,32,59539,1,0,0:0:0:0:
448,112,59730,70,0,P|496:208|464:296,1,167.999988197327,8|0,3:0|0:0,0:0:0:0:
264,344,60112,2,0,P|352:368|448:312,1,167.999988197327,0|0,0:0|0:0,0:0:0:0:
376,152,60495,2,0,P|280:112|160:120,1,167.999988197327,8|0,3:0|0:0,0:0:0:0:
256,192,60781,2,0,P|304:128|304:32,1,167.999988197327,0|0,0:0|0:0,0:0:0:0:
224,32,61068,2,0,P|144:80|184:177,1,167.999988197327,0|8,0:0|3:0,0:0:0:0:
208,280,61450,5,0,0:0:0:0:
72,336,61641,2,0,P|0:264|0:152,1,167.999988197327,0|0,0:0|0:0,0:0:0:0:
128,264,62023,2,0,P|88:248|112:144,1,167.999988197327,8|0,3:0|0:0,0:0:0:0:
200,192,62310,2,0,P|288:168|308:88,1,167.999988197327,0|0,0:0|0:0,0:0:0:0:
304,8,62597,1,0,0:0:0:0:
304,8,62692,1,0,0:0:0:0:
304,8,62788,69,8,0:0:0:0:
480,136,62979,1,8,0:0:0:0:
304,264,63170,1,8,0:0:0:0:
424,64,63361,2,0,P|387:136|424:208,1,167.999988197327,4|0,0:0|0:0,0:0:0:0:
232,208,63743,2,0,P|269:136|232:64,1,167.999988197327,2|2,0:0|0:0,0:0:0:0:
24,360,64316,5,8,0:0:0:0:
24,168,64507,1,8,0:0:0:0:
88,328,64698,1,8,0:0:0:0:
88,200,64890,1,4,0:0:0:0:
384,264,65272,1,2,0:0:0:0:
384,264,65463,1,2,0:0:0:0:
