osu file format v14

[General]
AudioFilename: Edge Works of Goddess ZABABA (TV Size).mp3
AudioLeadIn: 1600
PreviewTime: 32214
Countdown: 0
SampleSet: Soft
StackLeniency: 0.7
Mode: 0
LetterboxInBreaks: 0
WidescreenStoryboard: 0

[Editor]
Bookmarks: 91250,146282,147811,230358,231887,238002,244116
DistanceSpacing: 0.9
BeatDivisor: 4
GridSize: 8
TimelineZoom: 2.100001

[Metadata]
Title:Edge Works of Goddess ZABABA
TitleUnicode:Edge Works of Goddess ZABABA
Artist:Nanjo Yoshino x Kayano Ai (as Shirabe Tsukuyomi x Kirika Akatsuki)
ArtistUnicode:南條愛乃×茅野愛衣(as 月読 調×暁 切歌)
Creator:blissfulyoshi
Version:Difficult Piece
Source:戦姫絶唱シンフォギアG
Tags:Senhime Zesshou Symphogear In the distance, that day, when the star became music...
BeatmapID:462599
BeatmapSetID:159750

[Difficulty]
HPDrainRate:5
CircleSize:4
OverallDifficulty:6
ApproachRate:7
SliderMultiplier:1.8
SliderTickRate:2

[Events]
//Background and Video events
Video,-23,"blah3.avi"
0,0,"38409178small.jpg",0,0
//Break Periods
//Storyboard Layer 0 (Background)
//Storyboard Layer 1 (Fail)
//Storyboard Layer 2 (Pass)
//Storyboard Layer 3 (Foreground)
//Storyboard Sound Samples

[TimingPoints]
113,382.165605095541,4,2,0,50,1,0
6227,-100,4,2,0,60,0,0
12342,-90.9090909090909,4,2,0,70,0,0
24571,-90.9090909090909,4,2,0,50,0,0
32214,-83.3333333333333,4,2,0,90,0,1
56673,-83.3333333333333,4,1,0,50,0,0
62788,-83.3333333333333,4,3,0,50,0,0

[Colours]
Combo1 : 255,133,136
Combo2 : 255,190,254
Combo3 : 160,32,74
Combo4 : 112,104,170
Combo5 : 24,127,105
Combo6 : 95,185,97

[HitObjects]
16,80,113,5,2,0:0:0:0:
16,80,304,2,0,P|40:136|72:152,1,90,2|0,0:0|0:0,0:0:0:0:
144,168,686,1,0,0:0:0:0:
224,184,877,2,0,P|264:232|264:280,1,90,2|0,0:0|0:0,0:0:0:0:
288,336,1259,2,0,P|323:344|376:320,1,90,0|0,0:0|0:0,0:0:0:0:
464,240,1641,5,2,0:0:0:0:
464,240,1832,2,0,P|480:192|456:136,1,90,2|0,0:0|0:0,0:0:0:0:
424,88,2214,1,0,0:0:0:0:
344,104,2405,2,0,P|232:88|184:32,1,180,2|0,0:0|0:0,0:0:0:0:
120,80,2979,1,2,3:0:0:0:
168,192,3170,70,0,P|126:188|79:215,1,90,4|0,0:0|0:0,0:0:0:0:
59,291,3552,2,0,P|100:294|147:267,1,90,8|0,0:0|0:0,0:0:0:0:
168,192,3934,2,0,P|262:146|321:186,1,180,2|2,3:0|3:0,0:0:0:0:
480,352,4698,6,0,P|512:272|482:64,1,270,4|0,0:0|0:0,0:0:0:0:
440,40,5463,2,0,P|398:20|345:13,1,90,8|0,3:0|0:0,0:0:0:0:
274,13,5845,2,0,P|229:20|189:40,1,90,8|0,3:0|0:0,0:0:0:0:
136,176,6227,69,4,2:0:0:0:
136,176,6418,1,0,0:0:0:0:
192,240,6609,2,0,P|240:248|288:216,1,90,2|0,3:0|0:0,0:0:0:0:
328,168,6991,2,0,P|405:120|480:152,1,180,0|0,1:0|0:0,0:0:0:0:
496,232,7565,2,0,L|511:332,1,90,0|4,0:0|0:0,0:0:0:0:
432,336,7947,5,0,0:0:0:0:
352,352,8138,2,0,L|256:272,1,90,2|0,3:0|0:0,0:0:0:0:
216,344,8520,2,0,L|120:264,1,90,0|0,1:0|0:0,0:0:0:0:
176,208,8902,1,0,0:0:0:0:
120,152,9093,2,0,P|96:120|112:64,1,90,0|4,0:0|0:0,0:0:0:0:
168,24,9476,70,0,P|280:32|344:88,1,180,0|0,0:0|0:0,0:0:0:0:
392,128,10049,2,0,L|448:208,1,90,0|0,1:0|0:0,0:0:0:0:
392,264,10431,2,0,L|336:184,1,90,0|0,0:0|0:0,0:0:0:0:
272,144,10813,6,0,B|137:69|60:186|39:221|111:281|204:281|211:241|227:102|76:72,1,540,8|2,3:0|3:0,0:0:0:0:
0,232,12342,5,4,0:0:0:0:
40,312,12533,1,0,1:0:0:0:
112,368,12724,2,0,P|160:377|208:368,1,99.0000030212403,2|0,3:0|1:0,0:0:0:0:
288,320,13106,1,8,3:0:0:0:
336,248,13297,2,0,P|345:200|336:152,1,99.0000030212403,0|0,1:0|0:0,0:0:0:0:
312,64,13679,2,0,L|432:72,1,99.0000030212403,0|2,0:0|3:0,0:0:0:0:
496,88,14062,6,0,P|504:136|480:208,1,99.0000030212403,0|2,1:0|3:0,0:0:0:0:
456,256,14444,1,0,1:0:0:0:
384,312,14635,1,8,3:0:0:0:
304,352,14826,2,0,P|272:360|200:352,1,99.0000030212403,0|0,1:0|0:0,0:0:0:0:
120,328,15208,1,0,1:0:0:0:
0,112,15590,69,0,1:0:0:0:
16,192,15781,1,2,3:0:0:0:
80,248,15972,1,0,1:0:0:0:
168,264,16163,2,0,P|264:232|304:144,1,198.000006042481,8|0,3:0|0:0,0:0:0:0:
320,64,16737,1,0,1:0:0:0:
408,72,16928,6,0,L|560:80,1,99.0000030212403,4|0,3:0|1:0,0:0:0:0:
456,152,17310,1,0,0:0:0:0:
367,145,17501,1,0,1:0:0:0:
352,232,17692,2,0,L|504:240,1,99.0000030212403,4|0,3:0|1:0,0:0:0:0:
432,320,18074,2,0,L|280:312,1,99.0000030212403,4|0,3:0|1:0,0:0:0:0:
244,308,18456,1,0,0:0:0:0:
104,288,18648,70,0,P|56:272|32:216,1,99.0000030212403,0|2,1:0|3:0,0:0:0:0:
32,144,19030,1,0,1:0:0:0:
120,160,19221,2,0,B|176:176|204:221|204:221|256:120|352:80,1,297.000009063721,8|0,3:0|1:0,0:0:0:0:
432,72,19985,5,4,3:0:0:0:
496,136,20176,2,0,P|505:186|496:232,1,99.0000030212403,0|2,1:0|3:0,0:0:0:0:
432,296,20558,1,0,1:0:0:0:
312,360,20749,2,0,P|272:376|200:360,1,99.0000030212403,8|0,3:0|1:0,0:0:0:0:
160,296,21132,2,0,P|200:280|272:296,1,99.0000030212403,0|0,0:0|1:0,0:0:0:0:
344,264,21514,70,0,P|370:220|348:160,1,99.0000030212403,4|0,3:0|1:0,0:0:0:0:
299,118,21896,2,0,P|272:161|294:221,1,99.0000030212403,0|0,0:0|1:0,0:0:0:0:
192,208,22278,2,0,L|64:208,1,99.0000030212403,4|0,3:0|0:0,0:0:0:0:
0,208,22660,1,0,1:0:0:0:
240,24,23042,6,0,L|336:87,1,99.0000030212403,4|0,3:0|0:0,0:0:0:0:
400,128,23425,1,4,3:0:0:0:
384,216,23616,1,4,3:0:0:0:
312,168,23807,2,0,L|145:60,1,198.000006042481,4|0,3:0|0:0,0:0:0:0:
0,256,24571,5,8,3:0:0:0:
168,320,24953,1,8,3:0:0:0:
344,320,25335,1,8,3:0:0:0:
512,256,25718,1,8,3:0:0:0:
332,209,26100,6,0,L|292:89,1,99.0000030212403,8|0,0:0|0:0,0:0:0:0:
212,113,26482,2,0,L|180:206,1,99.0000030212403,8|0,0:0|0:0,0:0:0:0:
256,256,26864,1,8,3:0:0:0:
8,256,27246,70,0,L|8:152,1,99.0000030212403,8|0,3:0|0:0,0:0:0:0:
8,64,27628,1,2,3:0:0:0:
184,32,28011,2,0,P|234:50|261:102,1,99.0000030212403,0|0,0:0|0:0,0:0:0:0:
336,120,28393,2,0,P|365:164|432:176,1,99.0000030212403,8|0,3:0|0:0,0:0:0:0:
424,264,28775,2,0,L|320:304,1,99.0000030212403,0|0,0:0|0:0,0:0:0:0:
240,288,29157,6,0,B|224:256|224:256|216:240|240:168|240:168|187:197|187:197|79:29|79:29|54:85|80:168|121:228|121:228|66:265|66:265|152:280|162:303|162:303|176:328,1,792.000024169923,8|2,3:0|0:0,0:0:0:0:
248,368,30877,69,2,0:0:0:0:
336,360,31068,2,0,L|448:352,1,99.0000030212403
400,272,31450,2,0,L|496:224,1,99.0000030212403,2|2,0:0|0:0,0:0:0:0:
424,168,31832,2,0,L|472:72,1,99.0000030212403,2|2,0:0|0:0,0:0:0:0:
384,32,32214,6,0,P|296:16|160:64,1,215.999993408203,4|0,0:0|0:0,0:0:0:0:
104,112,32788,1,0,1:0:0:0:
40,184,32979,2,0,P|4:242|8:296,1,107.999996704102,4|0,3:0|1:0,0:0:0:0:
88,264,33361,2,0,L|136:368,1,107.999996704102,0|0,0:0|1:0,0:0:0:0:
240,360,33743,70,0,L|240:240,1,107.999996704102,4|0,3:0|0:0,0:0:0:0:
328,300,34125,2,0,L|328:192,1,107.999996704102,4|0,3:0|0:0,0:0:0:0:
416,240,34507,2,0,L|416:120,1,107.999996704102,4|0,3:0|0:0,0:0:0:0:
504,176,34890,2,0,L|504:64,1,107.999996704102,4|0,3:0|0:0,0:0:0:0:
416,32,35272,5,4,0:0:0:0:
320,40,35463,1,0,1:0:0:0:
248,104,35654,2,0,P|192:144|144:152,1,107.999996704102
8,184,36036,2,0,P|56:200|104:256,1,107.999996704102,8|0,3:0|1:0,0:0:0:0:
136,328,36418,1,0,0:0:0:0:
224,360,36609,1,0,1:0:0:0:
320,360,36800,70,0,P|376:336|416:296,1,107.999996704102,4|0,3:0|0:0,0:0:0:0:
480,200,37183,2,0,P|491:147|480:96,1,107.999996704102,4|0,3:0|1:0,0:0:0:0:
416,24,37565,1,4,3:0:0:0:
320,24,37756,1,0,0:0:0:0:
224,24,37947,2,0,P|176:48|152:96,1,107.999996704102,4|0,3:0|0:0,0:0:0:0:
144,216,38329,6,0,B|208:248|248:216|288:184|352:216,1,215.999993408203,4|0,0:0|0:0,0:0:0:0:
360,104,38902,1,0,1:0:0:0:
264,112,39093,2,0,B|283:180|245:214|206:247|227:316,1,215.999993408203,8|0,3:0|0:0,0:0:0:0:
352,352,39667,1,0,1:0:0:0:
448,336,39858,70,0,L|408:232,1,107.999996704102,4|0,3:0|1:0,0:0:0:0:
360,104,40240,2,0,P|360:41|480:56,1,215.999993408203,4|2,3:0|3:0,0:0:0:0:
192,48,41004,6,0,P|184:112|144:160,1,107.999996704102,0|0,0:0|0:0,0:0:0:0:
0,192,41386,2,0,P|8:128|48:80,1,107.999996704102,4|0,0:0|1:0,0:0:0:0:
88,168,41769,1,0,0:0:0:0:
152,240,41960,1,0,1:0:0:0:
216,312,42151,2,0,P|280:352|360:352,1,107.999996704102,8|0,3:0|1:0,0:0:0:0:
408,352,42533,1,0,0:0:0:0:
496,288,42724,1,0,1:0:0:0:
432,80,42915,70,0,B|350:67|349:-51|238:1|181:69|195:132|276:144|276:144,1,323.999990112305,8|0,3:0|1:0,0:0:0:0:
456,147,43679,2,0,B|402:209|478:301|358:332|271:317|242:259|296:197|296:197,1,323.999990112305,8|0,3:0|1:0,0:0:0:0:
152,240,44444,6,0,L|48:312,1,107.999996704102,4|0,0:0|1:0,0:0:0:0:
48,208,44826,2,0,L|152:136,1,107.999996704102,0|0,0:0|1:0,0:0:0:0:
288,64,45208,2,0,L|376:2,1,107.999996704102,8|0,3:0|0:0,0:0:0:0:
392,96,45590,2,0,L|303:157,1,107.999996704102,0|0,0:0|1:0,0:0:0:0:
224,280,45972,70,0,P|224:336|272:368,1,107.999996704102,4|0,3:0|0:0,0:0:0:0:
400,296,46355,2,0,P|400:240|352:208,1,107.999996704102,4|0,3:0|0:0,0:0:0:0:
192,184,46737,2,0,P|152:150|154:97,1,107.999996704102,4|0,3:0|0:0,0:0:0:0:
266,9,47119,2,0,P|305:43|304:96,1,107.999996704102,4|0,3:0|1:0,0:0:0:0:
96,32,47501,6,0,P|64:128|120:240,1,215.999993408203,4|0,0:0|0:0,0:0:0:0:
432,360,48265,2,0,P|472:312|468:261,1,107.999996704102,8|0,3:0|1:0,0:0:0:0:
432,184,48648,2,0,P|392:136|396:85,1,107.999996704102,0|0,0:0|1:0,0:0:0:0:
344,8,49030,70,0,L|232:40,1,107.999996704102,4|0,3:0|1:0,0:0:0:0:
88,144,49412,2,0,L|200:112,1,107.999996704102,4|0,3:0|0:0,0:0:0:0:
320,184,49794,2,0,L|208:216,1,107.999996704102,4|0,3:0|0:0,0:0:0:0:
56,256,50176,1,0,0:0:0:0:
16,344,50367,1,0,0:0:0:0:
112,328,50558,1,4,0:0:0:0:
240,328,50749,5,0,1:0:0:0:
320,272,50941,1,2,0:0:0:0:
352,368,51132,2,0,L|472:312,1,107.999996704102,0|2,1:0|0:0,0:0:0:0:
496,216,51514,69,0,1:0:0:0:
496,120,51705,1,2,0:0:0:0:
408,168,51896,2,0,L|408:48,1,107.999996704102,0|2,1:0|0:0,0:0:0:0:
288,56,52278,5,0,1:0:0:0:
192,40,52469,1,2,0:0:0:0:
112,96,52660,2,0,P|80:136|80:208,1,107.999996704102,0|2,1:0|0:0,0:0:0:0:
80,344,53042,69,0,1:0:0:0:
168,336,53234,2,0,P|216:320|256:272,1,107.999996704102,2|0,0:0|1:0,0:0:0:0:
290,154,53616,6,0,P|274:90|298:42,1,107.999996704102,8|0,3:0|1:0,0:0:0:0:
384,24,53998,1,0,0:0:0:0:
480,16,54189,1,0,1:0:0:0:
448,128,54380,70,0,P|408:200|368:224,1,107.999996704102,8|0,3:0|1:0,0:0:0:0:
312,248,54762,1,0,0:0:0:0:
232,272,54953,1,0,1:0:0:0:
88,264,55144,6,0,P|4:202|-5:90,1,215.999993408203,4|0,3:0|0:0,0:0:0:0:
112,136,55718,1,0,0:0:0:0:
232,184,55909,2,0,P|225:79|143:15,1,215.999993408203,4|0,3:0|0:0,0:0:0:0:
112,137,56482,1,0,0:0:0:0:
232,184,56673,70,0,B|192:304|39:367|96:368|96:368|270:368|270:368|254:325|264:256|312:208|312:208|416:216|416:216|444:256|468:240|500:272|524:344|492:408|428:384|412:368|412:368|396:384|332:408|300:352|324:272|356:240|380:256|412:216|412:216|444:176|468:192|520:160|552:72|504:-8|432:24|416:56|416:56|400:24|321:-4|288:80|320:140|400:152,1,1727.99994726563,4|8,3:0|3:0,0:0:0:0:
248,112,59921,5,0,0:0:0:0:
168,80,60112,2,0,L|64:32,1,107.999996704102,0|0,0:0|0:0,0:0:0:0:
24,104,60495,2,0,L|40:216,1,107.999996704102,8|0,3:0|0:0,0:0:0:0:
128,200,60877,1,0,0:0:0:0:
152,288,61068,2,0,L|264:184,1,107.999996704102,0|8,0:0|3:0,0:0:0:0:
320,200,61450,69,0,0:0:0:0:
392,248,61641,2,0,L|296:296,1,107.999996704102,0|0,0:0|0:0,0:0:0:0:
224,344,62023,1,8,3:0:0:0:
136,360,62214,2,0,L|40:312,1,107.999996704102,0|0,0:0|0:0,0:0:0:0:
24,224,62597,1,0,0:0:0:0:
104,144,62788,5,8,0:0:0:0:
184,32,62979,1,8,0:0:0:0:
328,32,63170,1,8,0:0:0:0:
408,144,63361,1,4,0:0:0:0:
256,280,63743,69,2,0:0:0:0:
256,152,63934,1,2,0:0:0:0:
400,336,64316,5,8,0:0:0:0:
456,208,64507,1,8,0:0:0:0:
328,144,64698,1,8,0:0:0:0:
184,144,64890,1,4,0:0:0:0:
112,336,65272,69,2,0:0:0:0:
56,208,65463,1,2,0:0:0:0:
