osu file format v14

[General]
AudioFilename: Edge Works of Goddess ZABABA (TV Size).mp3
AudioLeadIn: 1600
PreviewTime: 32214
Countdown: 0
SampleSet: Soft
StackLeniency: 0.7
Mode: 0
LetterboxInBreaks: 0
WidescreenStoryboard: 0

[Editor]
Bookmarks: 91250,146282,147811,230358,231887,238002,244116
DistanceSpacing: 0.6
BeatDivisor: 8
GridSize: 8
TimelineZoom: 3.199999

[Metadata]
Title:Edge Works of Goddess ZABABA
TitleUnicode:Edge Works of Goddess ZABABA
Artist:Nanjo Yoshino x Kayano Ai (as Shirabe Tsukuyomi x Kirika Akatsuki)
ArtistUnicode:南條愛乃×茅野愛衣(as 月読 調×暁 切歌)
Creator:blissfulyoshi
Version:Death Melody
Source:戦姫絶唱シンフォギアG
Tags:Senhime Zesshou Symphogear In the distance, that day, when the star became music...
BeatmapID:561539
BeatmapSetID:159750

[Difficulty]
HPDrainRate:3
CircleSize:4
OverallDifficulty:7
ApproachRate:9.6
SliderMultiplier:3.59999990463257
SliderTickRate:2

[Events]
//Background and Video events
Video,-23,"blah3.avi"
0,0,"38409178small.jpg",0,0
//Break Periods
//Storyboard Layer 0 (Background)
//Storyboard Layer 1 (Fail)
//Storyboard Layer 2 (Pass)
//Storyboard Layer 3 (Foreground)
//Storyboard Sound Samples

[TimingPoints]
113,382.165605095541,4,2,0,50,1,0
6227,-90.9090909090909,4,2,0,60,0,0
12342,-83.3333333333333,4,2,0,70,0,0
24571,-83.3333333333333,4,2,0,50,0,0
32214,-71.4285714285714,4,2,0,90,0,1
56673,-71.4285714285714,4,1,0,50,0,0
62788,-71.4285714285714,4,3,0,50,0,0

[Colours]
Combo1 : 255,133,136
Combo2 : 255,190,254
Combo3 : 160,32,74
Combo4 : 112,104,170
Combo5 : 24,127,105
Combo6 : 95,185,97

[HitObjects]
0,160,113,5,2,0:0:0:0:
144,160,304,2,0,P|192:152|232:104,1,89.9999976158143,2|0,0:0|0:0,0:0:0:0:
256,56,495,2,0,P|280:32|352:32,1,89.9999976158143
408,56,686,2,0,P|408:112|384:144,1,89.9999976158143
336,200,877,6,0,B|296:232|309:279|309:279|264:304|272:360,1,179.999995231629,2|0,0:0|0:0,0:0:0:0:
376,352,1163,2,0,B|416:320|408:273|408:273|448:256|440:192,1,179.999995231629,2|0,0:0|0:0,0:0:0:0:
389,140,1450,2,0,P|336:120|280:152,1,89.9999976158143,0|0,0:0|0:0,0:0:0:0:
248,192,1641,1,2,0:0:0:0:
160,352,1832,70,0,L|64:352,1,89.9999976158143,2|0,0:0|0:0,0:0:0:0:
48,280,2023,2,0,L|144:280,1,89.9999976158143,0|0,0:0|0:0,0:0:0:0:
160,208,2214,2,0,L|64:208,1,89.9999976158143
48,136,2405,6,0,L|144:136,1,89.9999976158143,2|0,0:0|0:0,0:0:0:0:
192,120,2597,1,0,0:0:0:0:
224,72,2692,2,0,P|288:16|344:80,1,179.999995231629,4|0,3:0|0:0,0:0:0:0:
344,152,2979,2,0,L|344:256,1,89.9999976158143,2|0,3:0|0:0,0:0:0:0:
344,368,3170,70,0,P|464:336|480:256,1,179.999995231629,4|0,0:0|0:0,0:0:0:0:
480,208,3456,2,0,P|479:176|440:136,1,89.9999976158143,0|8,0:0|0:0,0:0:0:0:
248,104,3743,2,0,L|184:184,1,89.9999976158143
128,240,3934,1,2,3:0:0:0:
128,328,4062,1,0,3:0:0:0:
200,368,4189,1,0,3:0:0:0:
272,328,4316,1,2,3:0:0:0:
272,240,4444,1,0,3:0:0:0:
200,192,4571,1,0,3:0:0:0:
128,144,4698,6,0,P|96:56|165:40,1,179.999995231629,4|0,0:0|0:0,0:0:0:0:
232,56,4985,2,0,P|304:88|408:64,1,179.999995231629
464,24,5272,2,0,L|520:112,1,89.9999976158143
440,136,5463,2,8,B|512:256|456:328|352:320|328:280,1,269.999992847443,8|8,3:0|3:0,0:0:0:0:
343,211,5845,2,0,B|359:193|454:178|510:250|438:370,1,269.999992847443,8|0,3:0|0:0,0:0:0:0:
280,256,6227,69,4,2:0:0:0:
72,256,6418,2,0,L|32:160,1,99.0000003986359
88,64,6609,2,0,L|128:160,1,99.0000003986359,2|0,3:0|0:0,0:0:0:0:
208,120,6800,2,0,L|168:24,1,99.0000003986359
288,48,6991,2,0,L|328:144,1,99.0000003986359,0|0,1:0|0:0,0:0:0:0:
384,280,7183,2,0,B|480:184|432:144|392:96|480:8,1,297.000001195908
504,128,7565,2,0,P|510:193|500:240,1,99.0000003986359
432,344,7756,5,4,0:0:0:0:
216,336,7947,2,0,P|176:304|165:249,1,99.0000003986359
192,184,8138,2,0,P|232:216|243:271,1,99.0000003986359,2|0,3:0|0:0,0:0:0:0:
216,336,8329,2,0,L|112:360,1,99.0000003986359
0,312,8520,2,0,L|104:288,1,99.0000003986359,0|0,1:0|0:0,0:0:0:0:
104,192,8711,1,0,0:0:0:0:
168,96,8807,2,0,P|256:96|360:32,1,198.000000797272
256,16,9093,2,0,P|288:108|361:173,1,198.000000797272,0|4,0:0|0:0,0:0:0:0:
432,344,9476,70,0,P|466:309|470:244,1,99.0000003986359
392,272,9667,2,0,P|352:248|280:248,1,99.0000003986359,2|0,3:0|0:0,0:0:0:0:
264,312,9858,2,0,P|226:273|224:224,1,99.0000003986359
160,176,10049,2,0,P|151:300|202:366,1,198.000000797272,0|0,1:0|0:0,0:0:0:0:
80,335,10335,2,0,P|61:240|107:113,1,198.000000797272
136,72,10622,2,0,P|160:40|224:16,1,99.0000003986359
216,104,10813,6,0,B|248:176|304:184|416:80|400:56|368:32|328:14|288:32|256:56|240:80|352:184|408:176|440:104,1,495.00000199318,8|0,3:0|0:0,0:0:0:0:
488,168,11386,2,0,P|437:210|376:216,1,99.0000003986359,8|0,3:0|0:0,0:0:0:0:
328,208,11577,2,0,P|184:208|56:80,1,297.000001195908,8|8,3:0|3:0,0:0:0:0:
136,72,11960,2,0,P|216:184|88:384,1,396.000001594544,2|4,3:0|0:0,0:0:0:0:
384,304,12533,6,0,P|416:288|456:224,1,107.999993843079,0|0,1:0|0:0,0:0:0:0:
464,88,12724,2,0,P|432:104|392:168,1,107.999993843079,2|0,3:0|0:0,0:0:0:0:
304,304,12915,2,0,P|272:288|232:224,1,107.999993843079,0|0,1:0|0:0,0:0:0:0:
248,72,13106,2,0,P|280:88|320:152,1,107.999993843079,8|0,3:0|0:0,0:0:0:0:
344,368,13297,1,0,1:0:0:0:
280,376,13393,1,0,0:0:0:0:
224,352,13488,2,0,P|183:317|152:240,1,107.999993843079
56,96,13679,2,0,B|112:120|120:184|120:184|58:214|64:293,1,215.999987686158,0|2,1:0|3:0,0:0:0:0:
200,176,13966,5,0,0:0:0:0:
264,176,14062,2,0,P|305:163|352:104,1,107.999993843079,0|0,1:0|0:0,0:0:0:0:
504,120,14253,2,0,P|463:133|416:192,1,107.999993843079,2|0,3:0|0:0,0:0:0:0:
353,288,14444,2,0,P|302:303|256:280,1,107.999993843079,0|0,1:0|0:0,0:0:0:0:
128,144,14635,2,0,P|96:192|104:248,1,107.999993843079,8|0,3:0|0:0,0:0:0:0:
128,360,14826,1,0,1:0:0:0:
72,328,14921,2,0,P|17:240|41:124,1,215.999987686158
120,48,15208,2,0,P|144:24|232:24,1,107.999993843079,0|0,1:0|0:0,0:0:0:0:
416,72,15399,69,2,3:0:0:0:
392,128,15495,1,0,0:0:0:0:
368,184,15590,2,0,L|320:288,1,107.999993843079,0|0,1:0|0:0,0:0:0:0:
416,368,15781,2,0,L|464:264,1,107.999993843079,2|0,3:0|0:0,0:0:0:0:
464,160,15972,2,0,L|512:56,1,107.999993843079,0|0,1:0|0:0,0:0:0:0:
416,0,16163,2,0,L|296:0,1,107.999993843079,8|0,3:0|0:0,0:0:0:0:
256,104,16355,1,0,1:0:0:0:
192,104,16450,2,0,L|-24:104,1,215.999987686158
32,216,16737,2,0,L|152:216,1,107.999993843079,0|0,1:0|0:0,0:0:0:0:
376,280,16928,6,0,P|472:232|512:120,1,215.999987686158,4|0,3:0|1:0,0:0:0:0:
376,152,17214,2,0,P|472:200|512:312,1,215.999987686158
344,216,17501,2,0,L|224:216,1,107.999993843079,0|0,1:0|0:0,0:0:0:0:
0,296,17692,2,0,P|80:357|160:296,1,215.999987686158,4|0,3:0|1:0,0:0:0:0:
80,216,17979,1,0,0:0:0:0:
0,136,18074,2,0,P|80:75|160:136,1,215.999987686158,4|0,3:0|1:0,0:0:0:0:
416,336,18456,69,4,0:1:0:0:
448,280,18552,1,0,0:0:0:0:
464,216,18648,2,0,P|472:152|456:72,1,107.999993843079,0|0,1:0|0:0,0:0:0:0:
352,32,18839,2,0,P|344:96|360:176,1,107.999993843079,2|0,3:0|0:0,0:0:0:0:
224,256,19030,2,0,P|232:192|216:112,1,107.999993843079,0|0,1:0|0:0,0:0:0:0:
64,16,19221,2,0,P|56:80|72:160,1,107.999993843079,8|0,3:0|0:0,0:0:0:0:
80,248,19412,1,0,1:0:0:0:
112,296,19507,2,0,P|192:368|312:360,1,215.999987686158
448,280,19794,2,0,L|474:172,1,107.999993843079,0|0,1:0|0:0,0:0:0:0:
440,32,19985,5,4,3:0:0:0:
400,80,20081,1,0,0:0:0:0:
352,112,20176,2,0,P|320:136|248:136,1,107.999993843079,0|0,1:0|0:0,0:0:0:0:
128,144,20367,2,0,P|107:192|128:240,1,107.999993843079,2|0,3:0|0:0,0:0:0:0:
253,245,20558,2,0,P|307:243|352:272,1,107.999993843079,0|0,1:0|0:0,0:0:0:0:
496,96,20749,2,0,P|507:202|440:296,1,215.999987686158,8|0,3:0|1:0,0:0:0:0:
176,336,21036,2,0,P|280:360|408:328,1,215.999987686158
416,120,21323,2,0,P|400:176|416:240,1,107.999993843079,0|0,1:0|0:0,0:0:0:0:
320,168,21514,70,0,P|248:56|168:40,1,215.999987686158,4|0,3:0|1:0,0:0:0:0:
343,42,21800,2,0,P|237:122|156:110,1,215.999987686158,0|0,0:0|0:0,0:0:0:0:
16,72,22087,2,0,P|-8:144|8:208,1,107.999993843079,0|0,1:0|0:0,0:0:0:0:
24,288,22278,2,0,P|112:368|304:336,1,323.999981529237,4|0,3:0|0:0,0:0:0:0:
424,216,22660,1,0,1:0:0:0:
480,184,22756,1,0,0:0:0:0:
504,128,22851,1,0,1:0:0:0:
480,72,22947,1,0,0:0:0:0:
424,40,23042,6,0,P|296:56|240:128,1,215.999987686158,4|0,3:0|0:0,0:0:0:0:
32,272,23329,2,0,P|160:256|216:184,1,215.999987686158,4|0,3:0|0:0,0:0:0:0:
128,32,23616,2,0,L|176:136,1,107.999993843079,4|0,3:0|0:0,0:0:0:0:
336,280,23807,2,0,L|288:176,1,107.999993843079,4|0,3:0|0:0,0:0:0:0:
320,8,23998,2,0,L|368:112,1,107.999993843079,4|0,3:0|0:0,0:0:0:0:
5,329,24571,6,0,L|37:384,1,53.9999969215394,8|0,3:0|0:0,0:0:0:0:
50,293,24667,2,0,L|95:341,1,53.9999969215394
80,248,24762,2,0,L|173:315,1,107.999993843079
248,320,24953,2,0,L|248:256,1,53.9999969215394,8|0,3:0|0:0,0:0:0:0:
304,328,25049,2,0,L|320:264,1,53.9999969215394
352,352,25144,2,0,L|400:248,1,107.999993843079
432,168,25335,2,0,P|336:40|224:136,1,323.999981529237,8|0,3:0|0:0,0:0:0:0:
112,168,25718,2,0,P|208:40|320:136,1,323.999981529237,8|0,3:0|0:0,0:0:0:0:
272,208,26100,6,0,L|247:276,1,53.9999969215394,8|0,3:0|0:0,0:0:0:0:
209,219,26195,2,0,L|184:287,1,53.9999969215394
145,230,26291,2,0,L|103:343,1,107.999993843079
32,312,26482,2,0,L|7:245,1,53.9999969215394,8|0,3:0|0:0,0:0:0:0:
56,232,26577,2,0,L|31:165,1,53.9999969215394
80,152,26673,2,0,L|38:40,1,107.999993843079
144,40,26864,2,0,B|240:32|328:48|352:104,1,215.999987686158,8|0,3:0|0:0,0:0:0:0:
488,272,27246,70,0,L|352:288,1,107.999993843079,8|0,3:0|0:0,0:0:0:0:
408,360,27437,2,0,L|272:376,1,107.999993843079
296,296,27628,2,0,P|176:261|140:161,1,215.999987686158,2|0,3:0|0:0,0:0:0:0:
24,176,27915,2,0,P|64:272|232:208,1,323.999981529237
240,64,28297,1,0,0:0:0:0:
296,32,28393,2,0,P|336:24|392:248,1,323.999981529237,8|0,3:0|0:0,0:0:0:0:
339,148,28775,2,0,P|331:260|435:324,1,215.999987686158
280,368,29062,1,0,0:0:0:0:
232,312,29157,6,0,B|208:272|208:272|200:256|223:180|223:180|171:213|171:213|51:22|51:22|16:88|64:184|100:250|100:250|50:288|50:288|136:296|146:319|146:319|168:352,1,863.999950744631,8|2,3:0|3:0,0:0:0:0:
360,352,30049,1,2,3:0:0:0:
440,320,30176,1,2,3:0:0:0:
472,240,30304,1,2,3:0:0:0:
456,152,30431,1,2,3:0:0:0:
384,104,30558,1,2,3:0:0:0:
296,88,30686,70,0,L|296:208,1,107.999993843079,2|0,0:0|0:0,0:0:0:0:
224,16,30877,2,0,L|224:136,1,107.999993843079,2|0,0:0|0:0,0:0:0:0:
152,80,31068,2,0,L|152:200,1,107.999993843079,2|0,0:0|0:0,0:0:0:0:
80,16,31259,2,0,L|80:136,1,107.999993843079,2|0,0:0|0:0,0:0:0:0:
8,80,31450,2,0,L|8:200,1,107.999993843079,2|0,0:0|0:0,0:0:0:0:
80,312,31641,2,0,L|80:192,1,107.999993843079,2|0,0:0|0:0,0:0:0:0:
224,312,31832,2,0,L|224:192,1,107.999993843079,2|0,0:0|0:0,0:0:0:0:
296,88,32023,1,2,0:0:0:0:
352,32,32119,1,0,0:0:0:0:
424,24,32214,6,0,P|464:64|480:160,1,125.999992816925,4|0,0:0|0:0,0:0:0:0:
432,296,32405,1,0,1:0:0:0:
376,344,32501,1,0,0:0:0:0:
304,368,32597,1,0,0:0:0:0:
232,384,32692,1,0,0:0:0:0:
160,368,32788,2,0,P|120:352|48:272,1,125.999992816925,0|0,1:0|0:0,0:0:0:0:
40,128,32979,2,0,P|72:80|144:72,1,125.999992816925,4|0,3:0|0:0,0:0:0:0:
296,88,33170,1,0,1:0:0:0:
320,160,33265,1,0,0:0:0:0:
288,224,33361,2,0,P|216:256|168:224,1,125.999992816925
40,128,33552,2,0,P|16:192|48:248,1,125.999992816925,0|0,1:0|0:0,0:0:0:0:
256,344,33743,70,0,P|440:296|384:80,1,377.999978450776,4|0,3:0|0:0,0:0:0:0:
256,40,34125,2,0,P|72:88|128:304,1,377.999978450776,4|0,3:0|0:0,0:0:0:0:
296,280,34507,2,0,P|379:184|243:238,1,377.999978450776,4|0,3:0|0:0,0:0:0:0:
40,336,34890,2,0,P|-8:208|176:112,1,377.999978450776,4|0,3:0|0:0,0:0:0:0:
344,64,35272,6,0,P|392:48|448:160,1,125.999992816925,4|0,0:0|0:0,0:0:0:0:
456,248,35463,1,0,1:0:0:0:
432,320,35558,1,0,0:0:0:0:
360,352,35654,2,0,P|320:368|208:368,1,125.999992816925
96,264,35845,1,0,1:0:0:0:
120,192,35941,1,0,0:0:0:0:
192,160,36036,2,0,P|232:144|344:144,1,125.999992816925,8|0,3:0|0:0,0:0:0:0:
512,80,36227,2,0,P|472:64|360:64,1,125.999992816925,0|0,1:0|0:0,0:0:0:0:
224,64,36418,1,0,0:0:0:0:
152,88,36514,1,0,0:0:0:0:
88,120,36609,2,0,P|40:168|32:264,1,125.999992816925,0|0,1:0|0:0,0:0:0:0:
136,336,36800,70,0,B|306:360|277:251|248:142|418:166,1,377.999978450776,4|0,3:0|0:0,0:0:0:0:
488,296,37183,2,0,P|448:304|376:256,1,125.999992816925,4|0,3:0|0:0,0:0:0:0:
336,76,37374,2,0,P|288:46|221:66,1,125.999992816925,0|0,1:0|0:0,0:0:0:0:
136,168,37565,2,0,P|140:228|192:260,1,125.999992816925,4|0,3:0|0:0,0:0:0:0:
379,261,37756,1,0,1:0:0:0:
440,216,37851,1,0,0:0:0:0:
464,144,37947,1,0,0:0:0:0:
440,72,38042,1,0,0:0:0:0:
376,32,38138,1,0,1:0:0:0:
304,32,38234,1,0,0:0:0:0:
248,80,38329,6,0,B|168:96|80:0|80:0|-16:88|72:160,1,377.999978450776,4|0,0:0|0:0,0:0:0:0:
160,288,38711,1,0,0:0:0:0:
216,344,38807,1,0,0:0:0:0:
288,360,38902,2,0,L|336:320,1,62.9999964084627,0|0,1:0|0:0,0:0:0:0:
360,352,38998,2,0,L|408:312,1,62.9999964084627
432,344,39093,2,0,B|520:314|496:208|429:200|429:200|360:184|368:80|464:88,1,377.999978450776,8|0,3:0|0:0,0:0:0:0:
376,32,39476,2,0,P|333:69|311:164,1,125.999992816925
184,216,39667,1,0,1:0:0:0:
112,240,39762,1,0,0:0:0:0:
40,208,39858,70,0,P|-3:132|128:88,1,251.999985633851,4|0,3:0|1:0,0:0:0:0:
232,160,40144,2,0,L|292:208,1,62.9999964084627
352,240,40240,2,0,B|512:344|560:288|576:232|560:168|464:152|392:200|464:328|496:376|352:360,1,503.999971267701,4|2,3:0|3:0,0:0:0:0:
240,376,40718,1,0,0:0:0:0:
168,368,40813,1,0,1:0:0:0:
96,352,40909,1,0,0:0:0:0:
56,288,41004,2,0,P|40:256|240:40,1,377.999978450776
464,40,41386,6,0,P|456:128|432:168,1,125.999992816925,4|0,0:0|0:0,0:0:0:0:
352,232,41577,1,0,1:0:0:0:
280,264,41673,1,0,0:0:0:0:
208,264,41769,2,0,P|160:248|136:160,1,125.999992816925
232,104,41960,2,0,P|288:104|368:160,1,125.999992816925,0|0,1:0|0:0,0:0:0:0:
472,288,42151,2,0,P|352:344|232:352,1,251.999985633851,8|0,3:0|1:0,0:0:0:0:
24,256,42437,2,0,P|0:128|112:32,1,251.999985633851
208,32,42724,2,0,L|344:32,1,125.999992816925,0|0,1:0|0:0,0:0:0:0:
488,32,42915,69,8,3:0:0:0:
456,104,43011,1,0,0:0:0:0:
400,152,43106,1,0,1:0:0:0:
328,184,43202,1,0,0:0:0:0:
256,200,43297,1,0,0:0:0:0:
184,224,43393,1,0,0:0:0:0:
120,264,43488,1,0,1:0:0:0:
80,328,43584,1,0,0:0:0:0:
144,368,43679,2,0,B|200:213|382:314|523:203|535:87,1,503.999971267701,8|0,3:0|0:0,0:0:0:0:
368,40,44157,1,0,0:0:0:0:
312,96,44253,1,0,1:0:0:0:
240,112,44348,1,0,0:0:0:0:
168,120,44444,6,0,P|72:160|0:296,1,251.999985633851,4|0,0:0|1:0,0:0:0:0:
120,264,44730,2,0,P|56:181|62:27,1,251.999985633851
200,40,45017,2,0,P|264:40|328:-8,1,125.999992816925,0|0,1:0|0:0,0:0:0:0:
480,40,45208,2,0,P|385:194|480:344,1,377.999978450776,8|0,3:0|0:0,0:0:0:0:
481,251,45590,2,0,P|460:191|480:135,1,125.999992816925
312,192,45781,2,0,L|176:192,1,125.999992816925,0|0,1:0|0:0,0:0:0:0:
96,32,45972,70,0,B|96:136|-48:72|-48:312|96:248|96:352,1,377.999978450776,4|0,3:0|0:0,0:0:0:0:
208,256,46355,2,0,B|144:120|104:128|-4:192|104:256|144:264|208:128,1,377.999978450776,4|0,3:0|0:0,0:0:0:0:
248,20,46737,2,0,B|288:48|304:128|256:192|256:192|304:256|288:336|248:364,1,377.999978450776,4|0,3:0|0:0,0:0:0:0:
344,360,47119,2,0,P|360:304|355:229,1,125.999992816925,4|0,3:0|0:0,0:0:0:0:
356,147,47310,2,0,P|360:84|344:24,1,125.999992816925,0|0,1:0|0:0,0:0:0:0:
440,96,47501,6,0,P|510:192|440:288,1,251.999985633851,4|0,0:0|1:0,0:0:0:0:
264,336,47788,1,0,0:0:0:0:
192,352,47883,1,0,0:0:0:0:
120,336,47979,1,0,0:0:0:0:
72,280,48074,1,0,1:0:0:0:
56,208,48170,1,0,0:0:0:0:
72,136,48265,2,0,P|124:59|256:104,1,251.999985633851,8|0,3:0|1:0,0:0:0:0:
440,136,48552,2,0,P|388:59|256:104,1,251.999985633851
200,216,48839,2,0,P|256:240|312:216,1,125.999992816925,0|0,1:0|0:0,0:0:0:0:
480,272,49030,70,0,P|424:248|368:272,1,125.999992816925,4|0,3:0|0:0,0:0:0:0:
264,336,49221,1,0,1:0:0:0:
192,352,49316,1,0,0:0:0:0:
120,336,49412,2,0,P|63:262|200:48,1,377.999978450776,4|0,3:0|0:0,0:0:0:0:
440,96,49794,2,0,P|504:240|376:296,1,251.999985633851,4|0,3:0|0:0,0:0:0:0:
168,280,50081,2,0,P|133:185|278:145,1,251.999985633851
408,160,50367,2,0,P|442:194|377:218,1,125.999992816925
216,208,50558,2,0,L|328:288,1,125.999992816925,4|0,0:0|0:0,0:0:0:0:
496,376,50749,6,0,L|384:296,1,125.999992816925,0|0,1:0|0:0,0:0:0:0:
320,192,50941,2,0,L|208:112,1,125.999992816925,2|0,0:0|0:0,0:0:0:0:
168,280,51132,2,0,L|56:200,1,125.999992816925,0|0,1:0|0:0,0:0:0:0:
120,96,51323,2,0,L|8:16,1,125.999992816925,2|0,0:0|0:0,0:0:0:0:
218,120,51514,70,0,L|346:120,1,125.999992816925,0|0,1:0|0:0,0:0:0:0:
512,216,51705,2,0,L|384:216,1,125.999992816925,2|0,0:0|0:0,0:0:0:0:
168,280,51896,2,0,L|296:280,1,125.999992816925,0|0,1:0|0:0,0:0:0:0:
512,336,52087,2,0,L|384:336,1,125.999992816925,2|0,0:0|0:0,0:0:0:0:
208,352,52278,6,0,L|80:376,1,125.999992816925,0|0,1:0|0:0,0:0:0:0:
128,224,52469,2,0,L|4:247,1,125.999992816925,2|0,0:0|0:0,0:0:0:0:
216,120,52660,2,0,L|88:144,1,125.999992816925,0|0,1:0|0:0,0:0:0:0:
152,16,52851,2,0,L|28:39,1,125.999992816925,2|0,0:0|0:0,0:0:0:0:
296,16,53042,70,0,L|416:64,1,125.999992816925,0|0,1:0|0:0,0:0:0:0:
504,200,53234,2,0,L|387:153,1,125.999992816925,2|0,0:0|0:0,0:0:0:0:
288,248,53425,2,0,L|408:296,1,125.999992816925,0|0,1:0|0:0,0:0:0:0:
304,352,53616,6,0,P|160:344|64:272,1,251.999985633851,8|0,3:0|1:0,0:0:0:0:
24,96,53902,2,0,P|168:104|264:176,1,251.999985633851
376,328,54189,2,0,P|432:288|464:224,1,125.999992816925,0|0,1:0|0:0,0:0:0:0:
448,31,54380,70,0,P|312:79|248:183,1,251.999985633851,8|0,3:0|1:0,0:0:0:0:
60,31,54667,2,0,P|196:79|260:183,1,251.999985633851
255,366,54953,2,0,L|255:214,1,125.999992816925,0|0,1:0|0:0,0:0:0:0:
332,178,55144,6,0,P|431:116|512:200,1,251.999985633851,4|0,3:0|0:0,0:0:0:0:
504,304,55431,2,0,P|405:366|324:282,1,251.999985633851
257,222,55718,2,0,L|129:199,1,125.999992816925
32,120,55909,2,0,P|152:71|252:162,1,251.999985633851,4|0,3:0|0:0,0:0:0:0:
217,295,56195,2,0,P|90:322|7:215,1,251.999985633851
257,222,56482,2,0,L|385:245,1,125.999992816925
496,224,56673,69,4,3:0:0:0:
472,152,56769,1,0,0:0:0:0:
424,96,56864,2,0,P|379:54|296:56,1,125.999992816925
136,72,57055,2,0,P|181:114|264:112,1,125.999992816925
312,144,57246,1,0,0:0:0:0:
376,184,57342,1,0,0:0:0:0:
408,256,57437,1,8,3:0:0:0:
376,328,57533,1,0,0:0:0:0:
304,360,57628,1,0,0:0:0:0:
224,360,57724,2,0,P|160:352|112:296,1,125.999992816925
48,176,57915,1,0,0:0:0:0:
120,160,58011,1,0,0:0:0:0:
192,136,58106,1,0,0:0:0:0:
248,80,58202,6,0,P|304:56|392:64,1,125.999992816925,8|0,3:0|0:0,0:0:0:0:
512,112,58393,2,0,P|451:108|371:146,1,125.999992816925
328,176,58584,1,0,0:0:0:0:
280,232,58679,1,0,0:0:0:0:
216,272,58775,1,0,0:0:0:0:
144,288,58870,1,0,0:0:0:0:
72,272,58966,2,0,P|33:244|47:175,1,125.999992816925,8|0,3:0|0:0,0:0:0:0:
168,64,59157,1,0,0:0:0:0:
248,80,59253,2,0,P|304:80|368:40,1,125.999992816925
496,32,59444,1,0,0:0:0:0:
440,88,59539,2,0,P|404:130|408:208,1,125.999992816925
472,320,59730,69,8,3:0:0:0:
400,336,59826,1,0,0:0:0:0:
328,368,59921,2,0,P|248:368|192:336,1,125.999992816925
120,208,60112,1,0,0:0:0:0:
56,168,60208,1,0,0:0:0:0:
40,96,60304,1,0,0:0:0:0:
96,40,60399,1,0,0:0:0:0:
168,24,60495,2,0,P|224:24|240:104,1,125.999992816925,8|0,3:0|0:0,0:0:0:0:
200,240,60686,1,0,0:0:0:0:
280,248,60781,2,0,P|304:246|376:160,1,125.999992816925
384,32,60972,1,0,0:0:0:0:
456,56,61068,2,0,P|496:88|472:208,1,125.999992816925
416,264,61259,5,8,3:0:0:0:
352,304,61355,1,0,0:0:0:0:
280,336,61450,2,0,P|219:352|160:336,1,125.999992816925
12,277,61641,1,0,0:0:0:0:
80,241,61737,2,0,P|141:225|200:241,1,125.999992816925
352,304,61928,1,0,0:0:0:0:
416,264,62023,2,0,P|432:203|416:144,1,125.999992816925,8|0,3:0|0:0,0:0:0:0:
256,64,62214,1,0,0:0:0:0:
201,121,62310,2,0,P|217:182|201:241,1,125.999992816925
80,320,62501,1,0,0:0:0:0:
12,278,62597,1,0,0:0:0:0:
16,200,62692,1,0,0:0:0:0:
40,128,62788,70,0,P|72:72|136:40,1,125.999992816925,8|0,0:0|0:0,0:0:0:0:
256,8,62979,2,0,L|256:136,1,125.999992816925,8|0,0:0|0:0,0:0:0:0:
256,376,63170,2,0,L|256:248,1,125.999992816925,8|0,0:0|0:0,0:0:0:0:
456,214,63361,2,0,P|351:313|496:304,1,377.999978450776,4|0,0:0|0:0,0:0:0:0:
496,80,63743,1,2,0:0:0:0:
16,80,63934,1,2,0:0:0:0:
40,320,64316,6,0,L|144:224,1,125.999992816925,8|0,0:0|0:0,0:0:0:0:
256,24,64507,2,0,L|256:160,1,125.999992816925,8|0,0:0|0:0,0:0:0:0:
472,320,64698,2,0,L|368:224,1,125.999992816925,8|0,0:0|0:0,0:0:0:0:
128,336,64890,2,0,B|192:384|256:236|256:236|320:384|384:336,1,377.999978450776,4|0,0:0|0:0,0:0:0:0:
256,376,65272,1,2,0:0:0:0:
257,151,65463,1,2,0:0:0:0:
