osu file format v14

[General]
AudioFilename: blue.mp3
AudioLeadIn: 0
PreviewTime: 126188
Countdown: 0
SampleSet: Soft
StackLeniency: 0.7
Mode: 0
LetterboxInBreaks: 1
WidescreenStoryboard: 0

[Editor]
DistanceSpacing: 1.2
BeatDivisor: 8
GridSize: 4
TimelineZoom: 2.1

[Metadata]
Title:blue
TitleUnicode:blue
Artist:Nanjo Yoshino
ArtistUnicode:南條愛乃
Creator:Hinsvar
Version:Normal
Source:
Tags:Katarumoa カタルモア mini-album Nanjolno Nanjou
BeatmapID:614931
BeatmapSetID:270275

[Difficulty]
HPDrainRate:3.5
CircleSize:3
OverallDifficulty:4
ApproachRate:4.5
SliderMultiplier:1.4
SliderTickRate:1

[Events]
//Background and Video events
0,0,"blue.jpg",0,0
//Break Periods
2,105885,116416
//Storyboard Layer 0 (Background)
//Storyboard Layer 1 (Fail)
//Storyboard Layer 2 (Pass)
//Storyboard Layer 3 (Foreground)
//Storyboard Sound Samples

[TimingPoints]
33462,504.201680672269,6,2,1,10,1,0
35983,-100,6,2,1,5,0,0
36507,504.201680672269,6,2,1,10,1,0
37011,487.804870605469,6,2,1,10,1,8
37500,504.201680672269,6,2,1,10,1,8
38984,504.201680672269,6,2,1,10,1,8
39507,504.201680672269,6,2,1,10,1,0
42494,504.201680672269,6,2,1,10,1,0
43510,504.201680672269,6,2,1,10,1,8
44034,500,6,2,1,10,1,8
45571,495.867767333984,6,2,1,10,1,0
46620,582.524291992188,6,2,1,10,1,8
48641,555.555555555556,6,2,1,10,1,8
49706,504.201680672269,6,2,1,10,1,8
51722,504.201680672269,6,2,1,10,1,0
54694,504.201680672269,6,2,1,10,1,0
54923,504.201680672269,6,2,1,10,1,8
55203,504.201680672269,6,2,1,10,1,8
55696,504.201680672269,6,2,1,10,1,8
56172,495.867768595041,6,2,1,10,1,8
57685,500,6,2,1,20,1,0
81185,-100,6,2,1,10,0,0
81685,-100,6,2,1,40,0,1
105685,-100,6,2,1,30,0,0
117226,500,6,2,1,20,1,8
117676,500,6,2,1,20,1,0
118426,552.995361328125,6,2,1,20,1,8
118702,474.308288574219,6,2,1,20,1,8
119176,500,6,2,0,10,1,8
120176,-100,6,2,0,5,0,8
120676,500,6,2,1,20,1,0
125241,631.578947368421,6,2,1,20,1,8
125872,-100,6,2,1,5,0,0
126682,500,6,2,1,20,1,0
129682,500,6,2,1,40,1,1
153682,-100,6,2,1,30,0,0
177682,-100,6,2,1,5,0,0

[Colours]
Combo1 : 71,224,209
Combo2 : 0,81,119
Combo3 : 49,171,230
Combo4 : 44,103,120

[HitObjects]
361,308,33462,6,0,P|393:253|367:164,1,140,2|2,0:0|0:0,0:0:0:0:
350,101,34218,2,0,L|433:91,2,70,0|2|0,0:0|0:0|0:0,0:0:0:0:
298,167,34974,6,0,P|179:218|143:96,1,280,2|0,0:0|0:0,0:0:0:0:
138,104,36507,6,0,L|64:116,2,70,2|0|2,0:0|0:0|0:0,0:0:0:0:
292,68,37500,1,2,0:0:0:0:
130,16,38004,1,2,0:0:0:0:
234,146,38508,1,2,0:0:0:0:
376,76,38984,1,2,0:0:0:0:
342,247,39507,6,0,L|269:260,1,70,2|0,0:0|0:0,0:0:0:0:
211,202,40011,2,0,P|141:175|82:221,2,140,2|2|2,0:0|0:0|0:0,0:0:0:0:
211,202,42494,6,0,L|227:124,2,70,2|0|2,0:0|0:0|0:0,0:0:0:0:
309,337,43502,1,2,0:0:0:0:
443,221,44034,2,0,P|454:155|426:76,2,140,2|2|2,0:0|0:0|0:0,0:0:0:0:
277,288,45571,6,0,L|205:298,2,70,2|0|2,0:0|0:0|0:0,0:0:0:0:
325,219,46314,1,0,0:0:0:0:
282,118,46620,6,0,P|205:93|152:117,1,140,2|2,0:0|0:0,0:0:0:0:
155,116,48641,6,0,L|135:208,2,70,2|0|2,0:0|0:0|0:0,0:0:0:0:
312,53,49706,2,0,P|374:43|446:94,1,140,2|0,0:0|0:0,0:0:0:0:
480,243,50714,1,2,0:0:0:0:
351,350,51218,1,2,0:0:0:0:
228,235,51722,6,0,L|220:164,2,70,2|0|2,0:0|0:0|0:0,0:0:0:0:
92,333,52730,1,2,0:0:0:0:
47,171,53234,1,2,0:0:0:0:
47,171,54694,5,2,0:0:0:0:
198,94,55203,1,2,0:0:0:0:
181,257,55696,1,2,0:0:0:0:
325,184,56172,2,0,P|390:172|468:194,2,140,2|2|2,0:0|0:0|0:0,0:0:0:0:
188,316,57685,6,0,L|112:325,2,70,2|0|2,0:0|0:0|0:0,0:0:0:0:
320,211,58685,1,2,0:0:0:0:
162,153,59185,1,0,0:0:0:0:
162,153,60685,6,0,L|171:74,2,70,0|0|2,0:0|0:0|0:0,0:0:0:0:
277,275,61685,1,0,0:0:0:0:
356,127,62185,1,2,0:0:0:0:
457,261,62685,1,0,0:0:0:0:
457,261,63685,6,0,L|380:274,1,70,2|0,0:0|0:0,0:0:0:0:
335,338,64185,2,0,P|304:288|329:208,2,140,2|0|2,0:0|0:0|0:0,0:0:0:0:
335,338,66685,6,0,L|257:343,1,70,2|0,0:0|0:0,0:0:0:0:
266,258,67185,2,0,L|188:263,1,70,2|0,0:0|0:0,0:0:0:0:
207,179,67685,2,0,L|129:184,2,70,2|0|2,0:0|0:0|0:0,0:0:0:0:
207,179,69685,6,0,P|216:120|281:59,2,140,2|2|2,0:0|0:0|0:0,0:0:0:0:
275,332,71185,1,2,0:0:0:0:
275,332,72685,6,0,L|357:322,1,70,2|0,0:0|0:0,0:0:0:0:
355,239,73185,2,0,L|273:229,1,70,2|0,0:0|0:0,0:0:0:0:
276,146,73685,2,0,L|358:136,1,70,2|0,0:0|0:0,0:0:0:0:
352,53,74185,1,2,0:0:0:0:
473,168,74685,1,2,0:0:0:0:
473,168,75685,6,0,P|490:235|461:316,1,140,2|2,0:0|0:0,0:0:0:0:
391,329,76435,1,0,0:0:0:0:
311,300,76685,2,0,P|247:280|168:314,2,140,2|2|2,0:0|0:0|0:0,0:0:0:0:
311,300,78685,6,0,L|329:228,1,70,2|0,0:0|0:0,0:0:0:0:
243,235,79185,2,0,L|228:162,1,70,2|0,0:0|0:0,0:0:0:0:
154,218,79685,2,0,L|110:162,1,70,2|0,0:0|0:0,0:0:0:0:
67,82,80185,2,0,P|71:215|3:355,1,280,2|0,0:0|0:0,0:0:0:0:
10,346,81685,6,0,L|92:355,2,70,6|0|2,0:0|0:0|0:0,0:0:0:0:
133,231,82685,1,2,0:0:0:0:
278,314,83185,2,0,P|343:275|355:207,2,140,0|0|0,0:0|0:0|0:0,0:0:0:0:
171,184,84685,6,0,L|161:113,1,70,2|0,0:0|0:0,0:0:0:0:
245,118,85185,2,0,L|253:41,1,70,2|0,0:0|0:0,0:0:0:0:
332,22,85685,1,2,0:0:0:0:
442,148,86185,2,0,L|425:291,2,140,2|2|2,0:0|0:0|0:0,0:0:0:0:
307,46,87685,6,0,L|235:54,2,70,2|0|2,0:0|0:0|0:0,0:0:0:0:
346,120,88435,2,0,L|418:128,2,70,0|2|0,0:0|0:0|0:0,0:0:0:0:
286,179,89185,2,0,B|279:218|279:218|295:275|295:275|285:332,2,140,2|0|0,0:0|0:0|0:0,0:0:0:0:
188,42,90685,6,0,L|108:55,2,70,2|0|2,0:0|0:0|0:0,0:0:0:0:
268,68,91435,2,0,P|303:73|344:61,2,70,0|2|0,0:0|0:0|0:0,0:0:0:0:
206,126,92185,2,0,B|194:179|194:179|218:218|203:274,2,140,2|0|0,0:0|0:0|0:0,0:0:0:0:
86,244,93685,6,0,P|50:254|14:240,1,70,6|0,0:0|0:0,0:0:0:0:
57,169,94185,2,0,P|70:105|48:29,1,140,2|2,0:0|0:0,0:0:0:0:
206,98,95185,2,0,P|273:99|333:56,2,140,0|0|0,0:0|0:0|0:0,0:0:0:0:
305,233,96685,6,0,P|313:275|308:313,1,70,2|0,0:0|0:0,0:0:0:0:
230,276,97185,2,0,P|217:309|190:339,1,70,2|0,0:0|0:0,0:0:0:0:
146,266,97685,2,0,P|86:261|30:195,2,140,2|2|2,0:0|0:0|0:0,0:0:0:0:
293,185,99185,2,0,P|327:179|375:192,1,70,0|0,0:0|0:0,0:0:0:0:
417,248,99685,6,0,L|432:324,2,70,0|2|0,0:0|0:0|0:0,0:0:0:0:
446,167,100435,2,0,L|461:91,2,70,0|2|0,0:0|0:0|0:0,0:0:0:0:
362,186,101185,2,0,B|318:183|318:183|269:154|269:154|211:152,2,140
464,52,102685,5,2,0:0:0:0:
256,192,103185,12,2,105685,0:0:0:0:
123,38,117676,6,0,P|98:104|131:166,1,140,2|0,0:0|0:0,0:0:0:0:
207,198,118426,1,0,0:0:0:0:
275,127,118702,1,2,0:0:0:0:
275,127,119176,2,0,P|280:261|155:278,1,280,2|0,0:0|0:0,0:0:0:0:
159,280,120676,6,0,L|142:190,2,70,2|0|2,0:0|0:0|0:0,0:0:0:0:
309,354,121676,1,2,0:0:0:0:
391,206,122176,2,0,L|405:129,1,70,2|0,0:0|0:0,0:0:0:0:
319,133,122676,2,0,L|302:66,1,70,2|0,0:0|0:0,0:0:0:0:
223,98,123176,1,2,0:0:0:0:
101,214,123676,6,0,L|27:204,2,70,2|0|2,0:0|0:0|0:0,0:0:0:0:
147,283,124426,2,0,L|81:318,2,70,0|2|0,0:0|0:0|0:0,0:0:0:0:
252,235,125241,6,0,P|321:228|388:260,1,140,2|0,0:0|0:0,0:0:0:0:
384,257,126682,6,0,L|399:178,1,70,2|0,0:0|0:0,0:0:0:0:
313,178,127182,2,0,L|304:100,1,70,2|0,0:0|0:0,0:0:0:0:
221,113,127682,2,0,L|196:48,1,70,2|0,0:0|0:0,0:0:0:0:
111,43,128182,2,0,B|99:86|99:86|101:136|101:136|85:186,2,140,2|2|2,0:0|0:0|0:0,0:0:0:0:
277,22,129682,6,0,L|357:35,1,70,6|0,0:0|0:0,0:0:0:0:
388,106,130182,2,0,P|407:171|391:245,2,140,2|2|0,0:0|0:0|0:0,0:0:0:0:
238,181,131682,2,0,L|157:196,2,70,0|0|2,0:0|0:0|0:0,0:0:0:0:
356,303,132682,6,0,L|437:318,2,70,2|0|2,0:0|0:0|0:0,0:0:0:0:
200,239,133682,2,0,P|191:205|199:167,1,70,2|0,0:0|0:0,0:0:0:0:
127,124,134182,2,0,P|153:97|198:82,1,70,2|0,0:0|0:0,0:0:0:0:
260,116,134682,2,0,P|327:122|384:79,1,140,2|2,0:0|0:0,0:0:0:0:
473,222,135682,6,0,L|486:299,1,70,0|2,0:0|0:0,0:0:0:0:
400,294,136182,2,0,L|391:363,1,70
306,366,136682,2,0,L|283:218,2,140,2|0|2,0:0|0:0|0:0,0:0:0:0:
140,335,138182,1,0,0:0:0:0:
67,183,138682,6,0,P|132:154|204:175,2,140,2|2|2,0:0|0:0|0:0,0:0:0:0:
34,260,139932,1,0,0:0:0:0:
76,332,140182,2,0,L|150:341,2,70,2|0|0,0:0|0:0|0:0,0:0:0:0:
200,217,141182,1,0,0:0:0:0:
314,341,141682,6,0,P|359:297|371:215,2,140,6|2|2,0:0|0:0|0:0,0:0:0:0:
219,201,143182,2,0,P|174:245|162:327,2,140
219,201,144682,6,0,L|210:120,1,70,2|0,0:0|0:0,0:0:0:0:
295,138,145182,2,0,L|305:66,1,70,2|0,0:0|0:0,0:0:0:0:
383,39,145682,2,0,P|460:43|506:82,1,140,2|2,0:0|0:0,0:0:0:0:
431,232,146682,2,0,B|387:238|387:238|338:218|338:218|280:224,1,140,2|2,0:0|0:0,0:0:0:0:
155,315,147682,6,0,L|84:302,2,70,0|0|2,0:0|0:0|0:0,0:0:0:0:
156,230,148432,2,0,L|90:191,2,70,0|2|0,0:0|0:0|0:0,0:0:0:0:
221,176,149182,2,0,P|284:153|357:182,2,140,2|2|0,0:0|0:0|0:0,0:0:0:0:
66,110,150682,6,0,L|55:38,2,70,2|0|2,0:0|0:0|0:0,0:0:0:0:
202,208,151682,2,0,B|230:151|230:151|216:67,1,140,2|2,0:0|0:0,0:0:0:0:
101,197,152682,2,0,B|73:254|73:254|87:338,1,140,0|2,0:0|0:0,0:0:0:0:
251,300,153682,6,0,P|319:283|383:323,2,140,2|2|0,0:0|0:0|0:0,0:0:0:0:
339,156,155182,2,0,L|362:12,2,140,0|2|0,0:0|0:0|0:0,0:0:0:0:
271,206,156432,1,0,0:0:0:0:
208,150,156682,6,0,P|141:130|71:167,2,140,2|0|2,0:0|0:0|0:0,0:0:0:0:
286,299,158182,2,0,P|353:319|423:282,1,140,2|0,0:0|0:0,0:0:0:0:
432,209,158932,2,0,L|424:133,1,70,0|2,0:0|0:0,0:0:0:0:
286,43,159682,6,0,B|245:39|245:39|191:55|191:55|147:53,2,140,2|2|2,0:0|0:0|0:0,0:0:0:0:
393,172,161182,1,2,0:0:0:0:
414,253,161432,1,0,0:0:0:0:
361,318,161682,2,0,P|297:339|229:306,1,140,2|0,0:0|0:0,0:0:0:0:
110,197,162682,6,0,L|90:341,2,140,2|0|0,0:0|0:0|0:0,0:0:0:0:
186,47,164182,2,0,P|126:16|53:44,2,140,2|0|2,0:0|0:0|0:0,0:0:0:0:
288,180,165682,6,0,L|363:165,2,70,2|0|2,0:0|0:0|0:0,0:0:0:0:
175,304,166682,1,2,0:0:0:0:
127,142,167182,1,0,0:0:0:0:
15,267,167682,1,2,0:0:0:0:
175,304,168182,2,0,P|203:298|241:268,1,70
292,211,168682,6,0,P|302:142|274:68,2,140,2|2|2,0:0|0:0|0:0,0:0:0:0:
124,208,170182,2,0,P|114:139|142:65,2,140,2|2|2,0:0|0:0|0:0,0:0:0:0:
233,338,171682,6,0,P|300:351|368:312,1,140,2|0,0:0|0:0,0:0:0:0:
398,243,172432,2,0,P|422:223|466:214,2,70,0|2|0,0:0|0:0|0:0,0:0:0:0:
313,245,173182,2,0,P|276:188|287:107,2,140,2|2|2,0:0|0:0|0:0,0:0:0:0:
165,325,174682,6,0,L|88:305,2,70,2|0|2,0:0|0:0|0:0,0:0:0:0:
238,173,175682,2,0,P|303:150|373:177,1,140
431,327,176682,2,0,B|386:380|302:346|302:346|211:305|166:334,1,280
