osu file format v14

[General]
AudioFilename: blue.mp3
AudioLeadIn: 0
PreviewTime: 126188
Countdown: 0
SampleSet: Soft
StackLeniency: 0.7
Mode: 0
LetterboxInBreaks: 1
WidescreenStoryboard: 0

[Editor]
DistanceSpacing: 1.3
BeatDivisor: 4
GridSize: 4
TimelineZoom: 1.2

[Metadata]
Title:blue
TitleUnicode:blue
Artist:Nanjo Yoshino
ArtistUnicode:南條愛乃
Creator:Hinsvar
Version:Hard
Source:
Tags:Katarumoa カタルモア mini-album Nanjolno Nanjou
BeatmapID:614929
BeatmapSetID:270275

[Difficulty]
HPDrainRate:5
CircleSize:4
OverallDifficulty:5.5
ApproachRate:6.5
SliderMultiplier:1.8
SliderTickRate:1

[Events]
//Background and Video events
0,0,"blue.jpg",0,0
//Break Periods
2,105885,116701
//Storyboard Layer 0 (Background)
//Storyboard Layer 1 (Fail)
//Storyboard Layer 2 (Pass)
//Storyboard Layer 3 (Foreground)
//Storyboard Sound Samples

[TimingPoints]
33462,504.201680672269,6,2,1,10,1,0
33462,-200,6,2,1,10,0,0
35983,-200,6,2,1,5,0,0
36507,504.201680672269,6,2,1,10,1,0
36507,-200,6,2,1,10,0,0
37011,487.804870605469,6,2,1,10,1,8
37011,-200,6,2,1,10,0,0
37500,504.201680672269,6,2,1,10,1,8
37500,-200,6,2,1,10,0,0
38984,504.201680672269,6,2,1,10,1,8
38984,-200,6,2,1,10,0,0
39507,504.201680672269,6,2,1,10,1,0
39507,-200,6,2,1,10,0,0
42028,-200,6,2,1,5,0,0
42494,504.201680672269,6,2,1,10,1,0
42494,-200,6,2,1,10,0,0
43510,504.201680672269,6,2,1,10,1,8
43510,-200,6,2,1,10,0,0
44034,500,6,2,1,10,1,8
44034,-200,6,2,1,10,0,0
45571,495.867767333984,6,2,1,10,1,0
45571,-200,6,2,1,10,0,0
46620,582.524291992188,6,2,1,10,1,8
46620,-200,6,2,1,10,0,0
48641,555.555555555556,6,2,1,10,1,8
48641,-200,6,2,1,10,0,0
49706,504.201680672269,6,2,1,10,1,8
49706,-200,6,2,1,10,0,0
51722,504.201680672269,6,2,1,10,1,0
51722,-200,6,2,1,10,0,0
54243,-200,6,2,1,5,0,0
54694,504.201680672269,6,2,1,10,1,0
54694,-200,6,2,1,10,0,0
54923,504.201680672269,6,2,1,10,1,8
54923,-200,6,2,1,10,0,0
55203,504.201680672269,6,2,1,10,1,8
55203,-200,6,2,1,10,0,0
55696,504.201680672269,6,2,1,10,1,8
55696,-200,6,2,1,10,0,0
56172,495.867768595041,6,2,1,10,1,8
56172,-200,6,2,1,10,0,0
57685,500,6,2,1,20,1,0
57685,-133.333333333333,6,2,1,20,0,0
81185,-133.333333333333,6,2,1,10,0,0
81685,-100,6,2,1,40,0,1
105685,-100,6,2,1,30,0,0
117226,500,6,2,1,20,1,8
117676,500,6,2,1,20,1,0
117676,-133.333333333333,6,2,1,20,0,0
118426,552.995361328125,6,2,1,20,1,8
118426,-133.333333333333,6,2,1,20,0,0
118702,474.308288574219,6,2,1,20,1,8
118702,-133.333333333333,6,2,1,20,0,0
119176,500,6,2,0,10,1,8
119176,-200,6,2,0,10,0,0
120176,-200,6,2,0,5,0,0
120676,500,6,2,1,20,1,0
120676,-133.333333333333,6,2,1,20,0,0
125241,631.578947368421,6,2,1,20,1,8
125241,-200,6,2,1,20,0,0
125872,-200,6,2,1,5,0,0
126682,500,6,2,1,20,1,0
126682,-133.333333333333,6,2,1,20,0,0
129682,500,6,2,1,40,1,1
153682,-100,6,2,1,30,0,0
176682,-133.333333333333,6,2,1,30,0,0
177682,-133.333333333333,6,2,1,5,0,0

[Colours]
Combo1 : 71,224,209
Combo2 : 0,81,119
Combo3 : 49,171,230
Combo4 : 44,103,120

[HitObjects]
50,64,33462,6,0,L|41:120,1,45,2|0,0:0|0:0,0:0:0:0:
109,168,33966,2,0,L|100:224,1,45,2|0,0:0|0:0,0:0:0:0:
174,265,34470,2,0,L|165:321,1,45,2|0,0:0|0:0,0:0:0:0:
242,357,34974,2,0,B|281:374|329:350|329:350|378:331|432:353,1,180,2|0,0:0|0:0,0:0:0:0:
416,347,36507,5,2,0:0:0:0:
499,312,36759,1,0,0:0:0:0:
424,261,37011,1,2,0:0:0:0:
252,314,37500,5,2,0:0:0:0:
346,218,38004,1,0,0:0:0:0:
193,162,38508,1,2,0:0:0:0:
355,75,38984,1,2,0:0:0:0:
214,233,39507,6,0,P|204:207|207:177,1,45,2|0,0:0|0:0,0:0:0:0:
249,112,40012,1,2,0:0:0:0:
93,199,40516,1,2,0:0:0:0:
196,346,41020,2,0,B|253:355|281:326|281:326|318:354|370:339,1,180,2|0,0:0|0:0,0:0:0:0:
365,340,42494,6,0,L|373:286,1,45,2|0,0:0|0:0,0:0:0:0:
383,206,42998,1,2,0:0:0:0:
228,298,43502,1,2,0:0:0:0:
178,112,44034,2,0,L|78:104,2,90,2|2|2,0:0|0:0|0:0,0:0:0:0:
356,32,45571,6,0,L|342:84,1,45,2|0,0:0|0:0,0:0:0:0:
420,124,46066,2,0,L|392:162,1,45,2|0,0:0|0:0,0:0:0:0:
449,244,46620,6,0,L|359:271,1,90,2|2,0:0|0:0,0:0:0:0:
270,268,48641,6,0,L|206:252,2,45,2|0|2,0:0|0:0|0:0,0:0:0:0:
360,281,49706,1,2,0:0:0:0:
412,208,50210,1,0,0:0:0:0:
381,123,50714,1,2,0:0:0:0:
300,83,51218,1,2,0:0:0:0:
210,92,51722,6,0,L|165:105,2,45,2|0|2,0:0|0:0|0:0,0:0:0:0:
260,166,52731,1,2,0:0:0:0:
242,254,53235,2,0,P|169:276|174:199,1,180,2|0,0:0|0:0,0:0:0:0:
297,101,54694,5,2,0:0:0:0:
347,165,54923,1,0,0:0:0:0:
342,269,55203,5,2,0:0:0:0:
338,277,55696,1,2,0:0:0:0:
334,285,56172,2,0,L|243:275,1,90,2|2,0:0|0:0,0:0:0:0:
88,338,57163,1,2,0:0:0:0:
88,338,57685,6,0,L|76:264,1,67.5000025749208,2|0,0:0|0:0,0:0:0:0:
162,250,58185,2,0,L|171:172,1,67.5000025749208,2|0,0:0|0:0,0:0:0:0:
255,162,58685,1,2,0:0:0:0:
91,96,59185,1,0,0:0:0:0:
91,96,60685,6,0,L|165:80,1,67.5000025749208,2|0,0:0|0:0,0:0:0:0:
208,152,61185,2,0,L|277:160,1,67.5000025749208,2|0,0:0|0:0,0:0:0:0:
337,221,61685,1,2,0:0:0:0:
166,262,62185,1,2,0:0:0:0:
271,346,62685,1,0,0:0:0:0:
271,346,63685,6,0,L|260:276,1,67.5000025749208,2|0,0:0|0:0,0:0:0:0:
272,192,64185,2,0,P|327:168|410:187,1,135.000005149842,2|2,0:0|0:0,0:0:0:0:
357,350,65185,1,2,0:0:0:0:
357,350,66685,6,0,L|348:279,1,67.5000025749208,2|0,0:0|0:0,0:0:0:0:
254,216,67185,2,0,L|245:287,1,67.5000025749208,2|0,0:0|0:0,0:0:0:0:
150,346,67685,2,0,L|141:275,1,67.5000025749208,2|0,0:0|0:0,0:0:0:0:
133,191,68185,1,2,0:0:0:0:
133,191,69685,6,0,L|143:121,1,67.5000025749208,2|0,0:0|0:0,0:0:0:0:
229,136,70185,2,0,L|260:65,1,67.5000025749208,2|0,0:0|0:0,0:0:0:0:
343,79,70685,1,2,0:0:0:0:
462,207,71185,1,2,0:0:0:0:
462,207,72685,6,0,P|469:239|460:276,1,67.5000025749208,2|0,0:0|0:0,0:0:0:0:
378,243,73185,2,0,P|371:211|380:174,1,67.5000025749208,2|0,0:0|0:0,0:0:0:0:
443,118,73685,1,2,0:0:0:0:
382,54,73935,1,0,0:0:0:0:
308,101,74185,2,0,P|243:118|173:90,1,135.000005149842,2|2,0:0|0:0,0:0:0:0:
180,96,75685,6,0,L|158:238,1,135.000005149842,2|2,0:0|0:0,0:0:0:0:
144,316,76435,1,0,0:0:0:0:
159,229,76685,2,0,P|234:224|291:252,1,135.000005149842,2|2,0:0|0:0,0:0:0:0:
393,331,77685,1,2,0:0:0:0:
393,331,78685,6,0,L|372:263,1,67.5000025749208,2|0,0:0|0:0,0:0:0:0:
284,266,79185,2,0,L|299:196,1,67.5000025749208,2|0,0:0|0:0,0:0:0:0:
220,161,79685,2,0,L|268:108,1,67.5000025749208,2|0,0:0|0:0,0:0:0:0:
335,58,80185,2,0,B|385:104|464:104|464:104|389:138|379:200,1,270.000010299683,2|0,0:0|0:0,0:0:0:0:
163,286,81685,6,0,P|151:241|171:190,1,90,6|0,0:0|0:0,0:0:0:0:
252,187,82185,2,0,P|264:232|244:283,1,90,2|0,0:0|0:0,0:0:0:0:
273,359,82685,2,0,P|342:362|407:281,1,180,2|0,0:0|0:0,0:0:0:0:
252,187,83685,2,0,P|210:118|253:35,1,180
251,36,84685,6,0,L|161:24,1,90,2|0,0:0|0:0,0:0:0:0:
148,112,85185,2,0,L|64:146,1,90,2|0,0:0|0:0,0:0:0:0:
103,227,85685,2,0,L|47:298,1,90,2|0,0:0|0:0,0:0:0:0:
115,358,86185,2,0,P|189:317|282:357,1,180,2|2,0:0|0:0,0:0:0:0:
331,177,87185,1,2,0:0:0:0:
266,114,87435,1,0,0:0:0:0:
190,166,87685,5,2,0:0:0:0:
190,166,87935,1,0,0:0:0:0:
254,229,88185,2,0,P|275:191|273:142,1,90,2|0,0:0|0:0,0:0:0:0:
163,254,88685,2,0,P|185:291|228:313,1,90,2|0,0:0|0:0,0:0:0:0:
190,166,89185,2,0,P|104:153|35:218,2,180,2|0|0,0:0|0:0|0:0,0:0:0:0:
382,32,90685,5,2,0:0:0:0:
382,32,91185,2,0,L|404:122,1,90,2|0,0:0|0:0,0:0:0:0:
476,171,91685,2,0,L|458:271,1,90,2|0,0:0|0:0,0:0:0:0:
375,293,92185,1,2,0:0:0:0:
195,280,92685,1,0,0:0:0:0:
291,128,93185,1,0,0:0:0:0:
436,355,93685,6,0,L|448:264,1,90,6|0,0:0|0:0,0:0:0:0:
365,227,94185,2,0,L|353:318,1,90,2|0,0:0|0:0,0:0:0:0:
269,351,94685,2,0,L|250:168,1,180,2|0,0:0|0:0,0:0:0:0:
93,260,95685,2,0,L|113:78,1,180
112,81,96685,5,2,0:0:0:0:
192,41,96935,1,0,0:0:0:0:
276,70,97185,1,2,0:0:0:0:
358,33,97435,1,0,0:0:0:0:
436,79,97685,2,0,L|464:265,1,180,2|2,0:0|0:0,0:0:0:0:
462,256,98685,2,0,P|428:251|376:281,1,90,2|0,0:0|0:0,0:0:0:0:
307,327,99185,2,0,L|293:228,1,90,0|0,0:0|0:0,0:0:0:0:
277,149,99685,5,0,0:0:0:0:
214,213,99935,1,2,0:0:0:0:
191,125,100185,1,0,0:0:0:0:
128,189,100435,1,0,0:0:0:0:
110,99,100685,2,0,P|172:42|259:78,1,180,2|0,0:0|0:0,0:0:0:0:
347,225,101685,1,0,0:0:0:0:
356,45,102185,1,0,0:0:0:0:
248,189,102685,5,2,0:0:0:0:
256,192,103185,12,2,105685,0:0:0:0:
155,23,117676,6,0,L|167:96,1,67.5000025749208,2|0,0:0|0:0,0:0:0:0:
250,111,118176,2,0,L|230:188,1,67.5000025749208,2|0,0:0|0:0,0:0:0:0:
198,293,118702,1,2,0:0:0:0:
198,293,119176,6,0,P|105:328|58:271,1,180,2|0,0:0|0:0,0:0:0:0:
59,276,120676,6,0,L|46:201,1,67.5,2|0,0:0|0:0,0:0:0:0:
130,179,121176,2,0,L|139:106,1,67.5000025749208,2|0,0:0|0:0,0:0:0:0:
225,113,121676,2,0,L|253:52,1,67.5000025749208,2|0,0:0|0:0,0:0:0:0:
339,33,122176,5,2,0:0:0:0:
339,33,122426,1,0,0:0:0:0:
404,91,122676,1,2,0:0:0:0:
404,91,122926,1,0,0:0:0:0:
433,179,123176,1,2,0:0:0:0:
433,179,123676,6,0,L|504:193,2,67.5000025749208,2|0|2,0:0|0:0|0:0,0:0:0:0:
392,257,124426,2,0,L|321:271,2,67.5000025749208,0|2|0,0:0|0:0|0:0,0:0:0:0:
362,144,125241,6,0,P|321:129|265:141,1,90,2|0,0:0|0:0,0:0:0:0:
277,136,126682,6,0,L|271:61,2,67.5000025749208,2|0|2,0:0|0:0|0:0,0:0:0:0:
225,206,127432,2,0,L|219:281,2,67.5000025749208,0|2|0,0:0|0:0|0:0,0:0:0:0:
148,162,128182,5,2,0:0:0:0:
148,162,128432,1,0,0:0:0:0:
225,116,128682,1,2,0:0:0:0:
225,116,128932,1,0,0:0:0:0:
225,206,129182,1,2,0:0:0:0:
225,206,129432,1,0,0:0:0:0:
356,146,129682,6,0,P|401:137|449:158,1,90,6|0,0:0|0:0,0:0:0:0:
484,231,130182,2,0,B|470:187|496:145|496:145|521:104|501:53,2,180,2|2|0,0:0|0:0|0:0,0:0:0:0:
337,341,131682,2,0,L|241:327,2,90,0|0|2,0:0|0:0|0:0,0:0:0:0:
383,264,132432,1,0,0:0:0:0:
383,264,132682,6,0,L|321:198,1,90,2|0,0:0|0:0,0:0:0:0:
231,192,133182,2,0,P|266:129|371:129,2,180,2|2|2,0:0|0:0|0:0,0:0:0:0:
261,277,134432,1,0,0:0:0:0:
172,259,134682,2,0,B|131:242|85:258|85:258|41:271|-6:245,1,180,2|2,0:0|0:0,0:0:0:0:
105,102,135682,6,0,L|97:9,2,90,0|2|0,0:0|0:0|0:0,0:0:0:0:
175,157,136432,1,0,0:0:0:0:
242,97,136682,2,0,P|308:86|378:163,1,180,2|0,0:0|0:0,0:0:0:0:
301,326,137682,2,0,P|243:280|282:195,1,180,2|0,0:0|0:0,0:0:0:0:
361,162,138432,1,0,0:0:0:0:
361,162,138682,6,0,L|171:151,2,180,2|2|2,0:0|0:0|0:0,0:0:0:0:
426,100,139932,1,0,0:0:0:0:
452,186,140182,2,0,P|459:233|439:284,1,90,2|0,0:0|0:0,0:0:0:0:
356,280,140682,2,0,P|266:261|188:304,1,180,0|0,0:0|0:0,0:0:0:0:
46,193,141682,6,0,P|23:126|92:41,1,180,6|2,0:0|0:0,0:0:0:0:
258,84,142682,2,0,P|281:151|212:236,1,180,2|0,0:0|0:0,0:0:0:0:
177,58,143682,2,0,P|241:3|325:36,1,180
415,187,144682,6,0,L|398:282,1,90,2|0,0:0|0:0,0:0:0:0:
317,237,145182,2,0,L|277:324,1,90,2|0,0:0|0:0,0:0:0:0:
190,332,145682,2,0,P|137:266|163:173,1,180,2|2,0:0|0:0,0:0:0:0:
322,333,146682,2,0,P|375:267|349:174,1,180,2|2,0:0|0:0,0:0:0:0:
174,175,147682,6,0,P|149:210|149:268,1,90
180,347,148182,2,0,B|219:375|265:351|265:351|312:330|352:349,2,180,2|2|0,0:0|0:0|0:0,0:0:0:0:
164,167,149682,2,0,P|201:187|216:242,1,90,2|0,0:0|0:0,0:0:0:0:
80,185,150182,2,0,P|78:142|118:102,1,90
131,249,150682,6,0,P|95:271|40:256,1,90,2|0,0:0|0:0,0:0:0:0:
214,229,151182,2,0,P|250:248|266:304,1,90,2|0,0:0|0:0,0:0:0:0:
158,166,151682,2,0,B|125:124|152:85|152:85|124:43|162:-3,2,180,2|2|0,0:0|0:0|0:0,0:0:0:0:
326,91,153182,1,2,0:0:0:0:
198,218,153682,6,0,B|151:227|151:227|69:192|69:192|18:199,2,180,2|2|0,0:0|0:0|0:0,0:0:0:0:
350,122,155182,2,0,P|424:154|381:217,2,180,0|2|0,0:0|0:0|0:0,0:0:0:0:
172,275,156682,5,2,0:0:0:0:
259,117,157182,1,0,0:0:0:0:
340,275,157682,1,0,0:0:0:0:
184,74,158182,2,0,P|259:32|336:75,2,180,2|2|2,0:0|0:0|0:0,0:0:0:0:
131,249,159682,6,0,L|41:265,2,90,2|0|2,0:0|0:0|0:0,0:0:0:0:
289,335,160682,2,0,P|349:279|331:181,1,180,2|0,0:0|0:0,0:0:0:0:
256,155,161432,1,0,0:0:0:0:
256,155,161682,2,0,B|296:149|332:169|332:169|378:134|441:145,1,180,2|0,0:0|0:0,0:0:0:0:
324,353,162682,6,0,P|229:343|182:263,1,180,0|2,0:0|0:0,0:0:0:0:
273,121,163682,2,0,P|368:131|415:211,1,180,2|2,0:0|0:0,0:0:0:0:
268,303,164682,1,0,0:0:0:0:
227,127,165182,1,2,0:0:0:0:
92,318,165682,6,0,L|-2:330,2,90,2|0|2,0:0|0:0|0:0,0:0:0:0:
262,375,166682,1,2,0:0:0:0:
301,199,167182,1,0,0:0:0:0:
408,343,167682,2,0,P|465:295|475:190,1,180,2|2,0:0|0:0,0:0:0:0:
414,129,168432,1,0,0:0:0:0:
336,83,168682,6,0,L|239:97,2,90,2|0|2,0:0|0:0|0:0,0:0:0:0:
337,172,169432,1,0,0:0:0:0:
337,172,169682,1,2,0:0:0:0:
168,236,170182,2,0,P|127:168|149:65,2,180,2|2|2,0:0|0:0|0:0,0:0:0:0:
236,294,171432,1,0,0:0:0:0:
303,233,171682,6,0,P|342:219|396:232,2,90,2|0|2,0:0|0:0|0:0,0:0:0:0:
307,322,172432,1,0,0:0:0:0:
307,322,172682,2,0,B|310:278|310:278|295:186|295:186|300:140,2,180,2|2|2,0:0|0:0|0:0,0:0:0:0:
232,373,173932,1,0,0:0:0:0:
148,339,174182,1,2,0:0:0:0:
62,180,174682,6,0,L|48:92,2,90,2|0|2,0:0|0:0|0:0,0:0:0:0:
213,277,175682,2,0,L|242:92,1,180
388,204,176682,6,0,P|502:161|432:65,1,270.000010299683
