osu file format v14

[General]
AudioFilename: blue.mp3
AudioLeadIn: 0
PreviewTime: 126188
Countdown: 0
SampleSet: Soft
StackLeniency: 0.7
Mode: 0
LetterboxInBreaks: 1
WidescreenStoryboard: 0

[Editor]
DistanceSpacing: 1.5
BeatDivisor: 4
GridSize: 4
TimelineZoom: 1.3

[Metadata]
Title:blue
TitleUnicode:blue
Artist:Nanjo Yoshino
ArtistUnicode:南條愛乃
Creator:Hinsvar
Version:Easy
Source:
Tags:Katarumoa カタルモア mini-album Nanjolno Nanjou
BeatmapID:614927
BeatmapSetID:270275

[Difficulty]
HPDrainRate:2
CircleSize:3
OverallDifficulty:2
ApproachRate:3
SliderMultiplier:1
SliderTickRate:1

[Events]
//Background and Video events
0,0,"blue.jpg",0,0
//Break Periods
2,105885,116236
//Storyboard Layer 0 (Background)
//Storyboard Layer 1 (Fail)
//Storyboard Layer 2 (Pass)
//Storyboard Layer 3 (Foreground)
//Storyboard Sound Samples

[TimingPoints]
33462,504.201680672269,6,2,1,10,1,0
36507,504.201680672269,6,2,1,10,1,0
37011,487.804870605469,6,2,1,10,1,8
37500,504.201680672269,6,2,1,10,1,8
38984,504.201680672269,6,2,1,10,1,8
39507,504.201680672269,6,2,1,10,1,0
42494,504.201680672269,6,2,1,10,1,0
43510,504.201680672269,6,2,1,10,1,8
44034,500,6,2,1,10,1,8
45571,495.867767333984,6,2,1,10,1,0
46620,582.524291992188,6,2,1,10,1,8
48641,555.555555555556,6,2,1,10,1,8
49706,504.201680672269,6,2,1,10,1,8
51722,504.201680672269,6,2,1,10,1,0
54694,504.201680672269,6,2,1,10,1,0
54923,504.201680672269,6,2,1,10,1,8
55203,504.201680672269,6,2,1,10,1,8
55696,504.201680672269,6,2,1,10,1,8
56172,495.867768595041,6,2,1,10,1,8
57685,500,6,2,1,20,1,0
81685,-100,6,2,1,40,0,1
105685,-100,6,2,1,30,0,0
117226,500,6,2,1,20,1,8
117676,500,6,2,1,20,1,0
118426,552.995361328125,6,2,1,20,1,8
118702,474.308288574219,6,2,1,20,1,8
119176,500,6,2,0,10,1,8
120676,500,6,2,1,20,1,0
125241,631.578947368421,6,2,1,20,1,8
125872,-100,6,2,1,5,0,0
126682,500,6,2,1,20,1,0
129682,500,6,2,1,40,1,1
153682,-100,6,2,1,30,0,0
177682,-100,6,2,1,5,0,0

[Colours]
Combo1 : 71,224,209
Combo2 : 0,81,119
Combo3 : 49,171,230
Combo4 : 44,103,120

[HitObjects]
88,133,33462,6,0,P|112:222|167:169,1,200,2|2,0:0|0:0,0:0:0:0:
179,75,34974,1,2,0:0:0:0:
179,75,36507,5,2,0:0:0:0:
276,41,37011,1,2,0:0:0:0:
376,54,37500,1,2,0:0:0:0:
456,111,38004,2,0,P|467:160|452:212,1,100,0|2,0:0|0:0,0:0:0:0:
395,281,38984,1,2,0:0:0:0:
310,227,39507,6,0,B|262:215|262:215|209:233,1,100,2|2,0:0|0:0,0:0:0:0:
116,209,40515,1,2,0:0:0:0:
91,111,41019,1,0,0:0:0:0:
91,111,42494,6,0,P|133:78|244:145,1,200,2|2,0:0|0:0,0:0:0:0:
251,248,44034,2,0,L|238:359,2,100,2|2|2,0:0|0:0|0:0,0:0:0:0:
211,147,45571,6,0,P|262:137|310:154,1,100,2|2,0:0|0:0,0:0:0:0:
360,230,46620,6,0,P|412:233|451:200,1,100,2|2,0:0|0:0,0:0:0:0:
449,205,48641,6,0,L|464:95,1,100,2|2,0:0|0:0,0:0:0:0:
399,27,49706,1,2,0:0:0:0:
317,83,50210,1,2,0:0:0:0:
237,23,50714,2,0,P|193:11|139:19,1,100,2|2,0:0|0:0,0:0:0:0:
87,104,51722,6,0,L|72:212,2,100,2|2|2,0:0|0:0|0:0,0:0:0:0:
181,137,53234,1,2,0:0:0:0:
335,214,54694,5,2,0:0:0:0:
237,220,55203,1,2,0:0:0:0:
283,133,55696,1,2,0:0:0:0:
335,214,56172,2,0,P|389:218|444:198,2,100,2|2|2,0:0|0:0|0:0,0:0:0:0:
283,133,57685,6,0,L|292:75,2,50,2|0|2,0:0|0:0|0:0,0:0:0:0:
200,190,58685,1,2,0:0:0:0:
110,146,59185,1,0,0:0:0:0:
110,146,60685,6,0,L|56:156,2,50,2|0|2,0:0|0:0|0:0,0:0:0:0:
207,125,61685,1,2,0:0:0:0:
244,217,62185,2,0,P|285:193|304:143,1,100,2|0,0:0|0:0,0:0:0:0:
303,145,63685,6,0,L|311:88,2,50,2|0|2,0:0|0:0|0:0,0:0:0:0:
230,213,64685,1,0,0:0:0:0:
143,163,65185,1,2,0:0:0:0:
143,163,66685,6,0,L|135:102,2,50,2|0|2,0:0|0:0|0:0,0:0:0:0:
198,246,67685,1,2,0:0:0:0:
254,163,68185,1,2,0:0:0:0:
254,163,69685,5,2,0:0:0:0:
332,223,70185,2,0,L|339:279,2,50,2|0|2,0:0|0:0|0:0,0:0:0:0:
368,130,71185,1,2,0:0:0:0:
368,130,72685,6,0,L|384:74,2,50,2|0|2,0:0|0:0|0:0,0:0:0:0:
332,223,73685,1,2,0:0:0:0:
249,279,74185,2,0,P|203:286|155:260,1,100,2|2,0:0|0:0,0:0:0:0:
245,82,75685,5,2,0:0:0:0:
334,125,76185,2,0,L|338:179,2,50,2|0|2,0:0|0:0|0:0,0:0:0:0:
409,59,77185,2,0,P|456:71|489:112,1,100,2|2,0:0|0:0,0:0:0:0:
453,306,78685,6,0,L|440:362,2,50,2|0|2,0:0|0:0|0:0,0:0:0:0:
415,213,79685,2,0,P|365:201|316:221,1,100,2|2,0:0|0:0,0:0:0:0:
320,217,81685,6,0,L|315:158,2,50,6|0|2,0:0|0:0|0:0,0:0:0:0:
245,283,82685,1,2,0:0:0:0:
154,241,83185,2,0,P|106:230|54:248,2,100
218,318,84685,6,0,L|210:370,2,50,2|0|2,0:0|0:0|0:0,0:0:0:0:
286,245,85685,1,2,0:0:0:0:
326,153,86185,2,0,P|338:106|318:55,2,100,2|0|2,0:0|0:0|0:0,0:0:0:0:
350,250,87685,6,0,L|401:262,2,50,2|0|2,0:0|0:0|0:0,0:0:0:0:
267,306,88685,2,0,P|226:280|210:227,1,100,2|2,0:0|0:0,0:0:0:0:
232,135,89685,1,0,0:0:0:0:
323,94,90185,1,0,0:0:0:0:
407,148,90685,5,2,0:0:0:0:
447,239,91185,2,0,L|506:234,2,50,2|0|2,0:0|0:0|0:0,0:0:0:0:
370,303,92185,2,0,P|322:311|270:287,2,100,2|0|0,0:0|0:0|0:0,0:0:0:0:
335,209,93685,5,6,0:0:0:0:
269,133,94185,2,0,L|276:83,2,50,2|0|2,0:0|0:0|0:0,0:0:0:0:
189,193,95185,2,0,L|86:209,2,100
243,276,96685,6,0,L|215:321,2,50,2|0|2,0:0|0:0|0:0,0:0:0:0:
330,226,97685,2,0,P|379:219|431:237,1,100,0|2,0:0|0:0,0:0:0:0:
419,333,98685,2,0,P|370:340|318:322,1,100,2|0,0:0|0:0,0:0:0:0:
249,256,99685,6,0,L|251:193,2,50,0|2|0,0:0|0:0|0:0,0:0:0:0:
165,310,100685,1,0,0:0:0:0:
108,226,101185,2,0,P|59:223|6:246,2,100
192,172,102685,5,2,0:0:0:0:
256,192,103185,12,2,105685,0:0:0:0:
165,202,117676,6,0,P|148:247|155:312,1,100,2|2,0:0|0:0,0:0:0:0:
245,354,118702,1,2,0:0:0:0:
332,314,119176,1,2,0:0:0:0:
342,294,120676,6,0,L|351:194,2,100,2|2|2,0:0|0:0|0:0,0:0:0:0:
243,311,122176,1,2,0:0:0:0:
190,225,122676,1,2,0:0:0:0:
228,132,123176,1,2,0:0:0:0:
312,78,123676,6,0,P|361:67|415:82,2,100,2|2|2,0:0|0:0|0:0,0:0:0:0:
268,176,125241,6,0,L|286:276,1,100,2|0,0:0|0:0,0:0:0:0:
141,341,126682,6,0,B|94:339|94:339|45:312,2,100,2|2|2,0:0|0:0|0:0,0:0:0:0:
215,274,128182,2,0,P|266:263|320:284,2,100,2|2|2,0:0|0:0|0:0,0:0:0:0:
135,213,129682,6,0,L|125:154,2,50,6|0|2,0:0|0:0|0:0,0:0:0:0:
218,268,130682,1,2,0:0:0:0:
288,196,131182,1,0,0:0:0:0:
370,252,131682,2,0,P|422:256|462:233,1,100,0|2,0:0|0:0,0:0:0:0:
495,138,132682,6,0,L|501:80,2,50,2|0|2,0:0|0:0|0:0,0:0:0:0:
399,107,133682,1,2,0:0:0:0:
308,150,134182,1,2,0:0:0:0:
213,117,134682,2,0,P|194:70|213:27,1,100,2|2,0:0|0:0,0:0:0:0:
311,10,135682,6,0,L|378:18,2,50,0|2|0,0:0|0:0|0:0,0:0:0:0:
249,88,136682,1,2,0:0:0:0:
291,176,137182,2,0,P|303:224|292:282,2,100,0|2|0,0:0|0:0|0:0,0:0:0:0:
190,166,138682,6,0,L|145:192,2,50,2|0|2,0:0|0:0|0:0,0:0:0:0:
280,123,139682,1,2,0:0:0:0:
359,183,140182,1,2,0:0:0:0:
266,219,140682,2,0,P|226:209|190:165,1,100
162,67,141682,6,0,L|101:74,2,50,6|0|2,0:0|0:0|0:0,0:0:0:0:
227,142,142682,1,2,0:0:0:0:
166,221,143182,1,0,0:0:0:0:
233,294,143682,2,0,P|281:305|336:283,1,100
364,196,144682,6,0,L|426:200,2,50,2|0|2,0:0|0:0|0:0,0:0:0:0:
282,137,145682,2,0,L|182:147,2,100,2|2|2,0:0|0:0|0:0,0:0:0:0:
347,61,147182,1,2,0:0:0:0:
250,35,147682,6,0,L|186:39,2,50,0|0|2,0:0|0:0|0:0,0:0:0:0:
232,133,148682,1,2,0:0:0:0:
133,150,149182,1,0,0:0:0:0:
78,65,149682,2,0,P|47:92|33:150,1,100,2|0,0:0|0:0,0:0:0:0:
78,236,150682,6,0,L|73:289,2,50,2|0|2,0:0|0:0|0:0,0:0:0:0:
163,186,151682,1,2,0:0:0:0:
249,236,152182,2,0,P|295:242|351:223,2,100,2|0|2,0:0|0:0|0:0,0:0:0:0:
250,135,153682,6,0,L|268:80,2,50,2|0|2,0:0|0:0|0:0,0:0:0:0:
208,225,154682,1,2,0:0:0:0:
149,143,155182,1,0,0:0:0:0:
106,52,155682,2,0,L|205:31,1,100,2|0,0:0|0:0,0:0:0:0:
279,96,156682,6,0,P|327:106|386:88,2,100,2|0|2,0:0|0:0|0:0,0:0:0:0:
218,176,158182,2,0,P|228:223|260:271,2,100,2|0|2,0:0|0:0|0:0,0:0:0:0:
155,98,159682,6,0,L|53:111,2,100,2|2|2,0:0|0:0|0:0,0:0:0:0:
255,101,161182,2,0,L|315:110,2,50,2|0|2,0:0|0:0|0:0,0:0:0:0:
207,189,162182,1,0,0:0:0:0:
267,268,162682,6,0,P|318:277|364:254,2,100,2|0|0,0:0|0:0|0:0,0:0:0:0:
168,285,164182,2,0,P|134:324|131:376,2,100,2|0|2,0:0|0:0|0:0,0:0:0:0:
203,191,165682,6,0,L|194:134,2,50,2|0|2,0:0|0:0|0:0,0:0:0:0:
278,256,166682,1,2,0:0:0:0:
351,188,167182,2,0,P|399:175|451:193,2,100,0|2|0,0:0|0:0|0:0,0:0:0:0:
257,151,168682,6,0,L|268:32,2,100,2|2|2,0:0|0:0|0:0,0:0:0:0:
168,197,170182,2,0,L|125:97,2,100,2|2|2,0:0|0:0|0:0,0:0:0:0:
218,283,171682,6,0,P|312:301|385:219,1,200,2|2,0:0|0:0,0:0:0:0:
392,132,173182,2,0,P|442:133|486:108,2,100,2|2|2,0:0|0:0|0:0,0:0:0:0:
310,70,174682,6,0,B|266:33|216:36|216:36|187:72|126:86,1,200,2|2,0:0|0:0,0:0:0:0:
47,33,176182,2,0,B|8:138|88:193|171:178|171:178|160:218|181:253,1,300
