osu file format v14

[General]
AudioFilename: Anata no Aishita Sekai.mp3
AudioLeadIn: 1500
PreviewTime: 127021
Countdown: 0
SampleSet: Soft
StackLeniency: 0.3
Mode: 0
LetterboxInBreaks: 0
WidescreenStoryboard: 0

[Editor]
Bookmarks: 27422
DistanceSpacing: 0.9
BeatDivisor: 4
GridSize: 4
TimelineZoom: 1

[Metadata]
Title:Anata no Aishita Sekai
TitleUnicode:あなたの愛した世界
Artist:Nanjo Yoshino
ArtistUnicode:南條愛乃
Creator:Chirony
Version:Normal
Source:グリザイアの果実 -LE FRUIT DE LA GRISAIA-
Tags:grisaia no kajitsu ending sakaki yumiko suou amane matsushima michiru irisu makina komine sachi frontwing visual novel eroge
BeatmapID:575369
BeatmapSetID:250397

[Difficulty]
HPDrainRate:3
CircleSize:3
OverallDifficulty:4
ApproachRate:5
SliderMultiplier:1
SliderTickRate:2

[Events]
//Background and Video events
0,0,"BG.png",0,0
//Break Periods
2,91623,101586
2,167172,173446
//Storyboard Layer 0 (Background)
//Storyboard Layer 1 (Fail)
//Storyboard Layer 2 (Pass)
//Storyboard Layer 3 (Foreground)
//Storyboard Sound Samples

[TimingPoints]
926,348.837209302326,4,2,2,40,1,0
7205,-100,4,2,1,60,0,0
19064,-100,4,2,2,40,0,0
29704,-100,4,2,1,50,0,0
38599,-100,4,2,1,50,0,0
41390,-100,4,2,1,60,0,0
44181,-100,4,2,1,55,0,0
55344,-100,4,2,1,70,0,1
64937,-100,4,2,1,60,0,0
66507,-100,4,2,1,60,0,1
79065,-100,4,2,1,60,0,0
90925,-100,4,2,2,60,0,0
101564,-100,4,2,1,50,0,0
111157,-100,4,2,1,50,0,0
113948,-100,4,2,1,60,0,0
116739,-100,4,2,1,55,0,0
127902,-100,4,2,1,70,0,1
137495,-100,4,2,1,60,0,0
139065,-100,4,2,1,60,0,1
151623,-100,4,2,1,60,0,0
174471,-100,4,2,1,50,0,0
178134,-100,4,2,1,55,0,0
179704,-100,4,2,1,60,0,0
180925,-100,4,2,1,70,0,0
181274,-100,4,2,1,60,0,0
183541,-100,4,2,1,70,0,0
186507,-100,4,2,1,70,0,1
196100,-100,4,2,1,60,0,0
197670,-100,4,2,1,60,0,1
210228,-100,4,2,1,50,0,0

[Colours]
Combo1 : 255,128,255
Combo2 : 128,128,255
Combo3 : 204,17,101
Combo4 : 255,255,0
Combo5 : 242,121,0

[HitObjects]
284,296,2379,6,0,P|191:328|100:292,1,200,0|2,0:0|0:0,0:0:0:0:
64,160,3600,2,0,P|158:95|272:107,1,233.333333333333,0|2,0:0|0:0,0:0:0:0:
435,180,5112,6,0,P|467:112|466:38,2,150,2|2|2,0:0|0:0|0:0,0:0:0:0:
376,248,6507,1,0,0:0:0:0:
292,92,7205,2,0,P|212:36|118:61,1,200,0|4,0:0|0:0,0:0:0:0:
32,167,8426,6,0,P|38:217|53:265,1,100,4|2,0:0|0:0,0:0:0:0:
107,335,9123,2,0,P|179:354|248:328,1,150,0|2,0:0|0:0,0:0:0:0:
316,272,9995,2,0,P|274:245|224:244,1,100,2|4,0:0|0:0,0:0:0:0:
132,232,10693,6,0,P|115:159|142:91,1,150,4|4,0:0|0:0,0:0:0:0:
224,52,11565,2,0,P|232:75|237:99,1,50,0|2,0:0|0:0,0:0:0:0:
231,143,11914,2,0,P|295:182|369:184,1,150,0|2,0:0|0:0,0:0:0:0:
460,184,12786,2,0,L|452:109,2,75,4|8|4,0:0|0:3|0:3,0:0:0:0:
444,228,13484,6,0,P|412:295|353:340,1,150,4|4,0:0|0:0,0:0:0:0:
244,260,14530,2,0,P|187:212|114:196,1,150,4|4,0:0|0:0,0:0:0:0:
12,148,15577,2,0,P|24:100|57:62,1,100,8|8,0:0|0:0,0:0:0:0:
140,32,16274,6,0,B|216:52|256:136|256:136|270:100,1,200,4|4,0:0|0:0,0:0:0:0:
400,56,17495,2,0,L|340:196,1,150,4|2,0:0|0:0,0:0:0:0:
304,276,18367,1,8,0:0:0:0:
228,324,18716,1,8,0:0:0:0:
139,299,19065,6,0,P|116:229|128:156,1,150,0|2,0:0|0:0,0:0:0:0:
312,28,20460,2,0,P|347:93|348:167,1,150,0|2,0:0|0:0,0:0:0:0:
252,264,21507,1,0,0:0:0:0:
328,312,21856,2,0,P|267:352|196:334,1,150,0|2,0:0|0:0,0:0:0:0:
132,272,22728,1,2,0:0:0:0:
158,138,23251,2,0,P|95:101|21:97,2,150,2|2|0,0:0|0:0|0:0,0:0:0:0:
223,204,24646,6,0,P|282:160|291:87,1,150,2|0,0:0|0:0,0:0:0:0:
232,20,25519,1,2,0:0:0:0:
368,32,26042,2,0,P|416:89|422:162,1,150,2|0,0:0|0:0,0:0:0:0:
384,292,27088,1,0,0:0:0:0:
296,312,27437,6,0,P|230:317|151:287,1,150,2|0,0:0|0:0,0:0:0:0:
64,188,28484,1,0,0:0:0:0:
68,100,28832,2,0,P|139:37|228:72,1,200,2|0,0:0|0:0,0:0:0:0:
299,235,30228,6,0,P|270:274|225:294,1,100,4|2,0:0|0:0,0:0:0:0:
152,240,30926,2,0,P|147:190|167:145,1,100,2|2,0:0|0:0,0:0:0:0:
240,92,31623,1,2,0:0:0:0:
327,99,31972,2,0,P|375:115|412:148,1,100,2|2,0:0|0:0,0:0:0:0:
444,232,32670,1,2,0:0:0:0:
360,264,33019,5,2,0:0:0:0:
316,280,33193,2,0,P|282:315|275:364,2,100,4|2|2,0:0|0:0|0:0,0:0:0:0:
304,192,34239,2,0,P|229:194|163:228,1,150,2|2,0:0|0:0,0:0:0:0:
128,256,34937,1,8,0:0:0:0:
56,140,35460,1,8,0:0:0:0:
116,72,35809,6,0,P|182:39|257:31,1,150,2|0,0:0|0:0,0:0:0:0:
384,76,36856,1,8,0:0:0:0:
356,160,37205,2,0,B|336:224|380:272|380:272|348:304,1,150,2|8,0:0|0:0,0:0:0:0:
240,356,38251,1,4,0:3:0:0:
212,272,38600,6,0,P|207:222|221:175,1,100,4|0,0:0|0:0,0:0:0:0:
312,164,39297,2,0,P|318:114|304:66,1,100,8|2,0:0|0:0,0:0:0:0:
219,35,39995,2,0,P|125:57|76:142,1,200,2|4,0:0|0:0,0:0:0:0:
68,324,41391,6,0,P|135:357|212:344,1,150,4|2,0:0|0:0,0:0:0:0:
248,332,42088,1,4,0:0:0:0:
388,324,42612,2,0,P|406:251|392:178,1,150,4|4,0:0|0:0,0:0:0:0:
352,100,43484,1,8,0:0:0:0:
264,96,43832,1,8,0:3:0:0:
188,143,44181,6,0,P|114:154|45:127,2,150,12|4|4,0:0|0:0|0:0,0:0:0:0:
256,28,45751,2,0,P|326:52|375:107,1,150,12|4,0:0|0:0,0:0:0:0:
400,196,46623,1,8,0:0:0:0:
316,232,46972,6,0,P|257:278|223:344,2,150,12|4|4,0:0|0:0|0:0,0:0:0:0:
208,156,48542,2,0,P|134:167|72:207,1,150,12|4,0:0|0:0,0:0:0:0:
36,288,49414,1,8,0:0:0:0:
128,284,49763,6,0,P|199:305|252:356,1,150,4|2,0:0|0:0,0:0:0:0:
380,312,50809,2,0,P|420:249|426:175,1,150,2|2,0:0|0:0,0:0:0:0:
384,48,51856,2,0,P|334:43|285:51,1,100,2|8,0:0|0:0,0:0:0:0:
220,116,52553,6,0,P|170:107|128:80,1,100,4|8,0:0|0:0,0:0:0:0:
88,100,53077,2,0,P|79:148|89:197,1,100,4|4,0:0|0:0,0:0:0:0:
160,312,53949,2,0,L|192:252,1,50,12|12,0:0|0:0,0:0:0:0:
356,228,55344,6,0,P|351:277|360:326,2,100,4|8|0,0:0|0:0|0:0,0:0:0:0:
380,140,56391,1,8,0:0:0:0:
312,84,56739,2,0,P|215:62|118:83,1,200,2|2,0:0|0:0,0:0:0:0:
52,144,57786,1,8,0:0:0:0:
51,235,58135,6,0,P|88:298|160:301,1,150,2|2,0:0|0:0,0:0:0:0:
288,260,59181,1,8,0:0:0:0:
371,223,59530,2,0,P|391:295|379:368,2,150,2|2|8,0:0|0:0|0:0,0:0:0:0:
380,136,60926,6,0,P|309:112|237:129,1,150,4|2,0:0|0:0,0:0:0:0:
136,216,61972,1,8,0:0:0:0:
67,156,62321,2,0,P|112:95|176:48,2,150,2|0|8,0:0|0:0|0:0,0:0:0:0:
28,235,63716,6,0,P|42:306|109:335,1,150,4|2,0:0|0:0,0:0:0:0:
200,328,64588,1,2,0:0:0:0:
284,296,64937,1,4,0:0:0:0:
232,172,65460,1,8,0:3:0:0:
303,120,65809,2,0,P|349:101|398:109,1,100,8|0,0:0|0:0,0:0:0:0:
360,192,66507,6,0,P|352:242|364:290,2,100,4|8|8,0:0|0:0|0:0,0:0:0:0:
436,240,67553,1,8,0:0:0:0:
476,160,67902,2,0,P|480:111|464:64,1,100,8|8,0:0|0:0,0:0:0:0:
384,24,68600,1,8,0:0:0:0:
316,84,68949,1,8,0:0:0:0:
236,40,69298,6,0,P|186:36|137:46,1,100,8|8,0:0|0:0,0:0:0:0:
84,120,69995,2,0,P|119:154|163:178,1,100,8|8,0:0|0:0,0:0:0:0:
248,216,70693,2,0,P|234:263|208:306,2,100,8|8|4,0:0|0:0|0:0,0:0:0:0:
260,128,71739,1,8,0:0:0:0:
340,88,72088,5,0,0:0:0:0:
384,92,72263,2,0,P|445:132|463:203,2,150,4|4|4,0:0|0:0|0:0,0:0:0:0:
160,60,74181,1,8,0:0:0:0:
72,40,74530,1,8,0:0:0:0:
91,127,74879,6,0,P|96:177|90:227,1,100,4|2,0:0|0:0,0:0:0:0:
128,308,75577,2,0,P|166:276|199:238,1,100,2|2,0:0|0:0,0:0:0:0:
260,172,76274,2,0,P|295:207|323:248,2,100,2|2|2,0:0|0:0|0:0,0:0:0:0:
188,116,77321,1,2,0:0:0:0:
260,64,77670,6,0,P|356:64|414:141,1,200,4|2,0:0|0:0,0:0:0:0:
412,232,78716,1,2,0:0:0:0:
356,304,79065,1,4,0:0:0:0:
152,72,80460,5,4,0:0:0:0:
72,112,80809,1,8,0:0:0:0:
48,152,80984,2,0,P|23:223|49:297,1,150,0|8,0:0|0:0,0:0:0:0:
124,332,81856,2,0,P|169:350|219:351,2,100,2|8|2,0:0|0:0|0:0,0:0:0:0:
136,244,82902,1,8,0:0:0:0:
184,168,83251,6,0,P|245:128|318:139,1,150,2|2,0:0|0:0,0:0:0:0:
408,240,84298,1,8,0:0:0:0:
388,280,84472,2,0,P|334:326|267:301,1,150,4|8,0:0|0:0,0:0:0:0:
176,308,85344,2,0,P|190:344|213:373,2,75,8|4|4,0:3|0:3|0:3,0:0:0:0:
160,264,86042,6,0,P|160:190|207:134,1,150,4|2,0:0|0:0,0:0:0:0:
276,20,87088,2,0,P|334:98|324:195,1,200,8|2,0:0|0:0,0:0:0:0:
332,284,88135,2,0,P|286:303|236:300,1,100,2|8,0:0|0:0,0:0:0:0:
204,216,88832,6,0,P|130:207|63:240,2,150,4|4|4,0:0|0:0|0:0,0:0:0:0:
335,244,90402,2,0,P|331:170|289:109,1,150,8|2,0:0|0:0,0:0:0:0:
368,64,102786,6,0,P|367:113|357:162,1,100,4|2,0:0|0:0,0:0:0:0:
324,248,103484,1,2,0:0:0:0:
240,216,103832,1,2,0:0:0:0:
160,256,104181,2,0,P|156:305|160:355,2,100,2|2|2,0:0|0:0|0:0,0:0:0:0:
168,164,105228,1,2,0:0:0:0:
212,88,105577,6,0,L|296:16,1,100,2|2,0:0|0:0,0:0:0:0:
352,84,106274,2,0,L|462:92,1,100,2|2,0:0|0:0,0:0:0:0:
496,172,106972,1,4,0:0:0:0:
364,192,107495,2,0,B|328:216|324:256|324:256|336:292|314:324,1,150,4|4,0:0|0:3,0:0:0:0:
236,368,108367,5,4,0:0:0:0:
116,304,108891,2,0,P|87:236|112:167,1,150,4|4,0:0|0:3,0:0:0:0:
156,88,109763,1,4,0:0:0:0:
220,152,110112,1,2,0:0:0:0:
220,196,110286,2,0,P|293:213|364:192,1,150,8|4,0:0|0:3,0:0:0:0:
384,104,111158,6,0,P|451:171|420:261,1,200,4|8,0:0|0:0,0:0:0:0:
340,304,112204,1,2,0:0:0:0:
260,264,112553,2,0,P|165:235|72:267,1,200,2|4,0:0|0:0,0:0:0:0:
232,348,113949,6,0,B|296:368|336:312|336:312|363:325,1,150,4|2,0:0|0:0,0:0:0:0:
404,344,114646,1,4,0:0:0:0:
416,208,115170,2,0,P|403:134|346:87,1,150,4|4,0:0|0:0,0:0:0:0:
260,60,116042,1,8,0:0:0:0:
180,219,116739,6,0,P|128:273|58:299,2,150,12|4|4,0:0|0:0|0:0,0:0:0:0:
276,124,118309,2,0,P|218:76|147:55,1,150,12|4,0:0|0:0,2:0:0:0:
64,92,119181,1,8,0:0:0:0:
56,180,119530,6,0,P|87:246|150:286,2,150,12|4|4,0:0|0:0|0:0,0:0:0:0:
187,156,121100,2,0,P|252:191|286:257,1,150,12|4,0:0|0:0,0:0:0:0:
296,348,121972,1,8,0:0:0:0:
384,340,122321,6,0,P|419:273|428:199,1,150,4|2,0:0|0:0,0:0:0:0:
436,64,123367,2,0,P|369:98|319:153,1,150,2|2,0:0|0:0,0:0:0:0:
224,60,124414,2,0,P|177:41|128:41,1,100,2|8,0:0|0:0,0:0:0:0:
64,104,125112,6,0,P|52:153|58:203,1,100,4|8,0:0|0:0,0:0:0:0:
96,224,125635,2,0,P|108:272|102:323,1,100,4|4,0:0|0:0,0:0:0:0:
236,292,126507,2,0,L|304:268,1,50,12|12,0:0|0:0,0:0:0:0:
471,95,127902,6,0,P|483:169|454:236,1,150,4|2,0:0|0:0,0:0:0:0:
348,152,128949,1,8,0:0:0:0:
264,120,129298,2,0,P|214:112|164:115,1,100,2|8,0:0|0:0,0:0:0:0:
88,164,129995,1,0,0:0:0:0:
60,248,130344,1,8,0:0:0:0:
84,336,130693,6,0,P|154:312|229:311,1,150,2|2,0:0|0:0,0:0:0:0:
364,336,131739,1,8,0:0:0:0:
380,248,132088,2,0,P|415:184|485:161,2,150,2|0|8,0:0|0:0|0:0,0:0:0:0:
304,200,133484,6,0,P|282:128|292:56,1,150,4|2,0:0|0:0,0:0:0:0:
160,24,134530,1,8,0:0:0:0:
120,104,134879,2,0,B|100:136|96:196|96:196|64:172|46:175,1,150,2|4,0:0|0:0,0:0:0:0:
20,308,135926,1,8,0:0:0:0:
108,316,136274,6,0,P|157:320|206:308,1,100,4|8,0:0|0:0,0:0:0:0:
252,304,136798,2,0,P|295:327|334:358,2,100,2|2|4,0:0|0:0|0:0,0:0:0:0:
368,236,138019,1,4,0:3:0:0:
400,152,138367,2,0,P|394:102|368:59,1,100,8|0,0:0|0:0,0:0:0:0:
284,28,139065,6,0,L|248:124,1,100,4|8,0:0|0:0,0:0:0:0:
176,176,139763,1,8,0:0:0:0:
104,120,140112,1,8,0:0:0:0:
48,188,140460,2,0,L|23:284,1,100,8|8,0:0|0:0,0:0:0:0:
72,360,141158,1,8,0:0:0:0:
156,332,141507,1,8,0:0:0:0:
184,248,141856,6,0,L|277:283,1,100,8|8,0:0|0:0,0:0:0:0:
304,196,142553,2,0,L|395:154,1,100,8|8,0:0|0:0,0:0:0:0:
408,64,143251,2,0,P|452:85|481:125,2,100,8|8|4,0:0|0:0|0:0,0:0:0:0:
320,52,144298,1,8,0:0:0:0:
256,116,144646,5,0,0:0:0:0:
224,148,144821,2,0,P|153:171|81:155,2,150,4|4|4,0:0|0:0|0:0,0:0:0:0:
420,36,146739,1,8,0:0:0:0:
388,120,147088,1,8,0:0:0:0:
435,195,147437,6,0,P|433:245|412:290,1,100,4|2,0:0|0:0,0:0:0:0:
336,340,148135,2,0,P|314:294|312:245,1,100,2|2,0:0|0:0,0:0:0:0:
296,156,148832,2,0,P|261:119|216:98,2,100,2|2|2,0:0|0:0|0:0,0:0:0:0:
228,216,149879,1,2,0:0:0:0:
144,244,150228,2,0,P|54:206|52:108,1,200,4|2,0:0|0:0,0:0:0:0:
108,48,151274,1,2,0:0:0:0:
196,32,151623,5,4,0:0:0:0:
392,280,152844,2,0,P|359:345|290:372,1,150,4|2,0:0|0:0,0:0:0:0:
160,344,153891,5,8,0:0:0:0:
216,272,154239,2,0,P|225:199|186:137,1,150,4|4,0:0|0:3,0:0:0:0:
156,100,154937,2,0,P|217:60|290:70,1,150,4|8,0:0|0:0,0:0:0:0:
416,120,155984,6,0,B|428:72|428:72|416:23,2,100,2|2|0,0:0|0:0|0:0,0:0:0:0:
379,205,157030,2,0,B|368:232|368:232|304:200|250:219,1,150,4|8,0:0|0:0,0:0:0:0:
208,236,157728,2,0,L|160:260,2,50,8|8|8,0:0|0:0|0:0,0:0:0:0:
167,155,158426,6,0,P|159:83|203:24,2,150,4|8|2,0:0|0:0|0:0,0:0:0:0:
244,108,159821,2,0,L|283:77,2,50,2|2|0,0:0|0:0|0:0,0:0:0:0:
264,196,160518,2,0,B|310:204|347:185|347:185|378:200|394:226,1,150,2|8,0:0|0:0,0:0:0:0:
344,304,161391,6,0,P|269:302|205:338,1,150,4|8,0:0|0:0,0:0:0:0:
164,360,162088,2,0,P|70:333|40:244,1,200,4|0,0:0|0:0,0:0:0:0:
147,99,163484,2,0,P|201:151|223:222,1,150,4|2,0:0|0:0,0:0:0:0:
256,192,164181,12,0,166972,0:0:0:0:
256,192,174646,5,8,0:0:0:0:
396,76,175344,1,4,0:0:0:0:
404,164,175693,2,0,P|453:172|501:161,2,100,2|2|2,0:0|0:0|0:0,0:0:0:0:
360,152,176565,1,0,0:0:0:0:
296,88,176914,2,0,P|249:71|188:84,1,100,4|0,0:0|0:0,0:0:0:0:
160,96,177437,1,2,0:0:0:0:
104,168,177786,1,2,0:0:0:0:
15,151,178135,6,0,P|32:223|94:262,1,150,12|4,0:0|0:0,0:0:0:0:
195,352,179181,2,0,P|230:286|222:213,1,150,12|4,0:0|0:0,0:0:0:0:
192,84,180228,2,0,B|228:48|228:48|276:44,1,100,12|4,0:0|0:0,0:0:0:0:
364,68,180926,6,0,P|449:152|422:268,1,250,4|4,0:0|0:3,0:0:0:0:
332,268,182146,2,0,B|271:290|255:350|255:350|144:344|120:247,1,300,4|2,0:0|0:0,0:0:0:0:
120,160,183542,6,0,P|132:111|160:70,1,100,4|0,0:0|0:0,0:0:0:0:
204,68,184065,2,0,L|250:49,1,50,8|0,0:0|0:0,0:0:0:0:
292,64,184414,2,0,L|338:45,1,50,8|0,0:0|0:0,0:0:0:0:
404,108,184937,2,0,P|407:157|406:207,1,100,4|8,0:0|0:0,0:0:0:0:
360,216,185460,2,0,P|337:205|312:196,1,50,8|8,0:0|0:0,0:0:0:0:
152,44,186507,6,0,P|160:93|153:142,1,100,4|8,0:0|0:0,0:0:0:0:
72,184,187204,2,0,P|72:233|88:280,1,100,2|8,0:0|0:0,0:0:0:0:
132,272,187727,2,0,P|205:267|266:308,1,150,2|8,0:0|0:0,0:0:0:0:
348,348,188600,2,0,P|357:300|385:259,1,100,2|8,0:0|0:0,0:0:0:0:
448,196,189298,6,0,P|413:131|343:114,1,150,2|2,0:0|0:0,0:0:0:0:
208,120,190344,1,8,0:0:0:0:
184,208,190693,2,0,L|192:260,1,50,8|2,0:0|0:0,0:0:0:0:
176,348,191216,2,0,B|131:326|131:326|99:287,2,100,4|8|0,0:0|0:0|0:0,0:0:0:0:
264,360,192263,6,0,P|279:287|269:213,1,150,4|4,0:0|0:0,0:0:0:0:
156,288,193309,1,4,0:0:0:0:
93,222,193658,2,0,P|127:132|191:106,1,150,4|4,0:0|0:0,0:0:0:0:
215,99,194356,1,8,0:0:0:0:
348,88,194879,6,0,P|352:138|346:188,1,100,8|4,0:0|0:3,0:0:0:0:
336,232,195402,2,0,P|385:232|430:254,2,100,8|2|4,0:0|0:0|0:0,0:0:0:0:
216,292,196623,1,0,0:0:0:0:
144,236,196972,2,0,P|118:193|110:144,1,100,8|0,0:0|0:0,0:0:0:0:
112,52,197670,6,0,P|161:43|210:49,1,100,4|8,0:0|0:0,0:0:0:0:
296,72,198367,1,8,0:0:0:0:
288,160,198716,1,8,0:0:0:0:
356,216,199065,2,0,P|390:252|416:294,2,100,8|8|8,0:0|0:0|0:0,0:0:0:0:
268,196,200112,1,8,0:0:0:0:
256,284,200460,6,0,B|248:316|248:316|216:256|164:232,1,150,8|2,0:0|0:0,0:0:0:0:
32,232,201507,1,8,0:0:0:0:
32,143,201856,2,0,P|40:94|62:50,1,100,2|8,0:0|0:0,0:0:0:0:
144,84,202553,2,0,P|188:60|223:26,1,100,4|8,0:0|0:0,0:0:0:0:
272,104,203251,5,0,0:0:0:0:
308,132,203426,2,0,P|381:152|455:148,2,150,4|4|4,0:0|0:0|0:0,0:0:0:0:
260,352,205344,1,8,0:0:0:0:
324,288,205693,1,8,0:0:0:0:
300,200,206042,6,0,P|250:192|201:196,1,100,4|2,0:0|0:0,0:0:0:0:
132,136,206739,2,0,P|93:168|64:208,1,100,2|2,0:0|0:0,0:0:0:0:
40,296,207437,2,0,P|89:300|138:292,1,100,2|2,0:0|0:0,0:0:0:0:
224,268,208135,1,2,0:0:0:0:
304,228,208484,1,2,0:0:0:0:
376,171,208832,6,0,P|376:76|293:27,1,200,4|2,0:0|0:0,0:0:0:0:
204,28,209879,1,2,0:0:0:0:
124,64,210228,1,4,0:0:0:0:
151,287,211623,6,0,P|216:322|289:309,2,150,4|2|8,0:0|0:0|0:0,0:0:0:0:
224,176,213193,2,0,P|234:102|206:33,1,150,2|2,0:0|0:0,0:0:0:0:
116,40,214065,1,8,0:0:0:0:
92,128,214414,6,0,L|80:192,1,50,4|2,0:0|0:0,0:0:0:0:
60,264,214937,1,4,0:0:0:0:
176,332,215460,1,8,0:0:0:0:
212,304,215635,2,0,P|257:283|306:282,1,100,4|2,0:0|0:0,0:0:0:0:
388,244,216332,2,0,P|370:197|343:155,1,100,8|4,0:3|0:0,0:0:0:0:
312,120,216856,1,2,0:0:0:0:
280,92,217030,1,4,0:0:0:0:
256,192,217205,12,2,218426,0:0:0:0:
