osu file format v9

[General]
AudioFilename: 5.mp3
AudioLeadIn: 500
PreviewTime: 1300
Countdown: 0
SampleSet: Soft
StackLeniency: 0.7
Mode: 0
LetterboxInBreaks: 1

[Editor]
DistanceSpacing: 0.9
BeatDivisor: 4
GridSize: 8

[Metadata]
Title:Fan Rinin
Artist:Nanase Hikaru
Creator:JauiPlaY
Version:Insane
Source:Infinite Stratos
Tags:is ost

[Difficulty]
HPDrainRate:5
CircleSize:4
OverallDifficulty:7
ApproachRate:7
SliderMultiplier:2.4
SliderTickRate:1

[Events]
//Background and Video events
0,0,"a1.jpg"
//Break Periods
//Storyboard Layer 0 (Background)
//Storyboard Layer 1 (Fail)
//Storyboard Layer 2 (Pass)
//Storyboard Layer 3 (Foreground)
//Storyboard Sound Samples
//Background Colour Transformations
3,100,255,255,255

[TimingPoints]
425,500,4,2,1,85,1,0
2425,-100,4,2,1,60,0,1
2550,-100,4,2,1,85,0,0
18425,-100,4,2,1,60,0,0
18550,-100,4,2,1,85,0,0
52425,-100,4,2,1,60,0,1
52550,-100,4,2,1,85,0,0
68425,-100,4,2,1,60,0,1
68550,-100,4,2,1,85,0,1
87425,-100,4,2,1,60,0,1
87550,-100,4,2,1,85,0,0
87675,-100,4,2,1,60,0,1
87800,-100,4,2,1,85,0,0

[Colours]
Combo1 : 255,227,117
Combo2 : 0,170,0
Combo3 : 180,105,105
Combo4 : 255,238,202

[HitObjects]
456,32,1425,6,0,B|391:35|391:35|353:79,1,120
395,178,1925,2,0,B|357:219|357:219|293:222,1,120
194,266,2425,6,0,B|254:298|254:298|265:321|291:334,1,120,4|2
308,340,2800,1,0
324,341,2925,1,8
430,321,3175,1,2
456,216,3425,2,0,B|400:208|400:208|376:184|376:152,1,120,0|2
370,134,3800,1,0
358,119,3925,1,8
256,152,4175,1,2
176,80,4425,6,0,B|160:200,1,120,0|2
240,272,4925,2,0,B|256:152,1,120,8|2
344,216,5425,2,0,B|384:104,1,120,0|2
384,102,5800,1,0
384,102,5925,2,0,B|336:52|274:80,1,120,8|2
168,64,6425,6,0,B|152:176|152:176|168:240,1,180,0|2
168,240,6925,2,0,B|216:224|216:224|280:256,1,120,8|2
352,336,7425,1,0
432,264,7675,1,2
453,214,7800,1,0
456,160,7925,1,8
352,144,8175,1,2
288,56,8425,6,0,B|360:88|360:88|400:72,1,120,0|2
248,136,8925,2,0,B|176:104|176:104|136:120,1,120,8|2
264,224,9425,2,0,B|336:256|336:256|376:240,1,120,0|2
224,304,9925,2,0,B|152:272|152:272|112:288,1,120,8|2
40,208,10425,5,0
80,104,10675,1,2
120,68,10800,1,8
208,128,11050,1,0
261,122,11175,1,10
360,72,11425,2,0,B|344:160|344:160|352:192,1,120,0|2
351,189,11800,1,8
448,136,12050,2,0,B|472:208,2,60,0|10|0
398,115,12425,6,0,B|346:158|286:123,1,120,0|2
254,79,12800,1,0
214,42,12925,2,0,B|154:7|102:50,1,120,8|2
25,125,13425,1,0
76,272,13675,1,2
225,226,13925,1,8
351,317,14175,1,2
456,344,14425,6,0,B|400:224|400:224|416:176,1,180,0|2
415,178,14925,2,0,B|388:114|320:118,1,120,8|2
269,133,15300,1,0
233,92,15425,2,0,B|165:95|139:31,1,120,0|2
59,105,15925,1,8
53,158,16050,1,2
76,206,16175,1,0
256,192,16425,12,4,18425
280,144,18925,5,0
202,195,19175,1,2
285,236,19425,1,0
251,120,19925,5,0
195,231,20175,1,2
320,224,20425,1,0
202,111,20925,5,0
212,278,21175,1,2
352,186,21425,1,0
159,197,21675,1,2
309,272,21925,1,0
299,105,22175,1,2
392,48,22425,6,0,B|384:120|384:120|400:232,1,180,0|2
424,272,22925,2,0,B|344:304|344:304|312:296,1,120,0|2
208,328,23425,1,0
104,296,23675,2,0,B|48:272,1,60,0|2
16,168,24050,2,0,B|32:112,1,60,0|2
128,72,24425,6,0,B|208:104|208:104|216:152|264:176,1,180,0|2
262,175,24925,2,0,B|384:192,1,120,0|2
480,144,25425,1,0
384,94,25675,1,2
358,141,25800,1,0
346,193,25925,1,0
343,246,26050,1,2
355,298,26175,1,0
256,344,26425,2,0,B|192:360|192:360|80:336,1,180,0|2
80,336,26925,5,0
32,240,27175,1,2
48,136,27425,1,0
80,336,27925,5,0
127,191,28175,1,2
246,104,28425,1,0
80,336,28925,5,0
224,264,29175,1,2
383,287,29425,1,0
405,128,29675,1,2
246,104,29925,1,0
224,264,30175,1,2
128,224,30425,6,0,B|112:176|112:176|120:104,1,120,0|0
119,107,30800,1,2
224,128,31050,2,0,B|288:120,1,60,0|2
352,40,31425,2,0,B|416:24,1,60,0|2
488,104,31800,1,0
488,104,31925,2,0,B|472:176|472:176|440:168|432:192,1,120,2|2
392,288,32425,5,0
288,320,32675,1,0
234,319,32800,1,2
182,304,32925,1,0
88,352,33175,2,0,B|64:312|80:272|80:272|64:240,1,120,2|0
53,223,33550,1,2
49,205,33675,1,0
55,188,33800,1,2
68,176,33925,1,0
145,100,34175,5,2
194,122,34300,1,2
245,104,34425,2,0,B|341:96|341:96|381:112|421:80,1,180,0|2
373,52,34925,2,0,B|343:114|391:162,1,120,8|2
471,234,35425,1,0
351,290,35675,1,2
219,301,35925,1,8
88,281,36175,1,2
194,262,36425,6,0,B|199:194|136:165,1,120
119,167,36800,1,2
102,173,36925,2,0,B|168:165|184:98,1,120,8|2
122,10,37425,1,0
248,46,37675,1,2
357,119,37925,1,8
434,226,38175,1,2
368,312,38425,5,0
368,312,38550,1,2
264,280,38800,1,2
264,280,38925,1,8
156,284,39175,1,2
56,328,39425,1,0
56,328,39550,1,2
56,328,39675,1,0
128,248,39925,2,0,B|96:184,3,60,8|2|0|2
49,180,40425,6,0,B|142:176|202:95,1,180,0|2
180,46,40925,2,0,B|215:17|215:17|289:33,1,120,8|2
272,136,41425,1,0
272,152,41550,1,2
272,168,41675,1,0
200,248,41925,1,8
242,278,42050,1,2
292,298,42175,1,0
344,308,42300,1,2
397,303,42425,6,0,B|422:199|422:199|455:190|487:167,1,180,0|2
452,125,42925,2,0,B|415:66|349:81,1,120,8|2
256,24,43425,5,10
256,200,43675,1,10
47,58,44425,6,0,B|94:104|66:167,1,120
56,181,44800,1,2
57,200,44925,2,0,B|82:261|152:257,1,120,8|2
256,288,45425,5,10
256,112,45675,1,10
256,200,45925,5,10
256,24,46175,1,10
360,56,46425,5,0
464,32,46675,1,0
464,32,46800,1,10
464,136,47050,2,0,B|448:200,1,60,0|10
360,256,47425,2,0,B|336:320,1,60,0|10
232,336,47800,1,0
232,336,47925,2,0,B|120:288,1,120,10|10
121,288,48300,5,0
121,288,48425,1,0
64,192,48675,1,10
91,145,48800,1,0
200,144,49050,1,10
239,107,49175,1,0
328,48,49425,5,0
339,69,49550,1,2
350,90,49675,1,0
361,111,49800,1,0
373,132,49925,1,2
384,153,50050,1,0
395,175,50175,1,0
406,196,50300,1,2
418,217,50425,1,0
256,360,50925,5,0
104,208,51425,2,0,B|156:315,1,120,2|2
256,272,51925,1,0
256,248,52050,1,2
256,224,52175,1,0
256,200,52300,1,2
256,176,52425,6,0,B|296:128|368:136,1,120,4|2
363,135,52800,1,0
363,135,52925,1,8
280,72,53175,1,2
176,96,53425,2,0,B|168:163|216:203,1,120,0|2
216,203,53800,1,0
216,203,53925,1,8
184,304,54175,1,2
288,296,54425,6,0,B|408:328,1,120,0|2
400,216,54925,2,0,B|458:194|474:128,1,120,8|2
430,29,55425,1,0
316,96,55675,1,2
184,88,55925,1,8
40,104,56175,1,2
120,32,56425,6,0,B|104:152|104:152|64:200,1,180,0|2
66,197,56925,2,0,B|97:250|165:253,1,120,8|2
232,344,57425,1,0
336,312,57675,1,2
389,302,57800,1,0
436,275,57925,1,8
444,167,58175,1,2
362,96,58425,6,0,B|337:101|337:101|345:115|345:115|316:113|316:113|324:127|324:127|293:137,1,120,0|2
160,86,58925,2,0,B|165:110|165:110|179:102|179:102|177:131|177:131|191:123|191:123|201:154,1,120,8|2
150,288,59425,2,0,B|174:282|174:282|166:268|166:268|195:270|195:270|187:256|187:256|218:246,1,120,0|2
352,298,59925,2,0,B|346:273|346:273|332:281|332:281|334:252|334:252|320:260|320:260|310:229,1,120,8|2
201,155,60425,5,0
292,137,60675,1,2
310,228,60925,1,8
219,246,61175,1,2
218,115,61425,5,0
332,154,61675,1,2
293,268,61925,1,8
179,229,62175,1,2
263,81,62425,5,0
366,199,62675,1,2
248,302,62925,1,8
145,184,63175,1,2
336,72,63425,5,0
136,111,63675,1,2
175,311,63925,1,8
375,272,64175,1,2
272,304,64425,6,0,B|312:256|312:256|256:152,1,180,0|2
256,152,64925,2,0,B|261:84|316:54,1,120,8|2
315,54,65300,1,0
315,54,65425,1,0
416,96,65675,2,0,B|440:128|400:144|400:144|440:160|416:192,1,120,2|8
328,256,66175,2,0,B|304:288|344:304|344:304|304:320|328:352,1,120,2|0
216,344,66675,5,2
216,344,66800,1,8
112,312,67050,1,0
112,312,67175,1,10
40,232,67425,2,0,B|0:280,4,60,0|2|0|2|8
128,176,68175,1,2
128,160,68300,1,0
128,144,68425,6,0,B|208:104|304:120,1,180,4|2
336,163,68925,2,0,B|389:192|449:160,1,120,8|2
387,71,69425,1,0
387,71,69550,2,0,B|400:192,1,120,0|2
361,228,69925,2,0,B|348:349,1,120,8|2
256,296,70425,6,0,B|152:272|152:272|72:304,1,180,0|2
45,261,70925,2,0,B|15:207|47:147,1,120,8|2
127,73,71425,1,0
232,48,71675,1,2
232,48,71800,2,0,B|344:104,1,120,8|0
339,101,72175,1,10
448,112,72425,6,0,B|448:160|408:184|408:184|416:280,1,180,0|2
377,315,72925,2,0,B|327:363|267:349,1,120,8|2
176,296,73425,2,0,B|224:184,1,120,0|2
223,185,73800,1,0
223,185,73925,2,0,B|175:136|113:148,1,120,8|2
38,257,74425,5,0
165,291,74675,1,2
296,279,74925,1,8
420,238,75175,1,2
480,355,75425,5,0
367,286,75675,1,2
305,169,75925,1,8
279,39,76175,1,2
176,72,76425,6,0,B|128:192,1,120,0|2
80,200,76800,2,0,B|113:252|181:252,1,120,8|0
181,253,77175,1,10
256,336,77425,2,0,B|384:312,1,120,0|2
373,313,77800,1,8
440,232,78050,2,0,B|488:192,2,60,0|10|0
440,232,78425,6,0,B|350:194|304:118,1,180,0|2
304,118,78925,2,0,B|184:96,1,120,8|2
80,64,79425,1,0
48,168,79675,1,2
48,168,79800,1,8
72,272,80050,1,0
72,272,80175,2,0,B|128:304,1,60,10|0
124,301,80425,6,0,B|256:280|256:280|312:304,1,180,0|2
344,328,80925,2,0,B|392:280|380:218,1,120,8|2
320,128,81425,1,0
135,57,81675,1,2
243,223,81925,1,8
253,25,82175,1,2
128,179,82425,1,0
51,254,82675,5,2
51,254,82800,1,8
149,299,83050,1,0
149,299,83175,1,10
253,272,83425,1,0
348,322,83675,1,2
388,285,83800,1,0
414,240,83925,1,8
434,190,84050,1,2
438,137,84175,1,0
348,77,84425,5,0
248,48,84675,1,2
194,47,84800,2,0,B|93:131,1,120,8|0
48,131,85175,1,10
104,224,85425,5,2
288,344,85675,1,2
408,160,85925,1,10
224,40,86175,1,10
248,264,87425,6,0,B|237:248|237:248|253:246|253:246|242:231|242:231|240:215|240:215|245:198|245:198|229:201|229:201|234:184,1,120,4|4
