osu file format v9

[General]
AudioFilename: 5.mp3
AudioLeadIn: 500
PreviewTime: 1300
Countdown: 0
SampleSet: Soft
StackLeniency: 0.7
Mode: 0
LetterboxInBreaks: 1

[Editor]
DistanceSpacing: 0
BeatDivisor: 4
GridSize: 8

[Metadata]
Title:Fan Rinin
Artist:Nanase Hikaru
Creator:JauiPlaY
Version:Hard
Source:Infinite Stratos
Tags:is ost

[Difficulty]
HPDrainRate:3
CircleSize:4
OverallDifficulty:5
ApproachRate:5
SliderMultiplier:1.6
SliderTickRate:1

[Events]
//Background and Video events
0,0,"a1.jpg"
//Break Periods
//Storyboard Layer 0 (Background)
//Storyboard Layer 1 (Fail)
//Storyboard Layer 2 (Pass)
//Storyboard Layer 3 (Foreground)
//Storyboard Sound Samples
//Background Colour Transformations
3,100,255,255,255

[TimingPoints]
425,500,4,2,1,85,1,0
2425,-100,4,2,1,60,0,1
2550,-100,4,2,1,85,0,0
18425,-100,4,2,1,60,0,0
18550,-100,4,2,1,85,0,0
52425,-100,4,2,1,60,0,1
52550,-100,4,2,1,85,0,0
68425,-100,4,2,1,60,0,1
68550,-100,4,2,1,85,0,1
87425,-100,4,2,1,60,0,1
87550,-100,4,2,1,85,0,0
87675,-100,4,2,1,60,0,1
87800,-100,4,2,1,85,0,0

[Colours]
Combo1 : 255,227,117
Combo2 : 0,170,0
Combo3 : 180,105,105
Combo4 : 255,238,202

[HitObjects]
224,96,1425,1,0
184,168,1675,1,0
256,208,1925,1,0
216,280,2175,1,0
288,320,2425,6,0,B|378:353|422:268,1,160,4|8
488,224,3175,1,0
416,184,3425,2,0,B|321:191|301:97,1,160,0|8
224,72,4175,1,0
152,112,4425,6,0,B|195:139|173:199|110:211|91:163,1,160,0|8
40,224,5175,1,0
88,288,5425,2,0,B|168:320,1,80,0|2
240,328,5925,2,0,B|312:280,1,80,8|2
264,216,6425,6,0,B|286:122|382:133,2,160,0|8|0
184,200,7675,2,0,B|152:168,2,40,2|0|8
184,200,8175,1,2
216,128,8425,6,0,B|240:48,1,80
312,88,8925,2,0,B|288:168,1,80,10|2
368,184,9425,2,0,B|392:104,1,80
464,144,9925,2,0,B|440:224,1,80,10|2
432,304,10425,6,0,B|376:344|320:304,1,120
320,304,10925,2,0,B|240:336,1,80,8|0
168,352,11425,2,0,B|112:248,1,120
111,246,11925,2,0,B|48:192,1,80,8|0
16,120,12425,5,0
88,80,12675,1,0
168,96,12925,1,8
224,152,13175,1,0
264,80,13425,5,0
224,152,13675,1,2
232,232,13925,1,8
288,288,14175,1,2
360,320,14425,6,0,B|400:208,1,120
400,208,14925,2,0,B|384:128,1,80,10|2
312,160,15425,1,0
232,160,15675,1,0
160,120,15925,1,10
128,48,16175,1,2
256,192,16425,12,4,18425
256,288,18925,6,0,B|336:264,2,80,0|2|0
172,144,19925,2,0,B|153:225,2,80,0|2|0
339,144,20925,2,0,B|278:86,2,80,0|2|0
328,224,21675,1,2
384,280,21925,2,0,B|320:328,1,80,0|2
240,312,22425,6,0,B|147:338|110:249,1,160,0|2
48,200,23175,1,2
136,64,23675,2,0,B|184:136,1,80,0|2
256,104,24175,1,0
320,152,24425,6,0,B|386:222|463:164,1,160,0|2
464,88,25175,1,2
320,152,25675,2,0,B|264:208,1,80,2|0
184,184,26175,2,0,B|168:280,1,80,2|0
120,112,26925,6,0,B|72:48,2,80,0|2|0
256,192,27925,2,0,B|256:280,2,80,0|2|0
392,112,28925,2,0,B|440:48,2,80,0|2|0
400,192,29675,1,2
360,264,29925,1,0
288,304,30175,1,2
208,304,30425,6,0,B|128:328,1,80
131,326,30800,1,2
56,296,31050,2,0,B|32:264,1,40,0|2
56,184,31425,2,0,B|80:152,1,40,0|2
96,72,31800,2,0,B|136:56,1,40,0|2
208,88,32175,1,2
288,72,32425,5,2
368,96,32675,2,0,B|352:136,2,40,2|0|0
448,96,33175,1,2
464,176,33425,2,0,B|424:256,1,80,2|2
352,224,33925,2,0,B|280:280,1,80,2|2
224,320,34425,5,0
64,288,34925,1,8
224,320,35425,2,0,B|144:296,1,80
64,288,35925,2,0,B|32:216,1,80,8|0
96,168,36425,6,0,B|189:190|222:100,1,160,0|8
296,240,37425,2,0,B|352:296,1,80
432,312,37925,2,0,B|440:224,1,80,8|0
472,160,38425,6,0,B|420:78|333:120,1,160,0|8
176,80,39425,2,0,B|96:64,2,80,0|0|8
240,224,40425,6,0,B|213:315|118:299,1,160,0|8
128,136,41425,2,0,B|160:208,1,80
240,224,41925,2,0,B|320:264,1,80,8|0
392,256,42425,6,0,B|388:308|449:324|495:280|469:237,1,160,0|8
496,160,43175,1,0
472,80,43425,2,0,B|392:56,1,80,8|8
160,112,44425,6,0,B|163:59|102:43|56:87|82:130,1,160,0|8
64,208,45175,1,0
112,272,45425,2,0,B|192:320,1,80,8|8
256,296,45925,2,0,B|352:312,1,80,8|8
408,344,46425,6,0,B|448:272,1,80,10|0
446,274,46800,1,10
472,200,47050,2,0,B|448:168,1,40,0|10
368,168,47425,2,0,B|376:128,1,40,0|10
328,64,47800,2,0,B|296:88,1,40,0|10
216,104,48175,6,0,B|224:152,2,40,10|0|0
136,112,48675,2,0,B|96:96,1,40,10|0
56,168,49050,2,0,B|72:208,1,40,10|0
72,288,49425,2,0,B|105:378|197:355,1,160,2|0
352,304,50425,6,0,B|424:160,1,160,2|0
312,48,51425,2,0,B|256:112,1,80,2|2
184,136,51925,2,0,B|192:176,2,40,2|0|0
112,96,52425,6,0,B|32:149|75:234,1,160,4|8
152,248,53175,1,0
191,175,53425,2,0,B|351:143,1,160,0|8
408,88,54175,1,0
472,136,54425,6,0,B|505:226|419:269,1,160,0|8
376,336,55175,1,0
304,296,55425,1,0
256,232,55675,1,2
248,152,55925,2,0,B|168:128,1,80,8|2
104,88,56425,6,0,B|52:134|76:198,1,120
75,196,56925,2,0,B|48:280,1,80,8|0
120,304,57425,1,0
200,288,57675,2,0,B|224:320,2,40,2|0|8
256,232,58175,2,0,B|280:200|328:200,1,80,2|0
384,256,58675,5,0
448,208,58925,2,0,B|416:136,1,80,10|2
336,128,59425,1,0
280,72,59675,1,0
200,48,59925,1,10
120,64,60175,1,2
40,56,60425,6,0,B|64:176,1,120
63,173,60925,2,0,B|104:192|112:232,1,80,8|0
72,304,61425,2,0,B|112:328|152:320|184:280,1,120
179,285,61925,2,0,B|264:320,1,80,8|0
328,280,62425,6,0,B|352:264|352:264|368:216,1,80
360,136,62925,2,0,B|405:118|405:118|438:126,1,80,8|0
448,208,63425,1,0
368,215,63675,1,2
290,195,63925,1,8
233,138,64175,1,2
224,56,64425,6,0,B|104:112,1,120
115,106,64925,2,0,B|80:136|80:176,1,80,8|2
88,256,65425,2,0,B|48:272,2,40,2|0|0
144,312,65925,2,0,B|176:336,2,40,8|0|0
256,192,66425,12,8,67925
136,216,68425,6,0,B|95:249|125:305|188:309|202:260,1,160,4|8
280,280,69175,1,0
328,344,69425,2,0,B|440:232,1,160,0|8
400,160,70175,1,0
320,144,70425,6,0,B|227:170|191:81,1,160,0|8
112,56,71175,1,0
64,120,71425,2,0,B|32:152|32:152|40:184,1,80,0|2
112,224,71925,2,0,B|120:257|120:257|88:289,1,80,8|2
152,336,72425,6,0,B|264:296,1,120
265,295,72925,2,0,B|290:325|338:317,1,80,8|0
392,260,73425,1,0
407,181,73675,2,0,B|448:168,2,40,2|0|8
366,112,74175,1,2
296,72,74425,6,0,B|216:88,1,80
200,168,74925,2,0,B|280:184,1,80,10|2
264,264,75425,2,0,B|184:280,1,80
168,360,75925,2,0,B|248:376,1,80,10|2
312,328,76425,5,0
264,264,76675,1,0
248,184,76925,1,8
264,104,77175,1,0
328,160,77425,5,0
248,184,77675,1,0
168,176,77925,1,8
96,144,78175,1,0
32,192,78425,6,0,B|72:272,1,80
128,320,78925,2,0,B|168:240,1,80,8|0
240,224,79425,2,0,B|280:304,1,80,0|2
336,352,79925,2,0,B|376:272,1,80,8|2
448,256,80425,6,0,B|432:136,1,120
432,137,80925,2,0,B|400:104|360:112,1,80,10|2
280,136,81425,1,0
200,120,81675,1,0
144,64,81925,1,10
64,56,82175,1,2
8,112,82425,6,0,B|56:192,1,80
49,180,82800,1,8
80,256,83050,2,0,B|64:304,1,40,0|10
136,336,83425,2,0,B|176:336|176:336|208:312,1,80
264,256,83925,2,0,B|296:280|296:280|336:280,1,80,10|2
408,320,84425,6,0,B|448:248,1,80,0|8
446,250,84800,1,0
400,184,85050,2,0,B|360:176,1,40,8|2
288,144,85425,5,0
208,160,85675,1,0
224,240,85925,1,10
304,224,86175,1,10
256,96,87425,6,0,B|256:112|256:112|248:120|248:120|264:120|264:120|256:128|256:128|256:152,1,80,4|4
