osu file format v12

[General]
AudioFilename: sm21607567.mp3
AudioLeadIn: 0
PreviewTime: -1
Countdown: 0
SampleSet: None
StackLeniency: 0.5
Mode: 0
LetterboxInBreaks: 1
WidescreenStoryboard: 1

[Editor]
Bookmarks: 63693,74272,80824,84377,109561,127009,155035,190482,191745
DistanceSpacing: 0.6
BeatDivisor: 4
GridSize: 4

[Metadata]
Title:Seidenki
TitleUnicode:静雷気。よ!静電気。じゃないわ!
Artist:Nanao
ArtistUnicode:七生
Creator:OrangeNeKo
Version:Neko.II
Source:
Tags:
BeatmapID:361534
BeatmapSetID:145822

[Difficulty]
HPDrainRate:7
CircleSize:4
OverallDifficulty:7
ApproachRate:9
SliderMultiplier:1.8
SliderTickRate:1

[Events]
//Background and Video events
Video,0,"sm21607567.flv"
0,0,"9.jpg",0,0
//Break Periods
2,114892,126566
2,167945,189882
//Storyboard Layer 0 (Background)
//Storyboard Layer 1 (Fail)
//Storyboard Layer 2 (Pass)
//Storyboard Layer 3 (Foreground)
//Storyboard Sound Samples
//Background Colour Transformations
3,100,163,162,255

[TimingPoints]
1009,315.789473684211,4,1,1,70,1,0
63693,-100,4,2,2,70,0,0
64166,-100,4,1,1,70,0,0
76245,-100,4,2,1,60,0,0
76482,-100,4,1,1,70,0,0
80982,-100,4,2,1,60,0,0
81219,-100,4,1,1,70,0,0
81298,-100,4,2,1,60,0,0
81535,-100,4,1,1,70,0,0
81614,-100,4,2,1,60,0,0
81693,-100,4,1,1,70,0,0
81772,-100,4,2,1,60,0,0
81851,-100,4,1,1,70,0,0
81930,-100,4,2,1,60,0,0
82009,-100,4,1,1,70,0,0
82087,-100,4,2,1,60,0,0
82166,-100,4,1,1,70,0,0
82245,-100,4,2,1,60,0,0
82324,-100,4,1,1,70,0,0
82403,-100,4,2,1,60,0,0
82482,-100,4,1,1,70,0,0
82561,-100,4,2,1,60,0,0
82798,-100,4,1,1,70,0,0
82877,-100,4,2,1,60,0,0
83114,-100,4,1,1,70,0,0
83193,-100,4,2,1,60,0,0
83272,-100,4,1,1,70,0,0
83351,-100,4,2,1,60,0,0
83430,-100,4,1,1,70,0,0
83509,-100,4,2,1,60,0,0
83587,-100,4,1,1,70,0,0
83666,-100,4,2,1,60,0,0
83745,-100,4,1,1,70,0,0
83824,-100,4,2,1,60,0,0
83903,-100,4,1,1,70,0,0
83982,-100,4,2,1,60,0,0
84061,-100,4,1,1,70,0,0
94482,-80,4,1,1,70,0,1
103166,-80,4,2,1,60,0,1
104114,-80,4,1,1,70,0,1
109324,-66.6666666666667,4,1,1,70,0,1
109640,-80,4,1,1,70,0,1
111930,-80,4,2,1,60,0,1
112166,-80,4,1,1,70,0,1
114377,-133.333333333333,4,1,1,70,0,1
114693,-100,4,1,1,70,0,0
129377,-100,4,2,1,60,0,0
129535,-100,4,1,1,70,0,0
129614,-100,4,2,1,60,0,0
129693,-100,4,1,1,70,0,0
129772,-100,4,2,1,60,0,0
129851,-100,4,1,1,70,0,0
129930,-100,4,2,1,60,0,0
130009,-100,4,1,1,70,0,0
130087,-100,4,2,1,60,0,0
130166,-100,4,1,1,70,0,0
134035,-100,4,2,1,60,0,0
134272,-100,4,1,1,70,0,0
134351,-100,4,2,1,60,0,0
134587,-100,4,1,1,70,0,0
134666,-100,4,2,1,60,0,0
134903,-100,4,1,1,70,0,0
134982,-100,4,2,1,60,0,0
135061,-100,4,1,1,70,0,0
135140,-100,4,2,1,60,0,0
135219,-100,4,1,1,70,0,0
135298,-100,4,2,1,60,0,0
135377,-100,4,1,1,70,0,0
135456,-100,4,2,1,60,0,0
135535,-100,4,1,1,70,0,0
135614,-100,4,2,1,60,0,0
135693,-100,4,1,1,70,0,0
135772,-100,4,2,1,60,0,0
135851,-100,4,1,1,70,0,0
135930,-100,4,2,1,60,0,0
136009,-100,4,1,1,70,0,0
136087,-100,4,2,1,60,0,0
136166,-100,4,1,1,70,0,0
136245,-100,4,2,1,60,0,0
136324,-100,4,1,1,70,0,0
136403,-100,4,2,1,60,0,0
136482,-100,4,1,1,70,0,0
136561,-100,4,2,1,60,0,0
136640,-100,4,1,1,70,0,0
136719,-100,4,2,1,60,0,0
136798,-100,4,1,1,70,0,0
136877,-100,4,2,1,60,0,0
136956,-100,4,1,1,70,0,0
137035,-100,4,2,1,60,0,0
137114,-100,4,1,1,70,0,0
147535,-80,4,1,1,70,0,1
152035,-80,4,2,1,60,0,1
152272,-80,4,1,1,70,0,1
154798,-66.6666666666667,4,1,1,70,0,1
154877,-66.6666666666667,4,2,1,60,0,1
154956,-80,4,1,1,70,0,1
155035,-80,4,2,1,60,0,1
155114,-80,4,1,1,70,0,1
155193,-80,4,2,1,60,0,1
155272,-80,4,1,1,70,0,1
155351,-80,4,2,1,60,0,1
155587,-80,4,1,1,70,0,1
155666,-80,4,2,1,60,0,1
155903,-80,4,1,1,70,0,1
155982,-80,4,2,1,60,0,1
156219,-80,4,2,1,60,0,1
157166,-80,4,1,1,70,0,1
162377,-66.6666666666667,4,1,1,70,0,1
162693,-80,4,1,1,70,0,1
164982,-80,4,2,1,60,0,1
165219,-80,4,1,1,70,0,1
167509,-80,4,2,1,60,0,1
167745,-133.333333333333,4,1,1,70,0,0
196877,-133.333333333333,4,2,1,60,0,0
197114,-133.333333333333,4,1,1,70,0,0
197193,-133.333333333333,4,2,1,60,0,0
197430,-133.333333333333,4,1,1,70,0,0
197509,-133.333333333333,4,2,1,60,0,0
197745,-133.333333333333,4,1,1,70,0,0
200587,-80,4,2,1,60,0,0
201851,-80,4,1,1,70,0,0
202482,-66.6666666666667,4,1,1,70,0,0
202798,-80,4,1,1,70,0,0
203114,-80,4,1,1,70,0,1
210298,-80,4,2,1,60,0,1
210377,-80,4,1,1,70,0,1
212587,-80,4,2,1,60,0,1
213219,-80,4,1,1,70,0,1
222772,-80,4,2,1,60,0,1
223009,-80,4,1,1,70,0,1
223087,-80,4,2,1,60,0,1
223324,-80,4,1,1,70,0,1
232009,-80,4,2,1,60,0,1
232956,-80,4,1,1,70,0,1
238166,-66.6666666666667,4,1,1,70,0,1
238482,-80,4,1,1,70,0,1
240456,-80,4,2,1,60,0,1
240693,-80,4,1,1,70,0,1
240772,-80,4,2,1,60,0,1
241009,-80,4,1,1,70,0,1
248272,-100,4,1,1,70,0,0

[Colours]
Combo1 : 64,128,128
Combo2 : 255,255,128
Combo3 : 0,128,64

[HitObjects]
72,192,63693,1,2,0:0:0:0:
180,152,63851,1,2,0:0:0:0:
288,192,64009,1,2,0:0:0:0:
396,152,64166,6,0,P|392:200|396:244,1,90,4|0,0:0|0:0,0:0:0:0:
500,296,64482,2,0,P|504:248|500:204,1,90,8|0,0:0|0:0,0:0:0:0:
488,88,64798,1,0,0:0:0:0:
488,88,65114,5,8,0:0:0:0:
380,44,65272,1,0,0:0:0:0:
364,40,65351,1,0,0:0:0:0:
348,36,65430,2,0,B|304:48|304:48|296:40|296:40|264:48,1,90,0|0,0:0|0:0,0:0:0:0:
180,132,65745,1,8,0:0:0:0:
64,108,65903,1,0,0:0:0:0:
52,92,65982,1,0,0:0:0:0:
40,76,66061,1,0,0:0:0:0:
144,20,66219,5,0,0:0:0:0:
180,132,66377,1,8,0:0:0:0:
172,184,66535,1,0,0:0:0:0:
64,228,66693,2,0,B|65:264|65:264|54:268|54:268|53:312,1,90,0|0,0:0|0:0,0:0:0:0:
168,276,67009,2,0,B|181:310|181:310|172:316|172:316|183:356,1,90,8|0,0:0|0:0,0:0:0:0:
280,292,67324,1,0,0:0:0:0:
280,292,67641,5,8,0:0:0:0:
296,240,67798,1,0,0:0:0:0:
392,308,67956,2,0,L|368:216,1,90,0|0,0:0|0:0,0:0:0:0:
484,244,68272,1,8,0:0:0:0:
444,208,68430,1,0,0:0:0:0:
352,136,68587,2,0,B|296:136|296:136|261:118|261:118|260:76|260:76|284:40,1,180,0|8,0:0|0:0,0:0:0:0:
400,24,69061,5,0,0:0:0:0:
464,120,69219,2,0,L|444:216,1,90,0|0,0:0|0:0,0:0:0:0:
352,136,69535,1,8,0:0:0:0:
316,176,69693,1,0,0:0:0:0:
272,68,69851,6,0,L|184:100,1,90,0|0,0:0|0:0,0:0:0:0:
76,64,70166,1,8,0:0:0:0:
44,108,70324,1,0,0:0:0:0:
148,160,70482,5,0,0:0:0:0:
148,212,70640,2,0,B|147:255|147:255|141:261|141:261|139:301,1,90,0|8,0:0|0:0,0:0:0:0:
28,332,70956,1,0,0:0:0:0:
140,300,71114,6,0,B|188:320|188:320|228:320,1,90,0|0,0:0|0:0,0:0:0:0:
336,356,71430,1,8,0:0:0:0:
432,292,71587,1,0,0:0:0:0:
416,284,71666,1,0,0:0:0:0:
400,276,71745,1,0,0:0:0:0:
288,240,71903,2,0,B|310:207|310:207|304:198|304:198|326:166,1,90,0|8,0:0|0:0,0:0:0:0:
384,64,72219,1,0,0:0:0:0:
496,92,72377,5,0,0:0:0:0:
472,140,72535,1,0,0:0:0:0:
356,148,72693,2,0,P|364:100|388:60,1,90,8|0,0:0|0:0,0:0:0:0:
280,116,73009,2,0,P|263:72|265:27,1,90,0|0,0:0|0:0,0:0:0:0:
200,128,73324,1,8,0:0:0:0:
164,88,73482,1,0,0:0:0:0:
172,204,73640,1,0,0:0:0:0:
120,192,73798,2,0,B|78:192|78:192|79:183|38:157,1,90,0|8,0:0|0:0,0:0:0:0:
56,44,74114,5,0,0:0:0:0:
164,88,74272,2,0,B|152:136|128:172,1,90,4|0,0:0|0:0,0:0:0:0:
236,124,74587,1,8,0:0:0:0:
240,176,74745,1,0,0:0:0:0:
292,72,74903,2,0,P|320:116|336:160,1,90,0|0,0:0|0:0,0:0:0:0:
368,40,75219,1,8,0:0:0:0:
412,72,75377,1,0,0:0:0:0:
452,184,75535,6,0,P|448:232|452:280,1,90,0|0,0:0|0:0,0:0:0:0:
356,340,75850,1,8,0:0:0:0:
352,288,76009,1,0,0:0:0:0:
252,232,76166,1,0,0:0:0:0:
248,248,76245,1,0,0:0:0:0:
244,264,76324,1,0,0:0:0:0:
244,284,76403,1,0,0:0:0:0:
248,300,76482,1,8,0:0:0:0:
144,356,76640,5,0,0:0:0:0:
48,288,76798,2,0,P|92:272|132:244,1,90,0|0,0:0|0:0,0:0:0:0:
188,148,77114,1,8,0:0:0:0:
72,144,77272,1,0,0:0:0:0:
56,136,77351,1,0,0:0:0:0:
40,128,77430,1,0,0:0:0:0:
124,48,77587,5,0,0:0:0:0:
188,148,77746,1,8,0:0:0:0:
288,84,77903,1,0,0:0:0:0:
304,92,77982,1,0,0:0:0:0:
320,100,78061,1,0,0:0:0:0:
376,200,78219,1,0,0:0:0:0:
484,156,78377,2,0,B|498:121|498:121|492:113|492:113|509:70,1,90,8|0,0:0|0:0,0:0:0:0:
400,124,78693,2,0,B|385:176|369:206|369:206|382:215|382:215|369:243|360:287,1,180,0|8,0:0|0:0,0:0:0:0:
256,340,79166,5,0,0:0:0:0:
140,340,79324,2,0,P|92:332|52:340,1,90,0|0,0:0|0:0,0:0:0:0:
136,260,79640,1,8,0:0:0:0:
188,276,79798,1,0,0:0:0:0:
276,200,79956,2,0,P|228:192|188:200,1,90,0|0,0:0|0:0,0:0:0:0:
272,120,80272,1,8,0:0:0:0:
324,136,80430,1,0,0:0:0:0:
412,60,80587,2,0,P|364:52|324:60,1,90,0|0,0:0|0:0,0:0:0:0:
208,84,80903,6,0,L|196:132,1,45,8|0,0:0|0:0,0:0:0:0:
184,176,81061,1,0,0:0:0:0:
168,224,81140,1,0,0:0:0:0:
132,248,81219,2,0,L|80:256,1,45,0|0,0:0|0:0,0:0:0:0:
36,252,81377,1,0,0:0:0:0:
12,208,81456,1,0,0:0:0:0:
12,160,81535,6,0,L|44:128,1,45,8|0,0:0|0:0,0:0:0:0:
64,128,81693,2,0,L|100:156,1,45,0|0,0:0|0:0,0:0:0:0:
116,156,81851,2,0,L|156:124,1,45,0|0,0:0|0:0,0:0:0:0:
168,128,82009,6,0,L|212:156,1,45,0|0,0:0|0:0,0:0:0:0:
224,152,82166,2,0,L|268:128,1,45,8|0,0:0|0:0,0:0:0:0:
280,132,82324,2,0,L|320:156,1,45,0|0,0:0|0:0,0:0:0:0:
336,156,82482,6,0,L|380:136,1,45,0|0,0:0|0:0,0:0:0:0:
420,124,82640,1,0,0:0:0:0:
464,128,82719,1,0,0:0:0:0:
484,168,82798,2,0,L|480:220,1,45,8|0,0:0|0:0,0:0:0:0:
472,256,82956,1,0,0:0:0:0:
440,288,83035,1,0,0:0:0:0:
396,292,83114,6,0,L|356:268,1,45,0|0,0:0|0:0,0:0:0:0:
340,268,83272,2,0,L|300:296,1,45,0|0,0:0|0:0,0:0:0:0:
284,296,83430,2,0,L|244:268,1,45,8|0,0:0|0:0,0:0:0:0:
228,272,83587,6,0,L|184:300,1,45,0|0,0:0|0:0,0:0:0:0:
172,296,83745,2,0,L|132:264,1,45,0|0,0:0|0:0,0:0:0:0:
120,268,83903,2,0,L|80:296,1,45,0|0,0:0|0:0,0:0:0:0:
48,268,84061,1,8,0:0:0:0:
48,268,84377,5,4,0:0:0:0:
84,156,84535,1,0,0:0:0:0:
196,184,84693,1,8,0:0:0:0:
250,176,84851,1,0,0:0:0:0:
364,156,85009,1,0,0:0:0:0:
364,156,85325,5,8,0:0:0:0:
392,112,85482,1,0,0:0:0:0:
284,64,85640,1,0,0:0:0:0:
232,52,85798,1,0,0:0:0:0:
116,60,85956,2,0,B|85:84|85:84|87:97|87:97|57:122,1,90,8|0,0:0|0:0,0:0:0:0:
168,164,86272,2,0,B|148:198|148:198|155:208|155:208|135:243,1,90,0|0,0:0|0:0,0:0:0:0:
119,247,86509,1,0,0:0:0:0:
119,247,86587,1,8,0:0:0:0:
188,344,86745,5,0,0:0:0:0:
304,340,86903,2,0,B|300:296|300:296|308:288|308:288|304:244,1,90,0|0,0:0|0:0,0:0:0:0:
416,288,87219,2,0,B|420:244|420:244|412:236|412:236|416:192,1,90,8|0,0:0|0:0,0:0:0:0:
412,84,87535,1,0,0:0:0:0:
372,124,87693,2,0,P|328:100|300:60,1,90,0|8,0:0|0:0,0:0:0:0:
220,152,88009,5,0,0:0:0:0:
124,84,88166,2,0,L|204:32,1,90,0|0,0:0|0:0,0:0:0:0:
220,152,88482,1,8,0:0:0:0:
176,184,88640,1,0,0:0:0:0:
64,216,88798,2,0,B|120:292,1,90,0|0,0:0|0:0,0:0:0:0:
236,272,89114,2,0,P|208:328|184:340,1,90,8|0,0:0|0:0,0:0:0:0:
168,344,89351,1,0,0:0:0:0:
168,344,89430,1,0,0:0:0:0:
276,112,89745,6,0,P|304:56|328:44,1,90,8|0,0:0|0:0,0:0:0:0:
344,40,89982,1,0,0:0:0:0:
344,40,90061,1,0,0:0:0:0:
460,64,90219,1,0,0:0:0:0:
388,160,90378,1,8,0:0:0:0:
432,192,90535,1,0,0:0:0:0:
420,308,90693,2,0,P|372:276|340:264,1,90,0|0,0:0|0:0,0:0:0:0:
264,352,91009,1,8,0:0:0:0:
232,308,91166,1,0,0:0:0:0:
116,332,91324,2,0,P|136:268|152:248,1,90,0|0,0:0|0:0,0:0:0:0:
56,180,91640,2,0,P|110:145|134:143,1,90,8|0,0:0|0:0,0:0:0:0:
150,147,91877,1,0,0:0:0:0:
150,147,91956,1,0,0:0:0:0:
151,147,92272,5,8,0:0:0:0:
132,96,92430,1,0,0:0:0:0:
232,156,92587,2,0,P|228:96|236:64,1,90,0|0,0:0|0:0,0:0:0:0:
312,160,92904,1,8,0:0:0:0:
320,108,93061,1,0,0:0:0:0:
380,208,93219,2,0,P|404:156|432:128,1,90,0|0,0:0|0:0,0:0:0:0:
356,36,93535,1,8,0:0:0:0:
356,36,93851,5,2,0:0:0:0:
228,192,94009,1,2,0:0:0:0:
428,216,94166,1,8,0:0:0:0:
448,296,94324,1,0,0:0:0:0:
304,324,94482,6,0,B|244:328|208:324|208:324|192:344|192:344|148:336|88:344,1,225,4|8,0:0|0:0,0:0:0:0:
44,204,94956,1,0,0:0:0:0:
88,216,95035,1,0,0:0:0:0:
132,200,95114,2,0,B|188:200|232:184|232:184|252:204|252:204|296:184|348:192,1,225,2|8,0:0|0:0,0:0:0:0:
428,72,95587,5,0,0:0:0:0:
284,56,95745,2,0,B|232:52|232:52|220:56|220:56|168:52,1,112.5,2|0,0:0|0:0,0:0:0:0:
60,144,96061,5,8,0:0:0:0:
88,216,96219,1,0,0:0:0:0:
232,196,96377,2,0,B|196:268|164:268|164:268|168:284|168:284|112:296|84:348,1,225,2|8,0:0|0:0,0:0:0:0:
44,204,96851,5,0,0:0:0:0:
112,168,97009,2,0,B|136:196|160:204|160:204|136:212|116:232,2,112.5,2|0|8,0:0|0:0|0:0,0:0:0:0:
468,204,97482,1,0,0:0:0:0:
400,168,97640,2,0,B|376:196|352:204|352:204|376:212|396:232,2,112.5,2|0|8,0:0|0:0|0:0,0:0:0:0:
256,136,98114,5,0,0:0:0:0:
112,168,98272,1,2,0:0:0:0:
108,248,98430,1,0,0:0:0:0:
48,340,98587,2,0,P|132:336|168:328,1,112.5,8|0,0:0|0:0,0:0:0:0:
304,356,98903,2,0,B|272:336|236:320|236:320|252:292|264:248|264:248|288:264|336:264,1,225,2|8,0:0|0:0,0:0:0:0:
460,336,99377,5,0,0:0:0:0:
448,192,99535,2,0,B|445:168|447:139|447:139|458:129|458:129|463:108|458:80,1,112.5,2|0,0:0|0:0,0:0:0:0:
320,40,99851,1,8,0:0:0:0:
320,120,100009,1,0,0:0:0:0:
192,192,100166,2,0,B|194:168|192:139|192:139|181:129|181:129|176:108|181:80,1,112.5,2|0,0:0|0:0,0:0:0:0:
36,68,100482,1,8,0:0:0:0:
28,216,100640,1,0,0:0:0:0:
56,252,100719,1,0,0:0:0:0:
56,296,100798,1,2,0:0:0:0:
192,352,100956,1,0,0:0:0:0:
336,324,101114,5,8,0:0:0:0:
408,296,101272,1,0,0:0:0:0:
328,176,101430,2,0,B|288:216|288:216|300:244|300:244|260:272|264:376,1,225,2|8,0:0|0:0,0:0:0:0:
412,372,101903,1,0,0:0:0:0:
468,236,102061,1,2,0:0:0:0:
284,64,102219,1,2,0:0:0:0:
360,88,102377,1,0,0:0:0:0:
324,232,102535,2,0,P|276:188|276:136,1,112.5,8|0,0:0|0:0,0:0:0:0:
420,160,102851,1,2,0:0:0:0:
468,96,103009,1,0,0:0:0:0:
436,240,103166,5,4,0:0:0:0:
320,152,103324,1,2,0:0:0:0:
176,132,103482,1,2,0:0:0:0:
36,344,103640,1,2,0:0:0:0:
56,92,103798,1,2,0:0:0:0:
148,328,103956,1,2,0:0:0:0:
256,228,104114,6,0,L|244:192,1,28.125,2|0,0:0|0:0,0:0:0:0:
272,216,104193,2,0,L|272:180,1,28.125,0|0,0:0|0:0,0:0:0:0:
292,216,104272,2,0,L|304:176,1,28.125,2|0,0:0|0:0,0:0:0:0:
312,224,104351,2,0,L|340:196,1,28.125,0|0,0:0|0:0,0:0:0:0:
328,240,104430,2,0,L|360:232,1,28.125,2|0,0:0|0:0,0:0:0:0:
336,264,104509,2,0,L|372:268,1,28.125,0|0,0:0|0:0,0:0:0:0:
336,288,104587,6,0,B|304:332|304:332|232:360|232:360|184:316|144:316,1,225,4|8,0:0|0:0,0:0:0:0:
40,216,105061,1,0,0:0:0:0:
76,72,105219,2,0,B|88:132|88:132|104:136|104:136|116:176|112:176,1,112.5,2|0,0:0|0:0,0:0:0:0:
252,228,105535,2,0,B|240:168|240:168|224:164|224:164|212:124|216:124,1,112.5,8|0,0:0|0:0,0:0:0:0:
332,40,105851,1,2,0:0:0:0:
288,104,106009,2,0,P|328:148|384:164,1,112.5,0|8,0:0|0:0,0:0:0:0:
412,40,106324,1,0,0:0:0:0:
388,184,106482,1,2,0:0:0:0:
468,188,106640,2,0,P|492:120|488:80,1,112.5,0|8,0:0|0:0,0:0:0:0:
392,192,106956,5,0,0:0:0:0:
252,228,107114,1,2,0:0:0:0:
304,288,107272,2,0,B|349:279|349:279|362:292|362:292|411:284,1,112.5,0|8,0:0|0:0,0:0:0:0:
288,368,107587,1,0,0:0:0:0:
140,364,107745,2,0,B|94:372|94:372|81:359|81:359|32:367,1,112.5,2|0,0:0|0:0,0:0:0:0:
88,228,108062,1,8,0:0:0:0:
56,88,108219,1,0,0:0:0:0:
96,68,108298,1,0,0:0:0:0:
140,64,108378,1,2,0:0:0:0:
176,204,108535,1,0,0:0:0:0:
256,80,108693,5,8,0:0:0:0:
332,56,108851,1,0,0:0:0:0:
280,192,109009,2,0,P|336:180|392:192,1,112.5,2|0,0:0|0:0,0:0:0:0:
448,72,109324,2,0,L|456:140,1,67.5000025749208,8|0,0:0|0:0,0:0:0:0:
348,332,109640,6,0,B|308:320|256:324|256:324|240:344|240:344|176:344|128:316,1,225,4|0,0:0|0:0,0:0:0:0:
60,196,110114,1,8,0:0:0:0:
48,268,110193,1,8,0:0:0:0:
20,336,110272,2,0,P|36:264|32:224,1,112.5,2|0,0:0|0:0,0:0:0:0:
96,96,110587,1,8,0:0:0:0:
228,36,110745,1,0,0:0:0:0:
216,80,110824,1,0,0:0:0:0:
184,116,110903,1,2,0:0:0:0:
220,256,111061,1,0,0:0:0:0:
340,172,111219,1,8,0:0:0:0:
344,96,111377,1,0,0:0:0:0:
476,200,111535,5,2,0:0:0:0:
352,276,111693,1,8,0:0:0:0:
301,279,111772,1,8,0:0:0:0:
256,256,111851,5,8,0:0:0:0:
220,256,111930,1,0,0:0:0:0:
194,278,112009,1,0,0:0:0:0:
161,283,112087,1,0,0:0:0:0:
129,270,112166,6,0,P|115:214|125:158,1,112.5,2|0,0:0|0:0,0:0:0:0:
180,24,112482,1,8,0:0:0:0:
180,24,112561,1,0,0:0:0:0:
180,24,112640,1,2,0:0:0:0:
180,24,112798,6,0,P|192:76|180:136,1,112.5,0|2,0:0|0:0,0:0:0:0:
256,256,113113,1,8,0:0:0:0:
320,208,113272,2,0,P|360:152|352:56,1,168.75,4|0,0:0|0:0,0:0:0:0:
272,28,113587,5,8,0:0:0:0:
408,84,113745,1,8,0:0:0:0:
272,140,113903,1,8,0:0:0:0:
404,200,114061,1,4,0:0:0:0:
408,252,114140,1,0,0:0:0:0:
384,296,114219,1,0,0:0:0:0:
336,308,114298,1,0,0:0:0:0:
292,288,114377,2,0,B|256:288|234:299|234:299|224:312|224:312|192:316|152:304,1,135.000005149842,4|4,0:0|0:0,0:0:0:0:
108,104,127166,5,0,0:0:0:0:
108,104,127245,1,0,0:0:0:0:
108,104,127324,1,4,0:0:0:0:
96,220,127482,1,0,0:0:0:0:
200,272,127640,2,0,B|204:312|204:312|216:320|216:320|224:360,1,90,8|0,0:0|0:0,0:0:0:0:
276,248,127956,2,0,B|307:273|307:273|321:270|321:270|352:328|424:340,1,180,0|8,0:0|0:0,0:0:0:0:
436,224,128430,1,0,0:0:0:0:
436,224,128509,1,0,0:0:0:0:
436,224,128587,1,0,0:0:0:0:
344,152,128745,1,0,0:0:0:0:
456,116,128903,1,8,0:0:0:0:
456,116,129219,5,0,0:0:0:0:
372,36,129377,1,0,0:0:0:0:
356,40,129456,1,0,0:0:0:0:
340,44,129535,2,0,L|292:36,1,45,8|0,0:0|0:0,0:0:0:0:
288,52,129693,2,0,L|236:44,1,45,0|0,0:0|0:0,0:0:0:0:
232,60,129851,2,0,L|180:52,1,45,0|0,0:0|0:0,0:0:0:0:
176,68,130009,2,0,L|124:60,1,45,0|0,0:0|0:0,0:0:0:0:
96,88,130166,5,8,0:0:0:0:
100,168,130324,1,0,0:0:0:0:
216,172,130482,1,0,0:0:0:0:
188,248,130640,2,0,B|161:271|161:271|144:276|144:276|108:304,1,90,0|8,0:0|0:0,0:0:0:0:
224,348,130956,5,0,0:0:0:0:
224,348,131035,1,0,0:0:0:0:
224,348,131114,1,0,0:0:0:0:
296,312,131272,1,0,0:0:0:0:
400,364,131430,1,8,0:0:0:0:
408,284,131587,1,0,0:0:0:0:
472,188,131745,2,0,B|424:184|392:196|392:196|372:176|372:176|332:176|300:160,1,180,0|8,0:0|0:0,0:0:0:0:
236,64,132219,5,0,0:0:0:0:
352,56,132377,2,0,P|404:56|452:44,1,90,0|0,0:0|0:0,0:0:0:0:
360,136,132693,1,8,0:0:0:0:
320,208,132851,1,0,0:0:0:0:
224,140,133009,2,0,L|136:176,1,90,0|0,0:0|0:0,0:0:0:0:
136,56,133324,1,8,0:0:0:0:
56,40,133482,1,0,0:0:0:0:
16,152,133640,2,0,P|40:188|32:232,1,90,0|0,0:0|0:0,0:0:0:0:
104,328,133956,6,0,L|136:296,1,45,8|0,0:0|0:0,0:0:0:0:
156,296,134114,2,0,L|184:336,1,45,0|0,0:0|0:0,0:0:0:0:
200,332,134272,2,0,L|232:296,1,45,0|0,0:0|0:0,0:0:0:0:
276,288,134430,1,0,0:0:0:0:
320,288,134509,1,0,0:0:0:0:
364,288,134587,2,0,L|384:336,1,45,8|0,0:0|0:0,0:0:0:0:
428,332,134745,5,0,0:0:0:0:
472,332,134824,1,0,0:0:0:0:
480,288,134903,2,0,L|468:240,1,45,0|0,0:0|0:0,0:0:0:0:
468,228,135061,2,0,L|480:180,1,45,0|0,0:0|0:0,0:0:0:0:
480,168,135219,2,0,L|468:116,1,45,8|0,0:0|0:0,0:0:0:0:
468,108,135377,2,0,L|488:52,1,45,0|0,0:0|0:0,0:0:0:0:
488,48,135535,2,0,L|444:32,1,45,0|0,0:0|0:0,0:0:0:0:
428,32,135693,6,0,L|376:52,1,45,0|0,0:0|0:0,0:0:0:0:
368,52,135851,2,0,L|324:36,1,45,8|0,0:0|0:0,0:0:0:0:
308,36,136009,2,0,L|264:52,1,45,0|0,0:0|0:0,0:0:0:0:
248,52,136166,2,0,L|200:32,1,45,0|0,0:0|0:0,0:0:0:0:
188,32,136324,2,0,L|144:56,1,45,0|0,0:0|0:0,0:0:0:0:
132,56,136482,2,0,L|88:36,1,45,8|0,0:0|0:0,0:0:0:0:
80,52,136640,6,0,L|56:96,1,45,0|0,0:0|0:0,0:0:0:0:
52,108,136798,2,0,L|72:152,1,45,0|0,0:0|0:0,0:0:0:0:
76,168,136956,2,0,L|48:216,1,45,0|0,0:0|0:0,0:0:0:0:
52,252,137114,1,8,0:0:0:0:
272,336,137430,6,0,P|216:296|208:276,1,90,4|0,0:0|0:0,0:0:0:0:
156,172,137746,1,8,0:0:0:0:
208,172,137903,1,0,0:0:0:0:
228,56,138061,1,0,0:0:0:0:
228,56,138377,5,8,0:0:0:0:
160,100,138535,1,0,0:0:0:0:
76,180,138693,2,0,P|52:144|40:96,1,90,0|0,0:0|0:0,0:0:0:0:
160,100,139009,1,8,0:0:0:0:
192,176,139166,1,0,0:0:0:0:
288,104,139324,2,0,P|304:152|332:180,1,90,0|0,0:0|0:0,0:0:0:0:
448,184,139640,2,0,P|478:151|491:108,1,90,8|0,0:0|0:0,0:0:0:0:
476,96,139877,1,0,0:0:0:0:
476,96,139956,1,0,0:0:0:0:
380,28,140114,5,0,0:0:0:0:
288,104,140273,1,8,0:0:0:0:
280,184,140430,1,0,0:0:0:0:
376,248,140587,2,0,P|436:284|460:280,1,90,0|0,0:0|0:0,0:0:0:0:
352,344,140905,1,8,0:0:0:0:
272,352,141061,1,0,0:0:0:0:
156,344,141219,2,0,P|204:292|224:284,1,90,0|0,0:0|0:0,0:0:0:0:
280,184,141536,1,8,0:0:0:0:
280,184,141851,6,0,B|232:192|232:192|188:192,1,90,0|0,0:0|0:0,0:0:0:0:
104,112,142166,2,0,B|152:104|152:104|196:104,1,90,0|0,0:0|0:0,0:0:0:0:
212,104,142403,1,0,0:0:0:0:
212,104,142482,1,0,0:0:0:0:
464,276,142798,6,0,P|441:338|415:346,1,90,8|0,0:0|0:0,0:0:0:0:
404,345,143035,1,0,0:0:0:0:
404,345,143114,1,0,0:0:0:0:
352,240,143272,1,0,0:0:0:0:
420,144,143431,1,8,0:0:0:0:
420,64,143587,1,0,0:0:0:0:
316,120,143745,2,0,B|308:72|308:72|309:24,1,90,0|0,0:0|0:0,0:0:0:0:
196,64,144061,1,8,0:0:0:0:
200,144,144219,1,0,0:0:0:0:
84,160,144377,2,0,B|76:112|76:112|77:64,1,90,0|0,0:0|0:0,0:0:0:0:
176,136,144693,2,0,L|164:232,1,90,8|0,0:0|0:0,0:0:0:0:
148,232,144930,1,0,0:0:0:0:
148,232,145009,1,0,0:0:0:0:
352,348,145325,5,8,0:0:0:0:
272,364,145482,1,0,0:0:0:0:
160,328,145640,2,0,P|112:324|72:304,1,90,0|0,0:0|0:0,0:0:0:0:
168,236,145956,1,8,0:0:0:0:
248,228,146113,1,0,0:0:0:0:
336,148,146272,2,0,P|288:128|248:108,1,90,0|0,0:0|0:0,0:0:0:0:
144,76,146587,6,0,L|276:40,1,135,8|0,0:0|0:0,0:0:0:0:
292,36,146903,1,2,0:0:0:0:
332,232,147061,1,2,0:0:0:0:
444,64,147219,2,0,L|472:52,1,22.5,8|0,0:0|0:0,0:0:0:0:
452,88,147298,2,0,L|484:84,1,22.5,0|0,0:0|0:0,0:0:0:0:
452,112,147377,2,0,L|488:120,1,22.5,0|0,0:0|0:0,0:0:0:0:
444,136,147456,2,0,L|472:152,1,22.5,0|0,0:0|0:0,0:0:0:0:
432,156,147535,6,0,B|384:180|384:180|384:200|384:200|368:240,1,112.5,4|0,0:0|0:0,0:0:0:0:
428,372,147851,1,8,0:0:0:0:
476,272,148009,1,0,0:0:0:0:
336,312,148167,1,2,0:0:0:0:
228,344,148324,2,0,B|176:336|176:336|164:340|164:340|116:332,1,112.5,0|8,0:0|0:0,0:0:0:0:
112,184,148640,1,0,0:0:0:0:
248,240,148798,1,2,0:0:0:0:
344,184,148956,2,0,B|392:192|392:192|400:184|400:184|456:192,1,112.5,0|8,0:0|0:0,0:0:0:0:
404,52,149272,5,0,0:0:0:0:
276,124,149430,2,0,P|220:96|180:56,1,112.5,2|0,0:0|0:0,0:0:0:0:
72,156,149746,1,8,0:0:0:0:
40,48,149903,1,0,0:0:0:0:
156,140,150061,6,0,B|152:196|124:228|124:228|160:248|160:248|144:296|140:340,1,225,2|8,0:0|0:0,0:0:0:0:
40,228,150535,1,0,0:0:0:0:
168,140,150693,2,0,B|164:196|136:228|136:228|172:248|172:248|156:296|152:340,1,225,2|8,0:0|0:0,0:0:0:0:
260,236,151166,1,0,0:0:0:0:
356,344,151324,2,0,B|360:272|360:272|376:272|376:272|380:248,1,112.5,2|0,0:0|0:0,0:0:0:0:
436,112,151640,2,0,B|440:136|440:136|456:136|456:136|460:208,1,112.5,8|0,0:0|0:0,0:0:0:0:
324,148,151956,1,2,0:0:0:0:
292,112,152035,1,0,0:0:0:0:
240,116,152114,1,0,0:0:0:0:
212,72,152193,1,0,0:0:0:0:
244,32,152272,1,8,0:0:0:0:
104,68,152430,5,0,0:0:0:0:
52,204,152587,2,0,P|56:252|80:312,1,112.5,2|0,0:0|0:0,0:0:0:0:
124,172,152904,1,8,0:0:0:0:
180,272,153061,1,0,0:0:0:0:
304,352,153219,2,0,P|312:284|308:236,1,112.5,2|0,0:0|0:0,0:0:0:0:
416,340,153535,1,8,0:0:0:0:
448,232,153693,1,0,0:0:0:0:
396,96,153851,1,2,0:0:0:0:
488,36,154009,2,0,P|484:96|456:144,1,112.5,0|8,0:0|0:0,0:0:0:0:
320,100,154324,5,0,0:0:0:0:
176,84,154482,2,0,P|228:44|284:28,1,112.5,2|0,0:0|0:0,0:0:0:0:
248,176,154798,2,0,L|236:248,1,67.5000025749208,8|0,0:0|0:0,0:0:0:0:
160,320,154956,6,0,L|108:340,1,56.25,0|0,0:0|0:0,0:0:0:0:
60,316,155114,2,0,L|40:264,1,56.25,2|0,0:0|0:0,0:0:0:0:
64,220,155272,1,2,0:0:0:0:
104,192,155351,1,0,0:0:0:0:
148,216,155430,1,0,0:0:0:0:
192,192,155509,1,0,0:0:0:0:
240,212,155587,1,8,0:0:0:0:
268,252,155666,1,0,0:0:0:0:
300,292,155745,1,0,0:0:0:0:
300,344,155824,1,0,0:0:0:0:
332,304,155903,1,2,0:0:0:0:
384,300,155982,1,0,0:0:0:0:
428,280,156061,1,0,0:0:0:0:
452,236,156140,1,0,0:0:0:0:
452,184,156219,6,0,B|460:140|460:140|448:124|448:124|464:72,1,112.5,4|2,0:0|0:0,0:0:0:0:
348,172,156535,1,2,0:0:0:0:
128,44,156693,1,2,0:0:0:0:
380,40,156851,1,2,0:0:0:0:
148,140,157009,1,2,0:0:0:0:
48,244,157166,6,0,L|24:220,1,28.125,2|0,0:0|0:0,0:0:0:0:
64,232,157245,2,0,L|52:200,1,28.125,0|0,0:0|0:0,0:0:0:0:
84,228,157324,2,0,L|88:188,1,28.125,2|0,0:0|0:0,0:0:0:0:
108,232,157403,2,0,L|128:200,1,28.125,0|0,0:0|0:0,0:0:0:0:
124,244,157482,2,0,L|156:236,1,28.125,2|0,0:0|0:0,0:0:0:0:
128,268,157561,2,0,L|164:272,1,28.125,0|0,0:0|0:0,0:0:0:0:
124,292,157640,6,0,B|152:344|152:344|176:336|176:336|216:368|256:320|312:348,1,225,4|8,0:0|0:0,0:0:0:0:
448,288,158114,1,0,0:0:0:0:
312,236,158272,2,0,B|296:160|296:160|304:152|304:152|300:120,1,112.5,2|0,0:0|0:0,0:0:0:0:
414,36,158587,2,0,B|430:112|430:112|422:120|422:120|426:152,1,112.5,8|0,0:0|0:0,0:0:0:0:
448,288,158903,1,2,0:0:0:0:
304,320,159061,2,0,B|247:323|247:323|240:336|240:336|196:340,1,112.5,0|8,0:0|0:0,0:0:0:0:
72,268,159377,1,0,0:0:0:0:
128,132,159535,1,2,0:0:0:0:
216,208,159693,2,0,L|208:96,1,112.5,0|8,0:0|0:0,0:0:0:0:
60,84,160009,5,0,0:0:0:0:
208,96,160167,1,2,0:0:0:0:
312,144,160324,2,0,B|370:154|370:154|382:166|382:166|422:175,1,112.5,0|8,0:0|0:0,0:0:0:0:
492,48,160640,1,0,0:0:0:0:
348,80,160798,2,0,P|354:137|334:191,1,112.5,2|0,0:0|0:0,0:0:0:0:
436,296,161115,5,8,0:0:0:0:
480,192,161272,1,0,0:0:0:0:
356,268,161430,2,0,P|296:274|239:271,1,112.5,2|0,0:0|0:0,0:0:0:0:
120,352,161746,1,8,0:0:0:0:
232,352,161903,1,0,0:0:0:0:
188,212,162061,2,0,P|220:168|264:132,1,112.5,2|0,0:0|0:0,0:0:0:0:
136,148,162377,2,0,L|152:80,1,67.5000025749208,8|0,0:0|0:0,0:0:0:0:
56,280,162693,6,0,B|48:224|48:224|36:216|36:216|28:172,1,112.5,4|0,0:0|0:0,0:0:0:0:
124,60,163009,1,0,0:0:0:0:
244,148,163167,1,8,0:0:0:0:
264,80,163246,1,8,0:0:0:0:
324,40,163324,2,0,P|356:88|404:112,1,112.5,2|0,0:0|0:0,0:0:0:0:
456,248,163640,1,8,0:0:0:0:
368,320,163798,1,0,0:0:0:0:
340,280,163877,1,0,0:0:0:0:
336,228,163956,1,2,0:0:0:0:
240,340,164114,1,0,0:0:0:0:
152,224,164272,1,8,0:0:0:0:
77,312,164430,1,0,0:0:0:0:
68,167,164587,1,2,0:0:0:0:
240,240,164746,5,8,0:0:0:0:
216,194,164825,1,8,0:0:0:0:
173,167,164903,5,8,0:0:0:0:
139,173,164982,1,0,0:0:0:0:
105,166,165061,1,0,0:0:0:0:
80,136,165140,1,0,0:0:0:0:
70,103,165219,6,0,B|122:91|122:91|138:79|138:79|182:67,1,112.5,2|0,0:0|0:0,0:0:0:0:
320,76,165535,1,8,0:0:0:0:
320,76,165614,1,0,0:0:0:0:
320,76,165693,1,2,0:0:0:0:
424,176,165851,5,0,0:0:0:0:
320,216,166009,1,2,0:0:0:0:
112,356,166166,1,8,0:0:0:0:
48,116,166324,1,4,0:0:0:0:
48,116,166639,5,8,0:0:0:0:
180,52,166797,1,8,0:0:0:0:
232,188,166955,1,8,0:0:0:0:
100,252,167114,2,0,L|56:236,6,28.125,4|0|0|0|0|0|0,0:0|0:0|0:0|0:0|0:0|0:0|0:0,0:0:0:0:
140,284,167430,1,2,0:0:0:0:
188,268,167509,1,0,0:0:0:0:
220,308,167587,1,0,0:0:0:0:
260,340,167666,1,0,0:0:0:0:
304,316,167745,1,4,0:0:0:0:
256,192,190482,5,8,0:0:0:0:
256,192,190798,1,8,0:0:0:0:
136,200,191114,2,0,P|72:172|56:112,1,135.000005149842,0|8,0:0|0:0,0:0:0:0:
176,128,191745,2,0,P|232:86|292:102,1,135.000005149842,0|8,0:0|0:0,0:0:0:0:
212,196,192377,2,0,P|219:265|175:309,1,135.000005149842,0|8,0:0|0:0,0:0:0:0:
132,316,192851,1,0,0:0:0:0:
84,304,193009,2,0,P|104:276|200:256,1,135.000005149842,0|8,0:0|0:0,0:0:0:0:
260,328,193640,6,0,P|328:328|400:308,1,135.000005149842,0|8,0:0|0:0,0:0:0:0:
472,216,194272,2,0,P|404:216|332:236,1,135.000005149842,0|8,0:0|0:0,0:0:0:0:
260,140,194903,2,0,P|325:123|392:123,1,135.000005149842,0|8,0:0|0:0,0:0:0:0:
468,68,195456,5,0,0:0:0:0:
468,68,195535,2,0,P|432:132|372:152,1,135.000005149842,0|8,0:0|0:0,0:0:0:0:
448,248,196166,2,0,P|374:248|327:206,1,135.000005149842,0|8,0:0|0:0,0:0:0:0:
288,96,196798,2,0,L|280:60,3,33.7500012874604,0|0|0|0,0:0|0:0|0:0|0:0,0:0:0:0:
264,92,197114,2,0,L|246:59,3,33.7500012874604,8|0|0|0,0:0|0:0|0:0|0:0,0:0:0:0:
240,96,197430,2,0,L|215:68,3,33.7500012874604,0|0|0|0,0:0|0:0|0:0|0:0,0:0:0:0:
264,144,197745,5,8,0:0:0:0:
312,256,197903,1,0,0:0:0:0:
204,312,198061,2,0,P|184:248|200:184,1,135.000005149842,2|0,0:0|0:0,0:0:0:0:
152,72,198535,2,0,L|128:136,1,67.5000025749208,4|0,0:0|0:0,0:0:0:0:
8,160,198851,2,0,L|16:232,1,67.5000025749208,4|0,0:0|0:0,0:0:0:0:
72,336,199166,2,0,L|152:352,1,67.5000025749208,4|0,0:0|0:0,0:0:0:0:
256,320,199482,6,0,B|320:300,1,67.5000025749208,8|8,0:0|0:0,0:0:0:0:
396,204,199798,1,8,0:0:0:0:
276,188,199956,1,8,0:0:0:0:
360,100,200114,2,0,L|428:80,1,67.5000025749208,0|4,0:0|0:0,0:0:0:0:
256,96,200430,6,0,L|207:44,1,67.5000025749208,0|4,0:0|0:0,0:0:0:0:
176,36,200666,1,0,0:0:0:0:
164,68,200745,1,0,0:0:0:0:
140,92,200824,1,0,0:0:0:0:
112,112,200903,1,0,0:0:0:0:
80,124,200982,1,0,0:0:0:0:
48,128,201061,2,0,L|52:184,1,56.25,4|0,0:0|0:0,0:0:0:0:
64,216,201219,1,0,0:0:0:0:
84,244,201298,1,0,0:0:0:0:
112,264,201377,2,0,L|168:284,1,56.25,4|0,0:0|0:0,0:0:0:0:
196,296,201535,1,0,0:0:0:0:
228,300,201614,1,0,0:0:0:0:
260,300,201693,2,0,L|320:296,1,56.25,4|0,0:0|0:0,0:0:0:0:
316,196,202009,5,8,0:0:0:0:
220,164,202166,1,8,0:0:0:0:
280,84,202324,1,8,0:0:0:0:
376,116,202482,2,0,B|416:120|416:120|452:112,1,67.5000025749208,8|0,0:0|0:0,0:0:0:0:
400,260,202798,5,4,0:0:0:0:
304,296,202956,1,0,0:0:0:0:
212,336,203114,1,4,0:0:0:0:
400,260,203430,5,8,0:0:0:0:
256,276,203587,1,0,0:0:0:0:
112,296,203746,1,2,0:0:0:0:
272,52,204062,5,8,0:0:0:0:
160,60,204219,1,0,0:0:0:0:
52,164,204377,2,0,P|128:168|164:152,1,112.5,2|0,0:0|0:0,0:0:0:0:
308,152,204693,1,8,0:0:0:0:
380,64,204851,1,0,0:0:0:0:
428,84,204930,1,0,0:0:0:0:
464,120,205009,1,2,0:0:0:0:
408,252,205166,5,0,0:0:0:0:
292,340,205325,1,8,0:0:0:0:
404,352,205482,1,0,0:0:0:0:
304,244,205640,2,0,P|304:180|336:140,1,112.5,2|0,0:0|0:0,0:0:0:0:
204,212,205956,2,0,P|204:276|172:316,1,112.5,8|0,0:0|0:0,0:0:0:0:
32,336,206272,2,0,L|104:244,1,112.5,2|0,0:0|0:0,0:0:0:0:
72,104,206588,1,8,0:0:0:0:
156,32,206745,1,0,0:0:0:0:
168,80,206824,1,0,0:0:0:0:
164,132,206904,1,2,0:0:0:0:
256,244,207061,5,0,0:0:0:0:
268,100,207219,2,0,B|316:52|316:52|372:52,1,112.5,8|0,0:0|0:0,0:0:0:0:
476,144,207535,2,0,B|458:209|458:209|409:237,1,112.5,2|0,0:0|0:0,0:0:0:0:
360,368,207851,2,0,P|328:296|328:256,1,112.5,8|0,0:0|0:0,0:0:0:0:
180,276,208166,6,0,B|104:284|104:284|72:296|52:284,1,112.5,2|0,0:0|0:0,0:0:0:0:
32,148,208482,2,0,B|108:140|108:140|140:128|160:140,1,112.5,8|0,0:0|0:0,0:0:0:0:
256,40,208798,2,0,P|220:100|224:140,1,112.5,2|0,0:0|0:0,0:0:0:0:
288,272,209114,1,8,0:0:0:0:
344,136,209272,1,0,0:0:0:0:
368,92,209351,1,0,0:0:0:0:
416,72,209430,1,2,0:0:0:0:
432,216,209587,5,0,0:0:0:0:
372,348,209746,1,8,0:0:0:0:
288,272,209903,1,0,0:0:0:0:
156,336,210061,2,0,P|212:236|216:232,1,112.5,2|0,0:0|0:0,0:0:0:0:
268,192,210298,1,0,0:0:0:0:
200,164,210377,6,0,P|108:180|88:192,1,112.5,8|0,0:0|0:0,0:0:0:0:
48,328,210693,5,2,0:0:0:0:
24,76,210851,2,0,P|64:128|112:148,1,112.5,2|0,0:0|0:0,0:0:0:0:
348,80,211166,2,0,P|400:52|456:48,1,112.5,2|0,0:0|0:0,0:0:0:0:
420,300,211482,1,2,0:0:0:0:
340,220,211640,1,8,0:0:0:0:
428,148,211798,2,0,P|376:172|312:180,1,112.5,2|0,0:0|0:0,0:0:0:0:
228,292,212114,5,2,0:0:0:0:
96,76,212272,1,2,0:0:0:0:
348,80,212430,1,2,0:0:0:0:
244,120,212588,5,2,0:0:0:0:
132,216,212746,1,2,0:0:0:0:
276,228,212904,1,2,0:0:0:0:
272,376,213062,1,2,0:0:0:0:
376,272,213219,6,0,B|404:240|428:224|428:224|428:192|432:156|432:156|384:160|344:132,1,225,4|8,0:0|0:0,0:0:0:0:
240,40,213693,1,0,0:0:0:0:
108,108,213851,2,0,B|88:72|88:72|120:64|160:40,1,112.5,2|0,0:0|0:0,0:0:0:0:
200,184,214167,1,8,0:0:0:0:
100,232,214324,1,0,0:0:0:0:
88,376,214482,2,0,B|136:336|136:336|144:332|144:332|180:304,1,112.5,2|0,0:0|0:0,0:0:0:0:
300,228,214798,1,8,0:0:0:0:
276,336,214956,1,0,0:0:0:0:
416,288,215114,2,0,B|452:248|452:248|428:208|432:168,1,112.5,2|0,0:0|0:0,0:0:0:0:
360,64,215430,1,8,0:0:0:0:
468,44,215587,1,0,0:0:0:0:
364,148,215745,6,0,P|304:156|248:104,1,112.5,2|0,0:0|0:0,0:0:0:0:
156,28,216061,2,0,P|216:20|272:72,1,112.5,8|0,0:0|0:0,0:0:0:0:
148,144,216377,2,0,B|112:176|112:176|56:160|44:136,1,112.5,2|0,0:0|0:0,0:0:0:0:
176,236,216694,1,8,0:0:0:0:
84,300,216851,1,0,0:0:0:0:
120,336,216930,1,0,0:0:0:0:
172,340,217010,1,2,0:0:0:0:
304,280,217166,1,0,0:0:0:0:
448,256,217324,2,0,P|428:320|376:344,1,112.5,8|0,0:0|0:0,0:0:0:0:
360,196,217640,2,0,B|352:164|328:144|328:144|352:124|360:96|360:96|392:108|424:88|424:88|444:120,1,225,2|8,0:0|0:0,0:0:0:0:
256,100,218272,6,0,P|176:72|168:48,1,112.5,4|0,0:0|0:0,0:0:0:0:
48,136,218587,1,0,0:0:0:0:
48,136,218745,1,8,0:0:0:0:
76,212,218825,1,8,0:0:0:0:
152,236,218903,2,0,L|136:352,1,112.5,2|0,0:0|0:0,0:0:0:0:
232,236,219219,1,8,0:0:0:0:
272,340,219377,5,0,0:0:0:0:
304,300,219456,1,0,0:0:0:0:
352,280,219535,1,2,0:0:0:0:
288,148,219693,1,0,0:0:0:0:
152,96,219851,1,8,0:0:0:0:
248,32,220009,1,0,0:0:0:0:
392,44,220167,1,2,0:0:0:0:
392,44,220324,1,8,0:0:0:0:
432,112,220403,1,8,0:0:0:0:
436,192,220483,1,8,0:0:0:0:
288,148,220640,1,0,0:0:0:0:
172,60,220798,6,0,B|84:76|84:76|72:96,1,112.5,2|0,0:0|0:0,0:0:0:0:
52,240,221114,1,8,0:0:0:0:
104,340,221272,2,0,P|152:280|156:244,1,112.5,2|0,0:0|0:0,0:0:0:0:
228,120,221587,1,2,0:0:0:0:
252,264,221745,1,8,0:0:0:0:
364,360,221903,2,0,B|356:316|356:316|376:288|388:256,1,112.5,4|0,0:0|0:0,0:0:0:0:
324,124,222218,5,8,0:0:0:0:
72,144,222377,1,8,0:0:0:0:
292,16,222535,1,8,0:0:0:0:
252,264,222693,2,0,L|232:288,6,28.125,4|0|0|0|0|0|0,0:0|0:0|0:0|0:0|0:0|0:0|0:0,0:0:0:0:
224,220,223009,2,0,L|194:230,6,28.125,4|0|0|0|0|0|0,0:0|0:0|0:0|0:0|0:0|0:0|0:0,0:0:0:0:
232,168,223324,6,0,B|256:136|272:108|272:108|316:108|344:96|344:96|356:136|396:164,1,225,4|8,0:0|0:0,0:0:0:0:
400,316,223798,1,0,0:0:0:0:
400,316,223877,1,0,0:0:0:0:
400,316,223956,2,0,B|304:352|304:352|280:320|280:320|228:344|200:320,1,225,2|8,0:0|0:0,0:0:0:0:
72,232,224429,1,0,0:0:0:0:
172,112,224587,2,0,B|176:164|176:164|172:176|172:176|176:228,1,112.5,2|0,0:0|0:0,0:0:0:0:
72,104,224903,1,8,0:0:0:0:
188,100,225061,1,0,0:0:0:0:
332,36,225219,2,0,B|313:114|337:134|337:134|324:144|324:144|359:189|347:247,1,225,2|8,0:0|0:0,0:0:0:0:
192,212,225693,5,0,0:0:0:0:
124,176,225851,2,0,B|100:204|76:212|76:212|100:220|120:240,2,112.5,2|0|8,0:0|0:0|0:0,0:0:0:0:
320,172,226324,1,0,0:0:0:0:
388,208,226482,2,0,B|412:180|436:172|436:172|412:164|392:144,2,112.5,2|0|8,0:0|0:0|0:0,0:0:0:0:
256,124,226956,5,0,0:0:0:0:
324,264,227114,2,0,P|364:296|424:292,1,112.5,2|0,0:0|0:0,0:0:0:0:
268,324,227430,1,8,0:0:0:0:
156,340,227587,1,0,0:0:0:0:
72,208,227745,2,0,B|44:236|12:252|12:252|20:288|12:320|12:320|48:332|80:368,1,225,2|8,0:0|0:0,0:0:0:0:
172,236,228219,5,0,0:0:0:0:
76,112,228377,2,0,B|90:92|112:73|112:73|127:74|127:74|146:63|162:39,1,112.5,2|0,0:0|0:0,0:0:0:0:
320,44,228693,1,8,0:0:0:0:
256,136,228851,1,0,0:0:0:0:
412,160,229009,2,0,B|426:140|448:121|448:121|463:122|463:122|482:111|498:87,1,112.5,2|0,0:0|0:0,0:0:0:0:
472,248,229324,1,8,0:0:0:0:
344,340,229482,1,0,0:0:0:0:
328,292,229561,1,0,0:0:0:0:
292,256,229640,1,2,0:0:0:0:
168,352,229798,1,0,0:0:0:0:
188,196,229956,5,8,0:0:0:0:
96,260,230114,1,0,0:0:0:0:
40,112,230272,2,0,B|88:128|88:128|156:56|248:88,1,225,2|8,0:0|0:0,0:0:0:0:
384,136,230745,1,0,0:0:0:0:
416,96,230903,2,0,P|432:188|424:212,1,112.5,2|2,0:0|0:0,0:0:0:0:
288,256,231219,1,0,0:0:0:0:
256,296,231377,2,0,P|240:204|248:180,1,112.5,8|0,0:0|0:0,0:0:0:0:
320,60,231693,1,2,0:0:0:0:
348,168,231851,1,2,0:0:0:0:
436,240,232008,5,4,0:0:0:0:
320,152,232166,1,2,0:0:0:0:
176,132,232324,1,2,0:0:0:0:
36,344,232482,1,2,0:0:0:0:
56,92,232640,1,2,0:0:0:0:
148,328,232798,1,2,0:0:0:0:
256,228,232956,6,0,L|244:192,1,28.125,2|0,0:0|0:0,0:0:0:0:
272,216,233035,2,0,L|272:180,1,28.125,0|0,0:0|0:0,0:0:0:0:
292,216,233114,2,0,L|304:176,1,28.125,2|0,0:0|0:0,0:0:0:0:
312,224,233193,2,0,L|340:196,1,28.125,0|0,0:0|0:0,0:0:0:0:
328,240,233272,2,0,L|360:232,1,28.125,2|0,0:0|0:0,0:0:0:0:
336,264,233351,2,0,L|372:268,1,28.125,0|0,0:0|0:0,0:0:0:0:
336,288,233429,6,0,B|304:332|304:332|232:360|232:360|184:316|144:316,1,225,4|8,0:0|0:0,0:0:0:0:
40,216,233903,1,0,0:0:0:0:
116,92,234061,2,0,B|148:48|148:48|220:20|220:20|268:64|308:64,1,225,2|8,0:0|0:0,0:0:0:0:
192,164,234535,1,0,0:0:0:0:
176,212,234614,1,0,0:0:0:0:
156,260,234693,1,2,0:0:0:0:
268,356,234851,1,0,0:0:0:0:
400,296,235009,1,8,0:0:0:0:
308,228,235166,1,0,0:0:0:0:
428,144,235324,2,0,B|344:172|344:172|272:136|272:136|276:72,1,225,2|8,0:0|0:0,0:0:0:0:
420,44,235798,5,0,0:0:0:0:
276,80,235956,1,2,0:0:0:0:
420,44,236272,1,8,0:0:0:0:
348,132,236429,1,0,0:0:0:0:
208,168,236587,2,0,B|162:176|162:176|149:163|149:163|100:171,1,112.5,2|0,0:0|0:0,0:0:0:0:
12,52,236904,1,8,0:0:0:0:
156,40,237061,1,0,0:0:0:0:
153,84,237140,1,0,0:0:0:0:
134,124,237220,1,2,0:0:0:0:
48,240,237377,1,0,0:0:0:0:
148,348,237535,5,8,0:0:0:0:
260,336,237693,1,0,0:0:0:0:
280,192,237851,2,0,P|336:180|392:192,1,112.5,2|0,0:0|0:0,0:0:0:0:
456,320,238166,2,0,L|388:328,1,67.5000025749208,8|0,0:0|0:0,0:0:0:0:
204,212,238482,6,0,P|244:120|348:148,1,225,4|0,0:0|0:0,0:0:0:0:
368,292,238956,1,8,0:0:0:0:
408,224,239035,1,8,0:0:0:0:
440,152,239114,2,0,P|456:80|452:40,1,112.5,2|0,0:0|0:0,0:0:0:0:
352,148,239430,1,8,0:0:0:0:
256,36,239587,1,0,0:0:0:0:
244,80,239666,1,0,0:0:0:0:
212,116,239745,1,2,0:0:0:0:
68,88,239903,1,0,0:0:0:0:
168,196,240061,1,8,0:0:0:0:
68,248,240219,1,0,0:0:0:0:
184,340,240377,6,0,L|208:360,6,28.125,2|0|0|0|8|0|8,0:0|0:0|0:0|0:0|0:0|0:0|0:0,0:0:0:0:
208,292,240693,2,0,L|239:289,6,28.125,8|0|0|0|0|0|0,0:0|0:0|0:0|0:0|0:0|0:0|0:0,0:0:0:0:
176,252,241008,2,0,P|112:264|60:244,1,112.5,4|0,0:0|0:0,0:0:0:0:
212,220,241324,1,8,0:0:0:0:
212,220,241403,1,0,0:0:0:0:
212,220,241482,1,2,0:0:0:0:
344,160,241640,6,0,P|356:212|348:272,1,112.5,0|2,0:0|0:0,0:0:0:0:
212,220,241955,1,8,0:0:0:0:
356,156,242114,2,0,P|368:208|348:328,1,168.75,4|0,0:0|0:0,0:0:0:0:
280,344,242429,5,8,0:0:0:0:
52,236,242587,1,8,0:0:0:0:
220,48,242745,1,8,0:0:0:0:
428,192,242903,1,4,0:0:0:0:
428,192,242982,1,0,0:0:0:0:
428,192,243061,1,0,0:0:0:0:
428,192,243140,1,0,0:0:0:0:
428,192,243219,1,4,0:0:0:0:
168,160,243535,6,0,P|156:212|164:272,1,112.5,2|0,0:0|0:0,0:0:0:0:
300,220,243850,1,8,0:0:0:0:
157,159,244009,2,0,P|145:211|153:271,1,112.5,2|0,0:0|0:0,0:0:0:0:
276,364,244324,5,2,0:0:0:0:
480,216,244482,1,8,0:0:0:0:
292,48,244640,1,4,0:0:0:0:
272,280,244956,5,8,0:0:0:0:
396,200,245114,1,8,0:0:0:0:
280,128,245272,1,8,0:0:0:0:
148,192,245430,1,4,0:0:0:0:
148,192,245509,1,0,0:0:0:0:
148,192,245588,1,0,0:0:0:0:
148,192,245667,1,0,0:0:0:0:
148,192,245746,1,4,0:0:0:0:
344,160,246061,6,0,P|356:212|348:272,1,112.5,4|0,0:0|0:0,0:0:0:0:
212,220,246376,1,0,0:0:0:0:
359,160,246535,2,0,P|371:212|363:272,1,112.5,4|0,0:0|0:0,0:0:0:0:
236,364,246850,5,4,0:0:0:0:
32,216,247008,1,0,0:0:0:0:
220,48,247166,1,4,0:0:0:0:
240,280,247482,5,8,0:0:0:0:
116,200,247640,1,8,0:0:0:0:
232,128,247798,1,8,0:0:0:0:
364,192,247956,1,4,0:0:0:0:
364,192,248035,1,0,0:0:0:0:
364,192,248114,1,0,0:0:0:0:
364,192,248193,1,0,0:0:0:0:
364,192,248272,1,4,0:0:0:0:
