osu file format v14

[General]
AudioFilename: yuruyurinrinrinrinrin.mp3
AudioLeadIn: 0
PreviewTime: 63819
Countdown: 0
SampleSet: Soft
StackLeniency: 0.7
Mode: 3
LetterboxInBreaks: 0
SpecialStyle: 0
WidescreenStoryboard: 0

[Editor]
Bookmarks: 1225,2522,10306,18089,23279,25873,28792,31062,33657,38846,44035,54414,59603,64792,72576,75170,82954,85549,90738,95927
DistanceSpacing: 1.3
BeatDivisor: 4
GridSize: 4
TimelineZoom: 1.9

[Metadata]
Title:Yuru Yurinrinrinrinrin
TitleUnicode:ゆるゆりんりんりんりんりん
Artist:Nanamori-chu*Goraku-bu
ArtistUnicode:七森中☆ごらく部
Creator:Xenophilius
Version:Lv. 13
Source:ゆるゆり なちゅやちゅみ!
Tags:O2Jam
BeatmapID:781073
BeatmapSetID:354228

[Difficulty]
HPDrainRate:7
CircleSize:7
OverallDifficulty:7
ApproachRate:5
SliderMultiplier:1.4
SliderTickRate:1

[Events]
//Background and Video events
0,0,"bgbgbgbg.jpg",0,0
//Break Periods
//Storyboard Layer 0 (Background)
//Storyboard Layer 1 (Fail)
//Storyboard Layer 2 (Pass)
//Storyboard Layer 3 (Foreground)
//Storyboard Sound Samples

[TimingPoints]
1225,324.324324324324,4,2,0,25,1,0
64792,-100,4,2,0,25,0,1
85549,-100,4,2,0,25,0,0

[HitObjects]
256,192,2035,1,0,3:0:0:0:
182,192,2197,5,0,3:0:0:0:
329,192,2197,1,0,3:0:0:0:
475,192,2522,1,2,0:0:0:0:
36,192,2684,1,2,0:0:0:0:
475,192,2846,1,2,0:0:0:0:
36,192,3008,1,2,0:0:0:0:
475,192,3170,1,2,0:0:0:0:
256,192,3333,1,0,3:0:0:0:
182,192,3495,1,0,3:0:0:0:
329,192,3495,1,0,3:0:0:0:
36,192,3819,1,2,0:0:0:0:
475,192,3981,1,2,0:0:0:0:
36,192,4143,1,2,0:0:0:0:
475,192,4306,1,2,0:0:0:0:
36,192,4468,1,2,0:0:0:0:
256,192,4630,1,0,3:0:0:0:
182,192,4792,1,0,3:0:0:0:
329,192,4792,1,0,3:0:0:0:
36,192,5116,128,2,5441:0:0:0:0:
475,192,5279,128,2,5441:0:0:0:0:
36,192,5765,128,2,6089:0:0:0:0:
475,192,5927,128,2,6089:0:0:0:0:
182,192,6576,1,4,3:0:0:0:
329,192,6576,1,4,3:0:0:0:
36,192,7062,128,0,9008:0:0:0:0:
256,192,7387,128,0,9008:0:0:0:0:
475,192,7711,128,0,9008:0:0:0:0:
402,192,9333,1,2,0:0:0:0:
109,192,9657,1,2,0:0:0:0:
329,192,10306,128,0,10792:0:0:0:0:
109,192,10630,1,0,3:0:0:0:
475,192,10630,1,8,0:0:0:0:
402,192,10954,128,0,11441:0:0:0:0:
36,192,11279,1,0,3:0:0:0:
329,192,11279,1,8,0:0:0:0:
109,192,11603,128,0,12089:0:0:0:0:
182,192,11927,1,0,3:0:0:0:
475,192,11927,1,8,0:0:0:0:
182,192,12252,128,0,12738:0:0:0:0:
329,192,12576,1,8,0:0:0:0:
36,192,12576,1,0,3:0:0:0:
402,192,12900,128,0,13387:0:0:0:0:
182,192,13224,1,0,3:0:0:0:
475,192,13224,1,8,0:0:0:0:
329,192,13549,128,0,14035:0:0:0:0:
402,192,13873,1,8,0:0:0:0:
109,192,13873,1,0,3:0:0:0:
36,192,14197,128,0,14684:0:0:0:0:
182,192,14522,1,0,3:0:0:0:
475,192,14522,1,8,0:0:0:0:
256,192,14846,128,0,15333:0:0:0:0:
402,192,15170,1,8,0:0:0:0:
109,192,15170,1,0,3:0:0:0:
475,192,15495,128,0,15819:0:0:0:0:
36,192,15819,128,0,16143:0:0:0:0:
182,192,15819,1,0,3:0:0:0:
329,192,15819,1,8,0:0:0:0:
475,192,16143,128,0,16468:0:0:0:0:
109,192,16468,1,0,3:0:0:0:
402,192,16468,1,8,0:0:0:0:
36,192,16630,128,0,16792:0:0:0:0:
256,192,16792,128,0,16954:0:0:0:0:
475,192,16954,128,0,17116:0:0:0:0:
36,192,17116,128,0,17441:0:0:0:0:
109,192,17116,1,0,3:0:0:0:
402,192,17116,1,8,0:0:0:0:
475,192,17441,128,0,17765:0:0:0:0:
182,192,17765,1,0,3:0:0:0:
329,192,17765,1,8,0:0:0:0:
36,192,18089,1,0,3:0:0:0:
475,192,18252,1,0,3:0:0:0:
109,192,18576,1,0,3:0:0:0:
402,192,18738,1,0,3:0:0:0:
475,192,19387,1,0,3:0:0:0:
36,192,19549,1,0,3:0:0:0:
402,192,19873,1,0,3:0:0:0:
109,192,20035,1,0,3:0:0:0:
475,192,20846,1,0,3:0:0:0:
36,192,20846,1,0,3:0:0:0:
402,192,21008,1,0,3:0:0:0:
109,192,21008,1,0,3:0:0:0:
182,192,21333,1,0,3:0:0:0:
329,192,21333,1,0,3:0:0:0:
475,192,21495,1,0,3:0:0:0:
36,192,21495,1,0,3:0:0:0:
256,192,21819,128,0,22143:0:0:0:0:
475,192,22143,1,0,3:0:0:0:
329,192,22306,1,0,3:0:0:0:
182,192,22468,1,0,3:0:0:0:
109,192,22549,1,0,3:0:0:0:
36,192,22630,1,0,3:0:0:0:
182,192,22792,1,0,3:0:0:0:
475,192,22873,1,0,3:0:0:0:
402,192,22954,1,0,3:0:0:0:
329,192,23035,1,0,3:0:0:0:
36,192,23116,1,0,3:0:0:0:
109,192,23197,1,0,3:0:0:0:
182,192,23279,1,0,3:0:0:0:
475,192,23603,128,2,23927:0:0:0:0:
329,192,23603,1,8,0:0:0:0:
109,192,23603,1,0,3:0:0:0:
36,192,23927,128,2,24252:0:0:0:0:
475,192,24252,128,2,24576:0:0:0:0:
182,192,24252,1,0,3:0:0:0:
402,192,24252,1,8,0:0:0:0:
36,192,24576,128,2,24900:0:0:0:0:
256,192,24900,1,0,3:0:0:0:
475,192,24900,1,8,0:0:0:0:
182,192,25062,128,2,25549:0:0:0:0:
402,192,25549,128,2,25873:0:0:0:0:
329,192,25549,1,8,0:0:0:0:
109,192,25549,1,0,3:0:0:0:
36,192,25873,128,2,26197:0:0:0:0:
182,192,26197,1,0,3:0:0:0:
402,192,26197,1,8,0:0:0:0:
475,192,26360,128,2,26684:0:0:0:0:
36,192,26846,128,2,27170:0:0:0:0:
329,192,26846,1,8,0:0:0:0:
109,192,26846,1,0,3:0:0:0:
475,192,27170,1,2,0:0:0:0:
256,192,27495,1,2,0:0:0:0:
36,192,27657,1,2,0:0:0:0:
475,192,28143,1,2,0:0:0:0:
402,192,28792,1,0,3:0:0:0:
182,192,28792,1,8,0:0:0:0:
36,192,28792,128,2,29116:0:0:0:0:
475,192,29116,128,2,29441:0:0:0:0:
36,192,29441,128,2,29765:0:0:0:0:
109,192,29441,1,8,0:0:0:0:
329,192,29441,1,0,3:0:0:0:
475,192,29765,128,2,30089:0:0:0:0:
256,192,30089,1,0,3:0:0:0:
36,192,30089,1,8,0:0:0:0:
329,192,30252,128,2,30738:0:0:0:0:
402,192,30738,1,0,3:0:0:0:
109,192,30738,128,2,31062:0:0:0:0:
182,192,30738,1,8,0:0:0:0:
475,192,31062,128,2,31387:0:0:0:0:
329,192,31387,1,0,3:0:0:0:
109,192,31387,1,8,0:0:0:0:
36,192,31549,128,2,31873:0:0:0:0:
182,192,32035,1,8,0:0:0:0:
402,192,32035,1,0,3:0:0:0:
475,192,32035,128,2,32360:0:0:0:0:
36,192,32360,1,2,0:0:0:0:
256,192,32684,1,2,0:0:0:0:
475,192,32846,1,2,0:0:0:0:
36,192,33333,1,2,0:0:0:0:
109,192,33657,128,0,34954:0:0:0:0:
402,192,34954,128,0,36252:0:0:0:0:
182,192,36252,128,0,36576:0:0:0:0:
329,192,36576,128,0,36900:0:0:0:0:
109,192,36900,128,0,37224:0:0:0:0:
402,192,37224,128,0,37549:0:0:0:0:
475,192,37549,128,0,37873:0:0:0:0:
402,192,37873,128,0,38197:0:0:0:0:
329,192,38197,128,0,38522:0:0:0:0:
256,192,38522,128,0,38846:0:0:0:0:
182,192,38846,128,0,41279:0:0:0:0:
475,192,38846,1,0,3:0:0:0:
402,192,39008,1,0,3:0:0:0:
329,192,39170,1,0,3:0:0:0:
36,192,39333,1,0,3:0:0:0:
109,192,39495,1,0,3:0:0:0:
256,192,39657,1,0,3:0:0:0:
475,192,39819,1,0,3:0:0:0:
402,192,39981,1,0,3:0:0:0:
329,192,40143,1,0,3:0:0:0:
402,192,40306,1,0,3:0:0:0:
475,192,40468,1,0,3:0:0:0:
36,192,40630,1,0,3:0:0:0:
109,192,40792,1,0,3:0:0:0:
256,192,40954,1,0,3:0:0:0:
329,192,41116,1,0,3:0:0:0:
36,192,41279,128,0,42738:0:0:0:0:
402,192,41279,1,0,3:0:0:0:
475,192,41441,1,0,3:0:0:0:
329,192,41603,1,0,3:0:0:0:
182,192,41765,1,0,3:0:0:0:
109,192,41927,1,0,3:0:0:0:
182,192,42089,1,0,3:0:0:0:
256,192,42252,1,0,3:0:0:0:
109,192,42414,1,0,0:0:0:0:
329,192,42414,1,0,3:0:0:0:
402,192,42576,1,0,3:0:0:0:
182,192,42576,1,0,0:0:0:0:
256,192,42738,1,8,0:0:0:0:
475,192,42738,1,0,3:0:0:0:
329,192,42900,1,8,0:0:0:0:
256,192,43062,1,8,0:0:0:0:
475,192,43062,1,0,3:0:0:0:
256,192,43387,1,8,0:0:0:0:
36,192,43387,1,0,3:0:0:0:
182,192,43549,1,8,0:0:0:0:
36,192,43711,1,0,3:0:0:0:
256,192,43711,1,8,0:0:0:0:
109,192,43873,1,0,3:0:0:0:
402,192,43873,1,0,3:0:0:0:
182,192,43954,1,0,3:0:0:0:
329,192,43954,1,0,3:0:0:0:
256,192,44035,1,0,3:0:0:0:
402,192,44360,1,0,3:0:0:0:
182,192,44360,1,8,0:0:0:0:
36,192,44360,128,2,44684:0:0:0:0:
475,192,44684,128,2,45008:0:0:0:0:
329,192,45008,1,0,3:0:0:0:
109,192,45008,1,8,0:0:0:0:
36,192,45008,128,2,45333:0:0:0:0:
475,192,45333,128,2,45657:0:0:0:0:
36,192,45657,1,8,0:0:0:0:
256,192,45657,1,0,3:0:0:0:
329,192,45819,128,2,46306:0:0:0:0:
402,192,46306,1,0,3:0:0:0:
182,192,46306,1,8,0:0:0:0:
109,192,46306,128,2,46630:0:0:0:0:
475,192,46630,128,2,46954:0:0:0:0:
329,192,46954,1,0,3:0:0:0:
109,192,46954,1,8,0:0:0:0:
36,192,47116,128,2,47441:0:0:0:0:
402,192,47603,1,0,3:0:0:0:
182,192,47603,1,8,0:0:0:0:
475,192,47603,128,2,47927:0:0:0:0:
36,192,47927,1,2,0:0:0:0:
256,192,48252,1,2,0:0:0:0:
475,192,48414,1,2,0:0:0:0:
36,192,48900,1,2,0:0:0:0:
329,192,49549,1,8,0:0:0:0:
475,192,49549,128,2,49873:0:0:0:0:
109,192,49549,1,0,3:0:0:0:
36,192,49873,128,2,50197:0:0:0:0:
182,192,50197,1,0,3:0:0:0:
402,192,50197,1,8,0:0:0:0:
475,192,50197,128,2,50522:0:0:0:0:
36,192,50522,128,2,50846:0:0:0:0:
475,192,50846,1,8,0:0:0:0:
256,192,50846,1,0,3:0:0:0:
182,192,51008,128,2,51495:0:0:0:0:
109,192,51495,1,0,3:0:0:0:
329,192,51495,1,8,0:0:0:0:
402,192,51495,128,2,51819:0:0:0:0:
36,192,51819,128,2,52143:0:0:0:0:
402,192,52143,1,8,0:0:0:0:
182,192,52143,1,0,3:0:0:0:
475,192,52306,128,2,52630:0:0:0:0:
36,192,52792,128,2,53116:0:0:0:0:
329,192,52792,1,8,0:0:0:0:
109,192,52792,1,0,3:0:0:0:
475,192,53116,1,2,0:0:0:0:
256,192,53441,1,2,0:0:0:0:
36,192,53603,1,2,0:0:0:0:
475,192,54089,1,2,0:0:0:0:
402,192,54414,128,0,55711:0:0:0:0:
109,192,55711,128,0,57008:0:0:0:0:
329,192,57008,128,0,57333:0:0:0:0:
182,192,57333,128,0,57657:0:0:0:0:
402,192,57657,128,0,57981:0:0:0:0:
109,192,57981,128,0,58306:0:0:0:0:
36,192,58306,128,0,58630:0:0:0:0:
109,192,58630,128,0,58954:0:0:0:0:
182,192,58954,128,0,59279:0:0:0:0:
256,192,59279,128,0,59603:0:0:0:0:
329,192,59603,128,0,62035:0:0:0:0:
36,192,59603,1,0,3:0:0:0:
109,192,59765,1,0,3:0:0:0:
182,192,59927,1,0,3:0:0:0:
475,192,60089,1,0,3:0:0:0:
402,192,60252,1,0,3:0:0:0:
256,192,60414,1,0,3:0:0:0:
36,192,60576,1,0,3:0:0:0:
109,192,60738,1,0,3:0:0:0:
182,192,60900,1,0,3:0:0:0:
109,192,61062,1,0,3:0:0:0:
36,192,61224,1,0,3:0:0:0:
475,192,61387,1,0,3:0:0:0:
402,192,61549,1,0,3:0:0:0:
256,192,61711,1,0,3:0:0:0:
182,192,61873,1,0,3:0:0:0:
109,192,62035,1,0,3:0:0:0:
475,192,62035,128,0,63495:0:0:0:0:
36,192,62197,1,0,3:0:0:0:
182,192,62360,1,0,3:0:0:0:
329,192,62522,1,0,3:0:0:0:
402,192,62684,1,0,3:0:0:0:
329,192,62846,1,0,3:0:0:0:
256,192,63008,1,0,3:0:0:0:
402,192,63170,1,0,0:0:0:0:
182,192,63170,1,0,3:0:0:0:
109,192,63333,1,0,3:0:0:0:
329,192,63333,1,0,0:0:0:0:
256,192,63495,1,8,0:0:0:0:
36,192,63495,1,0,3:0:0:0:
402,192,63495,1,4,0:0:0:0:
109,192,63819,128,0,64792:0:0:0:0:
256,192,64143,128,0,64792:0:0:0:0:
402,192,64468,128,0,64792:0:0:0:0:
182,192,64792,1,0,3:0:0:0:
36,192,65116,1,0,3:0:0:0:
329,192,65116,1,8,0:0:0:0:
256,192,65441,1,0,3:0:0:0:
182,192,65765,1,0,3:0:0:0:
475,192,65765,1,8,0:0:0:0:
402,192,66089,1,0,3:0:0:0:
329,192,66414,1,8,0:0:0:0:
109,192,66414,1,0,3:0:0:0:
182,192,66738,1,0,3:0:0:0:
36,192,67062,1,0,3:0:0:0:
402,192,67062,1,8,0:0:0:0:
329,192,67387,1,0,3:0:0:0:
182,192,67711,1,0,3:0:0:0:
475,192,67711,1,8,0:0:0:0:
256,192,68035,1,0,3:0:0:0:
329,192,68360,1,8,0:0:0:0:
36,192,68360,1,0,3:0:0:0:
109,192,68684,1,0,3:0:0:0:
182,192,69008,1,0,3:0:0:0:
402,192,69008,1,8,0:0:0:0:
329,192,69333,1,0,3:0:0:0:
256,192,69657,1,0,3:0:0:0:
475,192,69657,1,8,0:0:0:0:
402,192,69981,1,0,3:0:0:0:
329,192,70306,1,8,0:0:0:0:
36,192,70306,1,0,3:0:0:0:
109,192,70468,1,0,3:0:0:0:
402,192,70468,1,8,0:0:0:0:
182,192,70630,1,0,3:0:0:0:
256,192,70954,1,0,3:0:0:0:
475,192,70954,1,8,0:0:0:0:
329,192,71279,1,0,3:0:0:0:
402,192,71603,1,8,0:0:0:0:
109,192,71603,1,0,3:0:0:0:
36,192,71765,1,0,3:0:0:0:
329,192,71765,1,8,0:0:0:0:
256,192,71927,1,0,3:0:0:0:
182,192,72252,1,0,3:0:0:0:
402,192,72252,1,8,0:0:0:0:
36,192,72576,1,2,0:0:0:0:
182,192,72900,1,2,0:0:0:0:
329,192,73224,1,2,0:0:0:0:
475,192,73549,1,2,0:0:0:0:
36,192,74035,1,0,3:0:0:0:
109,192,74116,1,0,3:0:0:0:
182,192,74197,1,0,3:0:0:0:
475,192,74360,1,0,3:0:0:0:
329,192,74522,1,0,3:0:0:0:
182,192,74684,1,0,3:0:0:0:
329,192,75170,1,0,3:0:0:0:
36,192,75170,1,4,0:0:0:0:
475,192,75495,1,0,3:0:0:0:
182,192,75495,1,8,0:0:0:0:
402,192,75819,1,0,3:0:0:0:
36,192,76143,1,8,0:0:0:0:
256,192,76143,1,0,3:0:0:0:
109,192,76468,1,0,3:0:0:0:
402,192,76792,1,0,3:0:0:0:
182,192,76792,1,8,0:0:0:0:
329,192,77116,1,0,3:0:0:0:
109,192,77441,1,8,0:0:0:0:
475,192,77441,1,0,3:0:0:0:
182,192,77765,1,0,3:0:0:0:
36,192,78089,1,8,0:0:0:0:
329,192,78089,1,0,3:0:0:0:
109,192,78414,1,0,3:0:0:0:
182,192,78738,1,8,0:0:0:0:
475,192,78738,1,0,3:0:0:0:
402,192,79062,1,0,3:0:0:0:
329,192,79387,1,0,3:0:0:0:
109,192,79387,1,8,0:0:0:0:
182,192,79711,1,0,3:0:0:0:
256,192,80035,1,0,3:0:0:0:
36,192,80035,1,8,0:0:0:0:
109,192,80360,1,0,3:0:0:0:
475,192,80684,1,0,3:0:0:0:
182,192,80684,1,8,0:0:0:0:
109,192,80846,1,8,0:0:0:0:
402,192,80846,1,0,3:0:0:0:
329,192,81008,1,0,3:0:0:0:
36,192,81333,1,8,0:0:0:0:
256,192,81333,1,0,3:0:0:0:
182,192,81657,1,0,3:0:0:0:
402,192,81981,1,0,3:0:0:0:
109,192,81981,1,8,0:0:0:0:
182,192,82143,1,8,0:0:0:0:
475,192,82143,1,0,3:0:0:0:
256,192,82306,1,0,3:0:0:0:
109,192,82630,1,8,0:0:0:0:
329,192,82630,1,0,3:0:0:0:
475,192,82954,1,2,0:0:0:0:
329,192,83279,1,2,0:0:0:0:
182,192,83603,1,2,0:0:0:0:
36,192,83927,1,2,0:0:0:0:
475,192,84414,1,0,3:0:0:0:
402,192,84495,1,0,3:0:0:0:
329,192,84576,1,0,3:0:0:0:
36,192,84738,1,0,3:0:0:0:
182,192,84900,1,0,3:0:0:0:
329,192,85062,1,0,3:0:0:0:
475,192,85549,128,2,86035:0:0:0:0:
109,192,85873,1,8,0:0:0:0:
329,192,85873,1,0,3:0:0:0:
36,192,86197,128,2,87657:0:0:0:0:
182,192,86522,1,8,0:0:0:0:
402,192,86522,1,0,3:0:0:0:
256,192,87170,1,8,0:0:0:0:
475,192,87170,1,0,3:0:0:0:
402,192,87819,1,0,3:0:0:0:
182,192,87819,1,8,0:0:0:0:
36,192,88143,128,2,88630:0:0:0:0:
182,192,88468,1,0,3:0:0:0:
402,192,88468,1,8,0:0:0:0:
475,192,88792,128,2,90252:0:0:0:0:
329,192,89116,1,8,0:0:0:0:
109,192,89116,1,0,3:0:0:0:
256,192,89765,1,8,0:0:0:0:
36,192,89765,1,0,3:0:0:0:
329,192,90414,1,8,0:0:0:0:
109,192,90414,1,0,3:0:0:0:
36,192,90738,128,2,91062:0:0:0:0:
182,192,91062,128,2,91387:0:0:0:0:
475,192,91387,128,2,91711:0:0:0:0:
329,192,91711,128,2,92035:0:0:0:0:
36,192,92035,128,2,92360:0:0:0:0:
182,192,92360,128,2,92684:0:0:0:0:
475,192,92684,128,2,92846:0:0:0:0:
329,192,92846,128,2,93008:0:0:0:0:
182,192,93008,128,2,93170:0:0:0:0:
36,192,93170,128,2,93333:0:0:0:0:
256,192,93333,128,2,93819:0:0:0:0:
475,192,93819,128,2,95116:0:0:0:0:
36,192,93981,128,2,95116:0:0:0:0:
109,192,94630,1,0,3:0:0:0:
182,192,94711,1,0,3:0:0:0:
256,192,94792,1,0,3:0:0:0:
402,192,94873,1,0,3:0:0:0:
329,192,94954,1,0,3:0:0:0:
109,192,95116,1,0,3:0:0:0:
256,192,95279,1,0,3:0:0:0:
329,192,95279,1,4,3:0:0:0:
36,192,95927,1,2,0:0:0:0:
475,192,96089,1,2,0:0:0:0:
36,192,96252,1,2,0:0:0:0:
475,192,96414,1,2,0:0:0:0:
36,192,96576,1,2,0:0:0:0:
256,192,96738,1,0,3:0:0:0:
329,192,96900,1,0,3:0:0:0:
182,192,96900,1,0,3:0:0:0:
475,192,97224,1,2,0:0:0:0:
36,192,97387,1,2,0:0:0:0:
475,192,97549,1,2,0:0:0:0:
36,192,97711,1,2,0:0:0:0:
475,192,97873,1,2,0:0:0:0:
256,192,98035,1,0,3:0:0:0:
329,192,98197,1,0,3:0:0:0:
182,192,98197,1,0,3:0:0:0:
475,192,98522,128,2,98846:0:0:0:0:
36,192,98684,128,2,98846:0:0:0:0:
475,192,99170,128,2,99495:0:0:0:0:
36,192,99333,128,2,99495:0:0:0:0:
36,192,99981,128,0,102414:0:0:0:0:
109,192,100306,128,0,102414:0:0:0:0:
256,192,100468,128,0,102414:0:0:0:0:
402,192,100792,128,0,102414:0:0:0:0:
475,192,101116,128,0,102414:0:0:0:0:
182,192,102414,1,0,3:0:0:0:
329,192,102414,1,0,3:0:0:0:
256,192,103468,1,0,0:0:0:0:
