osu file format v14

[General]
AudioFilename: yuruyurinrinrinrinrin.mp3
AudioLeadIn: 0
PreviewTime: 63819
Countdown: 0
SampleSet: Soft
StackLeniency: 0.7
Mode: 3
LetterboxInBreaks: 0
SpecialStyle: 0
WidescreenStoryboard: 0

[Editor]
Bookmarks: 1225,2522,10306,18089,23279,25873,28792,31062,33657,38846,44035,54414,59603,64792,72576,75170,82954,85549,90738,95927
DistanceSpacing: 1.3
BeatDivisor: 4
GridSize: 4
TimelineZoom: 1.9

[Metadata]
Title:Yuru Yurinrinrinrinrin
TitleUnicode:ゆるゆりんりんりんりんりん
Artist:Nanamori-chu*Goraku-bu
ArtistUnicode:七森中☆ごらく部
Creator:Xenophilius
Version:Lv. 21
Source:ゆるゆり なちゅやちゅみ!
Tags:O2Jam
BeatmapID:780866
BeatmapSetID:354228

[Difficulty]
HPDrainRate:8
CircleSize:7
OverallDifficulty:7.5
ApproachRate:5
SliderMultiplier:1.4
SliderTickRate:1

[Events]
//Background and Video events
0,0,"bgbgbgbg.jpg",0,0
//Break Periods
//Storyboard Layer 0 (Background)
//Storyboard Layer 1 (Fail)
//Storyboard Layer 2 (Pass)
//Storyboard Layer 3 (Foreground)
//Storyboard Sound Samples

[TimingPoints]
1225,324.324324324324,4,2,0,25,1,0
9170,-66.6666666666667,4,2,0,25,0,0
9252,-133.333333333333,4,2,0,25,0,0
9333,-66.6666666666667,4,2,0,25,0,0
9495,-133.333333333333,4,2,0,25,0,0
9657,-66.6666666666667,4,2,0,25,0,0
9819,-133.333333333333,4,2,0,25,0,0
9981,-100,4,2,0,25,0,0
20684,-133.333333333333,4,2,0,25,0,0
20846,-100,4,2,0,25,0,0
21008,-133.333333333333,4,2,0,25,0,0
21333,-100,4,2,0,25,0,0
21495,-66.6666666666667,4,2,0,25,0,0
21657,-133.333333333333,4,2,0,25,0,0
21819,-100,4,2,0,25,0,0
33657,-133.333333333333,4,2,0,25,0,0
38846,-100,4,2,0,25,0,0
43062,-133.333333333333,4,2,0,25,0,0
43387,-100,4,2,0,25,0,0
54414,-133.333333333333,4,2,0,25,0,0
59603,-133.333333333333,4,2,0,25,0,0
59703,-100,4,2,0,25,0,0
63495,-100,4,2,0,25,0,0
63595,-133.333333333333,4,2,0,25,0,0
63819,-133.333333333333,4,2,0,25,0,0
63919,-153.846153846154,4,2,0,25,0,0
64143,-181.818181818182,4,2,0,25,0,0
64468,-222.222222222222,4,2,0,25,0,0
64792,-100,4,2,0,25,0,1
72576,-133.333333333333,4,2,0,25,0,1
72738,-100,4,2,0,25,0,1
72900,-133.333333333333,4,2,0,25,0,1
73062,-100,4,2,0,25,0,1
73224,-133.333333333333,4,2,0,25,0,1
73387,-100,4,2,0,25,0,1
73549,-133.333333333333,4,2,0,25,0,1
73711,-100,4,2,0,25,0,1
74846,-133.333333333333,4,2,0,25,0,1
75170,-100,4,2,0,25,0,1
82954,-133.333333333333,4,2,0,25,0,1
83116,-100,4,2,0,25,0,1
83279,-133.333333333333,4,2,0,25,0,1
83441,-100,4,2,0,25,0,1
83603,-133.333333333333,4,2,0,25,0,1
83765,-100,4,2,0,25,0,1
83927,-100,4,2,0,25,0,1
84027,-133.333333333333,4,2,0,25,0,1
84089,-100,4,2,0,25,0,1
85549,-100,4,2,0,25,0,0
95279,-133.333333333333,4,2,0,25,0,0
95603,-133.333333333333,4,2,0,25,0,0
95703,-66.6666666666667,4,2,0,25,0,0
95765,-133.333333333333,4,2,0,25,0,0
95927,-100,4,2,0,25,0,0
102414,-100,4,2,0,25,0,0
102514,-66.6666666666667,4,2,0,25,0,0
102900,-1000,4,2,0,25,0,0

[HitObjects]
256,192,2035,5,0,3:0:0:0:
182,192,2197,1,8,0:0:0:0:
329,192,2197,1,8,0:0:0:0:
36,192,2522,1,0,3:0:0:0:
109,192,2522,1,0,3:0:0:0:
402,192,2684,1,0,3:0:0:0:
475,192,2684,1,0,3:0:0:0:
109,192,2846,1,0,3:0:0:0:
36,192,2846,1,0,3:0:0:0:
402,192,3008,1,0,3:0:0:0:
475,192,3008,1,0,3:0:0:0:
109,192,3170,1,0,3:0:0:0:
36,192,3170,1,0,3:0:0:0:
256,192,3333,1,0,3:0:0:0:
182,192,3495,1,8,0:0:0:0:
329,192,3495,1,8,0:0:0:0:
402,192,3819,1,0,3:0:0:0:
475,192,3819,1,0,3:0:0:0:
36,192,3981,1,0,3:0:0:0:
109,192,3981,1,0,3:0:0:0:
402,192,4143,1,0,3:0:0:0:
475,192,4143,1,0,3:0:0:0:
36,192,4306,1,0,3:0:0:0:
109,192,4306,1,0,3:0:0:0:
402,192,4468,1,0,3:0:0:0:
475,192,4468,1,0,3:0:0:0:
109,192,4630,128,2,4792:0:0:0:0:
256,192,4792,128,2,4954:0:0:0:0:
402,192,4954,128,2,5116:0:0:0:0:
36,192,5116,128,2,5279:0:0:0:0:
475,192,5279,128,2,5441:0:0:0:0:
109,192,5441,1,0,0:0:0:0:
182,192,5481,1,0,0:0:0:0:
256,192,5522,1,0,0:0:0:0:
329,192,5562,1,0,0:0:0:0:
402,192,5603,1,0,0:0:0:0:
36,192,5765,128,2,5927:0:0:0:0:
475,192,5927,128,2,6089:0:0:0:0:
109,192,6089,1,0,0:0:0:0:
182,192,6130,1,0,0:0:0:0:
256,192,6170,1,0,0:0:0:0:
329,192,6211,1,0,0:0:0:0:
402,192,6252,1,0,0:0:0:0:
475,192,6414,1,0,0:0:0:0:
36,192,6414,1,0,0:0:0:0:
109,192,6576,1,0,0:0:0:0:
256,192,6576,1,4,0:0:0:0:
402,192,6576,1,0,0:0:0:0:
36,192,7062,128,2,7711:0:0:0:0:
109,192,7062,1,0,0:0:0:0:
329,192,7062,1,0,0:0:0:0:
256,192,7387,128,2,7711:0:0:0:0:
402,192,7387,1,0,0:0:0:0:
182,192,7387,1,0,0:0:0:0:
475,192,7711,128,2,8684:0:0:0:0:
109,192,7711,128,0,7873:0:0:0:0:
402,192,7873,128,0,8035:0:0:0:0:
109,192,8035,128,0,8197:0:0:0:0:
402,192,8197,128,0,8360:0:0:0:0:
36,192,8360,128,0,8522:0:0:0:0:
329,192,8522,128,0,8684:0:0:0:0:
36,192,8684,128,0,8846:0:0:0:0:
329,192,8846,128,0,9008:0:0:0:0:
256,192,9008,128,0,9170:0:0:0:0:
402,192,9333,1,2,0:0:0:0:
109,192,9333,1,2,0:0:0:0:
256,192,9657,1,2,0:0:0:0:
329,192,9981,128,0,10306:0:0:0:0:
182,192,9981,128,0,10306:0:0:0:0:
256,192,10306,128,0,10792:0:0:0:0:
109,192,10306,1,0,3:0:0:0:
36,192,10630,1,0,3:0:0:0:
329,192,10630,1,8,0:0:0:0:
475,192,10792,128,0,10954:0:0:0:0:
402,192,10954,128,0,11441:0:0:0:0:
182,192,10954,1,0,3:0:0:0:
109,192,11279,1,0,3:0:0:0:
329,192,11279,1,8,0:0:0:0:
182,192,11441,128,0,11603:0:0:0:0:
256,192,11603,128,0,12089:0:0:0:0:
475,192,11603,1,0,3:0:0:0:
402,192,11927,1,8,0:0:0:0:
109,192,11927,1,0,3:0:0:0:
36,192,12089,128,0,12252:0:0:0:0:
109,192,12252,128,0,12738:0:0:0:0:
329,192,12252,1,0,3:0:0:0:
402,192,12576,1,8,0:0:0:0:
182,192,12576,1,0,3:0:0:0:
475,192,12738,128,0,12900:0:0:0:0:
402,192,12900,128,0,13387:0:0:0:0:
256,192,12900,1,0,3:0:0:0:
182,192,13224,1,8,0:0:0:0:
36,192,13224,1,0,3:0:0:0:
329,192,13387,128,0,13549:0:0:0:0:
256,192,13549,128,0,14035:0:0:0:0:
109,192,13549,1,0,3:0:0:0:
182,192,13873,1,0,3:0:0:0:
475,192,13873,1,8,0:0:0:0:
109,192,14035,128,0,14197:0:0:0:0:
36,192,14197,128,0,14684:0:0:0:0:
402,192,14197,1,0,3:0:0:0:
475,192,14522,1,8,0:0:0:0:
256,192,14522,1,0,3:0:0:0:
182,192,14684,128,0,14846:0:0:0:0:
256,192,14846,128,0,15333:0:0:0:0:
402,192,14846,1,0,3:0:0:0:
329,192,15170,1,8,0:0:0:0:
36,192,15170,1,0,3:0:0:0:
475,192,15495,128,0,15819:0:0:0:0:
109,192,15495,1,0,3:0:0:0:
256,192,15819,128,0,16143:0:0:0:0:
182,192,15819,1,0,3:0:0:0:
402,192,15819,1,8,0:0:0:0:
475,192,16143,1,0,3:0:0:0:
36,192,16143,128,0,16468:0:0:0:0:
329,192,16468,1,8,0:0:0:0:
109,192,16468,1,0,3:0:0:0:
475,192,16630,128,0,16792:0:0:0:0:
256,192,16792,128,0,16954:0:0:0:0:
182,192,16792,1,0,3:0:0:0:
36,192,16954,128,0,17116:0:0:0:0:
475,192,17116,128,0,17441:0:0:0:0:
109,192,17116,1,0,3:0:0:0:
402,192,17116,1,8,0:0:0:0:
36,192,17441,128,0,17765:0:0:0:0:
256,192,17441,1,0,3:0:0:0:
402,192,17765,1,8,0:0:0:0:
109,192,17765,1,0,3:0:0:0:
475,192,18089,128,0,18252:0:0:0:0:
256,192,18089,1,0,3:0:0:0:
36,192,18252,128,0,18414:0:0:0:0:
402,192,18576,128,0,18738:0:0:0:0:
256,192,18576,1,0,3:0:0:0:
109,192,18738,128,0,18900:0:0:0:0:
402,192,18900,128,0,19062:0:0:0:0:
256,192,18900,1,0,3:0:0:0:
109,192,19062,128,0,19224:0:0:0:0:
36,192,19387,128,0,19549:0:0:0:0:
256,192,19387,1,0,3:0:0:0:
475,192,19549,128,0,19711:0:0:0:0:
109,192,19873,128,0,20035:0:0:0:0:
256,192,19873,1,0,3:0:0:0:
402,192,20035,128,0,20197:0:0:0:0:
109,192,20197,128,0,20360:0:0:0:0:
256,192,20197,1,0,3:0:0:0:
402,192,20360,128,0,20522:0:0:0:0:
109,192,20522,128,0,20684:0:0:0:0:
256,192,20522,1,0,3:0:0:0:
182,192,20846,1,0,3:0:0:0:
329,192,20846,1,0,3:0:0:0:
182,192,21008,1,0,3:0:0:0:
329,192,21008,1,0,3:0:0:0:
475,192,21333,1,0,3:0:0:0:
36,192,21333,1,0,3:0:0:0:
475,192,21495,1,0,3:0:0:0:
36,192,21495,1,0,3:0:0:0:
256,192,21819,128,0,22143:0:0:0:0:
36,192,21981,128,2,22306:0:0:0:0:
329,192,22143,1,0,3:0:0:0:
402,192,22224,1,0,3:0:0:0:
182,192,22306,128,2,22630:0:0:0:0:
475,192,22306,1,8,0:0:0:0:
256,192,22306,1,0,3:0:0:0:
402,192,22468,1,0,3:0:0:0:
329,192,22549,1,0,3:0:0:0:
475,192,22630,128,2,22954:0:0:0:0:
256,192,22630,1,8,0:0:0:0:
36,192,22630,1,0,3:0:0:0:
109,192,22711,1,0,3:0:0:0:
182,192,22792,1,0,3:0:0:0:
36,192,22873,1,0,3:0:0:0:
329,192,22954,128,2,23279:0:0:0:0:
109,192,22954,1,0,3:0:0:0:
182,192,23035,1,0,3:0:0:0:
256,192,23116,1,0,3:0:0:0:
36,192,23197,1,0,3:0:0:0:
109,192,23279,1,0,3:0:0:0:
402,192,23279,128,0,23603:0:0:0:0:
475,192,23603,128,2,23927:0:0:0:0:
182,192,23603,1,0,3:0:0:0:
329,192,23603,1,8,0:0:0:0:
256,192,23765,1,0,3:0:0:0:
109,192,23927,128,2,24252:0:0:0:0:
402,192,23927,1,0,3:0:0:0:
329,192,24089,1,0,3:0:0:0:
402,192,24252,128,2,24576:0:0:0:0:
256,192,24252,1,0,3:0:0:0:
36,192,24252,1,8,0:0:0:0:
182,192,24414,1,0,3:0:0:0:
36,192,24576,128,2,24900:0:0:0:0:
109,192,24576,1,0,3:0:0:0:
402,192,24738,1,0,3:0:0:0:
329,192,24900,128,2,25062:0:0:0:0:
475,192,24900,1,0,3:0:0:0:
182,192,24900,1,8,0:0:0:0:
109,192,25062,128,2,25549:0:0:0:0:
402,192,25062,1,0,3:0:0:0:
256,192,25224,1,0,3:0:0:0:
475,192,25387,1,0,3:0:0:0:
256,192,25549,128,2,25873:0:0:0:0:
402,192,25549,1,0,3:0:0:0:
329,192,25549,1,8,0:0:0:0:
109,192,25711,1,0,3:0:0:0:
36,192,25873,128,2,26197:0:0:0:0:
182,192,25873,1,0,3:0:0:0:
402,192,26035,1,0,3:0:0:0:
475,192,26197,128,2,26360:0:0:0:0:
329,192,26197,1,0,3:0:0:0:
109,192,26197,1,8,0:0:0:0:
36,192,26360,128,2,26684:0:0:0:0:
182,192,26360,1,0,3:0:0:0:
256,192,26522,1,0,3:0:0:0:
475,192,26684,128,2,26846:0:0:0:0:
329,192,26684,1,0,3:0:0:0:
36,192,26846,128,2,27170:0:0:0:0:
402,192,26846,1,8,0:0:0:0:
109,192,26846,1,0,3:0:0:0:
182,192,27008,1,0,3:0:0:0:
475,192,27170,128,2,27495:0:0:0:0:
256,192,27170,1,0,3:0:0:0:
182,192,27333,1,0,3:0:0:0:
329,192,27495,128,2,28468:0:0:0:0:
109,192,27495,1,0,3:0:0:0:
402,192,27657,128,2,28468:0:0:0:0:
36,192,27657,1,0,3:0:0:0:
109,192,27819,1,0,3:0:0:0:
256,192,27819,1,8,0:0:0:0:
182,192,27981,1,0,3:0:0:0:
475,192,28143,128,2,28468:0:0:0:0:
256,192,28143,1,0,3:0:0:0:
182,192,28306,1,0,3:0:0:0:
256,192,28468,128,0,28792:0:0:0:0:
109,192,28468,1,0,3:0:0:0:
36,192,28792,128,2,29116:0:0:0:0:
329,192,28792,1,0,3:0:0:0:
182,192,28792,1,8,0:0:0:0:
256,192,28954,1,0,3:0:0:0:
109,192,29116,1,0,3:0:0:0:
402,192,29116,128,2,29441:0:0:0:0:
182,192,29279,1,0,3:0:0:0:
475,192,29441,1,8,0:0:0:0:
256,192,29441,1,0,3:0:0:0:
109,192,29441,128,2,29765:0:0:0:0:
329,192,29603,1,0,3:0:0:0:
402,192,29765,1,0,3:0:0:0:
475,192,29765,128,2,30089:0:0:0:0:
109,192,29927,1,0,3:0:0:0:
182,192,30089,128,2,30252:0:0:0:0:
36,192,30089,1,0,3:0:0:0:
329,192,30089,1,8,0:0:0:0:
402,192,30252,128,2,30738:0:0:0:0:
109,192,30252,1,0,3:0:0:0:
256,192,30414,1,0,3:0:0:0:
36,192,30576,1,0,3:0:0:0:
109,192,30738,1,0,3:0:0:0:
182,192,30738,1,8,0:0:0:0:
256,192,30738,128,2,31062:0:0:0:0:
402,192,30900,1,0,3:0:0:0:
475,192,31062,128,2,31387:0:0:0:0:
329,192,31062,1,0,3:0:0:0:
109,192,31224,1,0,3:0:0:0:
36,192,31387,128,2,31549:0:0:0:0:
402,192,31387,1,8,0:0:0:0:
182,192,31387,1,0,3:0:0:0:
329,192,31549,1,0,3:0:0:0:
475,192,31549,128,2,31873:0:0:0:0:
256,192,31711,1,0,3:0:0:0:
182,192,31873,1,0,3:0:0:0:
36,192,31873,128,2,32035:0:0:0:0:
402,192,32035,1,0,3:0:0:0:
109,192,32035,1,8,0:0:0:0:
475,192,32035,128,2,32360:0:0:0:0:
329,192,32197,1,0,3:0:0:0:
36,192,32360,128,2,32684:0:0:0:0:
256,192,32360,1,0,3:0:0:0:
329,192,32522,1,0,3:0:0:0:
402,192,32684,1,0,3:0:0:0:
182,192,32684,128,2,33657:0:0:0:0:
109,192,32846,128,2,33657:0:0:0:0:
329,192,32846,1,0,3:0:0:0:
402,192,33008,1,0,3:0:0:0:
256,192,33008,1,8,0:0:0:0:
475,192,33008,128,0,33333:0:0:0:0:
329,192,33170,1,0,3:0:0:0:
36,192,33333,128,2,33657:0:0:0:0:
256,192,33333,1,0,3:0:0:0:
402,192,33333,128,0,33657:0:0:0:0:
329,192,33495,1,0,3:0:0:0:
329,192,33657,128,0,34306:0:0:0:0:
256,192,33657,1,0,3:0:0:0:
36,192,34306,128,0,34630:0:0:0:0:
109,192,34630,128,0,34954:0:0:0:0:
182,192,34954,128,0,35603:0:0:0:0:
329,192,34954,1,2,0:0:0:0:
475,192,35603,128,0,35927:0:0:0:0:
36,192,35927,128,0,36252:0:0:0:0:
182,192,36252,1,2,0:0:0:0:
402,192,36252,128,0,36576:0:0:0:0:
109,192,36576,128,0,36900:0:0:0:0:
329,192,36900,128,0,37224:0:0:0:0:
182,192,37224,128,0,37549:0:0:0:0:
475,192,37549,128,0,38846:0:0:0:0:
402,192,37549,1,2,0:0:0:0:
402,192,37873,128,0,38846:0:0:0:0:
329,192,38197,128,0,38846:0:0:0:0:
256,192,38522,128,0,38846:0:0:0:0:
36,192,38846,128,0,41279:0:0:0:0:
109,192,38846,1,0,3:0:0:0:
182,192,39008,1,0,3:0:0:0:
256,192,39170,1,0,3:0:0:0:
475,192,39170,1,8,0:0:0:0:
402,192,39333,1,0,3:0:0:0:
329,192,39495,1,0,3:0:0:0:
109,192,39657,1,0,3:0:0:0:
182,192,39819,1,0,3:0:0:0:
402,192,39819,1,8,0:0:0:0:
329,192,39981,1,0,3:0:0:0:
256,192,40143,1,0,3:0:0:0:
475,192,40306,1,0,3:0:0:0:
402,192,40468,1,8,0:0:0:0:
109,192,40468,1,0,3:0:0:0:
182,192,40630,1,0,3:0:0:0:
256,192,40792,1,0,3:0:0:0:
402,192,40954,1,0,3:0:0:0:
329,192,41116,1,8,0:0:0:0:
256,192,41116,1,0,3:0:0:0:
109,192,41279,128,0,42738:0:0:0:0:
182,192,41279,1,0,3:0:0:0:
475,192,41441,128,0,41603:0:0:0:0:
256,192,41441,1,0,3:0:0:0:
182,192,41603,128,0,41765:0:0:0:0:
402,192,41603,1,0,3:0:0:0:
475,192,41765,128,0,41927:0:0:0:0:
256,192,41765,1,0,3:0:0:0:
182,192,41927,128,0,42089:0:0:0:0:
329,192,41927,1,0,3:0:0:0:
402,192,42089,128,0,42252:0:0:0:0:
256,192,42089,1,0,3:0:0:0:
36,192,42252,128,0,42414:0:0:0:0:
329,192,42252,1,0,3:0:0:0:
475,192,42252,1,8,0:0:0:0:
402,192,42414,128,0,42576:0:0:0:0:
182,192,42414,1,0,3:0:0:0:
256,192,42414,1,8,0:0:0:0:
36,192,42576,128,0,42738:0:0:0:0:
329,192,42576,1,0,3:0:0:0:
475,192,42576,1,8,0:0:0:0:
256,192,42738,1,8,0:0:0:0:
182,192,42738,1,0,3:0:0:0:
182,192,42900,1,0,3:0:0:0:
256,192,42900,1,8,0:0:0:0:
402,192,43062,1,8,0:0:0:0:
475,192,43062,1,0,3:0:0:0:
36,192,43387,1,0,3:0:0:0:
109,192,43387,1,8,0:0:0:0:
36,192,43549,1,0,3:0:0:0:
109,192,43549,1,8,0:0:0:0:
256,192,43711,1,8,0:0:0:0:
329,192,43711,1,0,3:0:0:0:
475,192,43873,1,0,3:0:0:0:
36,192,43873,1,0,3:0:0:0:
402,192,43954,1,0,3:0:0:0:
109,192,43954,1,0,3:0:0:0:
256,192,44035,128,0,44360:0:0:0:0:
36,192,44360,128,2,44684:0:0:0:0:
182,192,44360,1,8,0:0:0:0:
329,192,44360,1,0,3:0:0:0:
256,192,44522,1,0,3:0:0:0:
109,192,44684,1,0,3:0:0:0:
402,192,44684,128,2,45008:0:0:0:0:
182,192,44846,1,0,3:0:0:0:
256,192,45008,1,0,3:0:0:0:
109,192,45008,128,2,45333:0:0:0:0:
475,192,45008,1,8,0:0:0:0:
329,192,45170,1,0,3:0:0:0:
402,192,45333,1,0,3:0:0:0:
475,192,45333,128,2,45657:0:0:0:0:
109,192,45495,1,0,3:0:0:0:
36,192,45657,1,0,3:0:0:0:
329,192,45657,1,8,0:0:0:0:
182,192,45657,128,2,45819:0:0:0:0:
402,192,45819,128,2,46306:0:0:0:0:
109,192,45819,1,0,3:0:0:0:
256,192,45981,1,0,3:0:0:0:
36,192,46143,1,0,3:0:0:0:
182,192,46306,1,8,0:0:0:0:
256,192,46306,128,2,46630:0:0:0:0:
109,192,46306,1,0,3:0:0:0:
402,192,46468,1,0,3:0:0:0:
475,192,46630,128,2,46954:0:0:0:0:
329,192,46630,1,0,3:0:0:0:
109,192,46792,1,0,3:0:0:0:
402,192,46954,1,8,0:0:0:0:
182,192,46954,1,0,3:0:0:0:
36,192,46954,128,2,47116:0:0:0:0:
329,192,47116,1,0,3:0:0:0:
475,192,47116,128,2,47441:0:0:0:0:
256,192,47279,1,0,3:0:0:0:
36,192,47441,128,2,47603:0:0:0:0:
182,192,47441,1,0,3:0:0:0:
402,192,47603,1,0,3:0:0:0:
109,192,47603,1,8,0:0:0:0:
475,192,47603,128,2,47927:0:0:0:0:
329,192,47765,1,0,3:0:0:0:
256,192,47927,1,0,3:0:0:0:
36,192,47927,128,2,48252:0:0:0:0:
329,192,48089,1,0,3:0:0:0:
402,192,48252,1,0,3:0:0:0:
182,192,48252,128,2,49224:0:0:0:0:
109,192,48414,128,2,49224:0:0:0:0:
475,192,48414,1,0,3:0:0:0:
402,192,48576,1,0,3:0:0:0:
256,192,48576,1,8,0:0:0:0:
329,192,48738,1,0,3:0:0:0:
256,192,48900,1,0,3:0:0:0:
36,192,48900,128,2,49224:0:0:0:0:
329,192,49062,1,0,3:0:0:0:
256,192,49224,128,0,49549:0:0:0:0:
402,192,49224,1,0,3:0:0:0:
182,192,49549,1,0,3:0:0:0:
475,192,49549,128,2,49873:0:0:0:0:
329,192,49549,1,8,0:0:0:0:
256,192,49711,1,0,3:0:0:0:
402,192,49873,1,0,3:0:0:0:
109,192,49873,128,2,50197:0:0:0:0:
329,192,50035,1,0,3:0:0:0:
256,192,50197,1,0,3:0:0:0:
36,192,50197,1,8,0:0:0:0:
402,192,50197,128,2,50522:0:0:0:0:
182,192,50360,1,0,3:0:0:0:
109,192,50522,1,0,3:0:0:0:
36,192,50522,128,2,50846:0:0:0:0:
402,192,50684,1,0,3:0:0:0:
475,192,50846,1,0,3:0:0:0:
329,192,50846,128,2,51008:0:0:0:0:
182,192,50846,1,8,0:0:0:0:
109,192,51008,128,2,51495:0:0:0:0:
402,192,51008,1,0,3:0:0:0:
256,192,51170,1,0,3:0:0:0:
475,192,51333,1,0,3:0:0:0:
402,192,51495,1,0,3:0:0:0:
256,192,51495,128,2,51819:0:0:0:0:
329,192,51495,1,8,0:0:0:0:
109,192,51657,1,0,3:0:0:0:
182,192,51819,1,0,3:0:0:0:
36,192,51819,128,2,52143:0:0:0:0:
402,192,51981,1,0,3:0:0:0:
475,192,52143,128,2,52306:0:0:0:0:
329,192,52143,1,0,3:0:0:0:
109,192,52143,1,8,0:0:0:0:
36,192,52306,128,2,52630:0:0:0:0:
182,192,52306,1,0,3:0:0:0:
256,192,52468,1,0,3:0:0:0:
475,192,52630,128,2,52792:0:0:0:0:
329,192,52630,1,0,3:0:0:0:
36,192,52792,128,2,53116:0:0:0:0:
109,192,52792,1,0,3:0:0:0:
402,192,52792,1,8,0:0:0:0:
182,192,52954,1,0,3:0:0:0:
256,192,53116,1,0,3:0:0:0:
475,192,53116,128,2,53441:0:0:0:0:
182,192,53279,1,0,3:0:0:0:
329,192,53441,128,2,54414:0:0:0:0:
109,192,53441,1,0,3:0:0:0:
182,192,53603,1,0,3:0:0:0:
402,192,53603,128,2,54414:0:0:0:0:
256,192,53765,1,8,0:0:0:0:
109,192,53765,1,0,3:0:0:0:
36,192,53765,128,0,54089:0:0:0:0:
182,192,53927,1,0,3:0:0:0:
475,192,54089,128,2,54414:0:0:0:0:
109,192,54089,128,0,54414:0:0:0:0:
256,192,54089,1,0,3:0:0:0:
182,192,54252,1,0,3:0:0:0:
182,192,54414,128,0,55062:0:0:0:0:
256,192,54414,1,0,3:0:0:0:
475,192,55062,128,0,55387:0:0:0:0:
402,192,55387,128,0,55711:0:0:0:0:
329,192,55711,128,0,56360:0:0:0:0:
182,192,55711,1,2,0:0:0:0:
36,192,56360,128,0,56684:0:0:0:0:
475,192,56684,128,0,57008:0:0:0:0:
109,192,57008,128,0,57333:0:0:0:0:
329,192,57008,1,2,0:0:0:0:
402,192,57333,128,0,57657:0:0:0:0:
182,192,57333,1,2,0:0:0:0:
109,192,57657,128,0,57981:0:0:0:0:
329,192,57657,1,2,0:0:0:0:
402,192,57981,128,0,58306:0:0:0:0:
182,192,57981,1,2,0:0:0:0:
36,192,58306,128,0,59603:0:0:0:0:
109,192,58306,1,2,0:0:0:0:
109,192,58630,128,0,59603:0:0:0:0:
182,192,58954,128,0,59603:0:0:0:0:
256,192,59279,128,0,59603:0:0:0:0:
475,192,59603,128,0,62035:0:0:0:0:
402,192,59603,1,0,3:0:0:0:
329,192,59765,1,0,3:0:0:0:
256,192,59927,1,0,3:0:0:0:
36,192,59927,1,8,0:0:0:0:
109,192,60089,1,0,3:0:0:0:
182,192,60252,1,0,3:0:0:0:
402,192,60414,1,0,3:0:0:0:
329,192,60576,1,0,3:0:0:0:
109,192,60576,1,8,0:0:0:0:
36,192,60738,1,0,3:0:0:0:
256,192,60900,1,0,3:0:0:0:
182,192,61062,1,0,3:0:0:0:
109,192,61224,1,8,0:0:0:0:
402,192,61224,1,0,3:0:0:0:
329,192,61387,1,0,3:0:0:0:
256,192,61549,1,0,3:0:0:0:
109,192,61711,1,0,3:0:0:0:
182,192,61873,1,8,0:0:0:0:
256,192,61873,1,0,3:0:0:0:
402,192,62035,128,0,63495:0:0:0:0:
329,192,62035,1,0,3:0:0:0:
36,192,62197,128,0,62360:0:0:0:0:
256,192,62197,1,0,3:0:0:0:
109,192,62360,1,0,3:0:0:0:
329,192,62360,128,0,62522:0:0:0:0:
256,192,62522,1,0,3:0:0:0:
36,192,62522,128,0,62684:0:0:0:0:
329,192,62684,128,0,62846:0:0:0:0:
182,192,62684,1,0,3:0:0:0:
109,192,62846,128,0,63008:0:0:0:0:
256,192,62846,1,0,3:0:0:0:
475,192,63008,128,0,63170:0:0:0:0:
182,192,63008,1,0,3:0:0:0:
36,192,63008,1,8,0:0:0:0:
109,192,63170,128,0,63333:0:0:0:0:
329,192,63170,1,0,3:0:0:0:
256,192,63170,1,8,0:0:0:0:
36,192,63333,1,8,0:0:0:0:
475,192,63333,128,0,63495:0:0:0:0:
182,192,63333,1,0,3:0:0:0:
256,192,63495,1,8,0:0:0:0:
329,192,63495,1,0,3:0:0:0:
109,192,63495,1,0,0:0:0:0:
36,192,63819,128,0,64792:0:0:0:0:
256,192,64143,128,0,64792:0:0:0:0:
475,192,64468,128,0,64792:0:0:0:0:
109,192,64792,128,0,64954:0:0:0:0:
182,192,64792,1,0,3:0:0:0:
329,192,64792,1,0,3:0:0:0:
402,192,64954,128,0,65116:0:0:0:0:
256,192,64954,1,0,3:0:0:0:
36,192,65116,128,0,65279:0:0:0:0:
329,192,65116,1,0,3:0:0:0:
109,192,65116,1,8,0:0:0:0:
475,192,65279,128,0,65441:0:0:0:0:
256,192,65279,1,0,3:0:0:0:
109,192,65441,128,0,65603:0:0:0:0:
182,192,65441,1,0,3:0:0:0:
402,192,65603,128,0,65765:0:0:0:0:
256,192,65603,1,0,3:0:0:0:
36,192,65603,1,8,0:0:0:0:
182,192,65765,128,0,65927:0:0:0:0:
329,192,65765,1,0,3:0:0:0:
36,192,65765,1,8,0:0:0:0:
475,192,65927,128,0,66089:0:0:0:0:
109,192,65927,1,0,3:0:0:0:
36,192,66089,128,0,66252:0:0:0:0:
182,192,66089,1,0,3:0:0:0:
329,192,66252,128,0,66414:0:0:0:0:
402,192,66252,1,0,3:0:0:0:
109,192,66414,128,0,66576:0:0:0:0:
475,192,66414,1,0,3:0:0:0:
256,192,66414,1,8,0:0:0:0:
402,192,66576,128,0,66738:0:0:0:0:
329,192,66576,1,0,3:0:0:0:
182,192,66738,128,0,66900:0:0:0:0:
256,192,66738,1,0,3:0:0:0:
475,192,66900,128,0,67062:0:0:0:0:
36,192,66900,1,0,3:0:0:0:
109,192,67062,128,0,67224:0:0:0:0:
182,192,67062,1,0,3:0:0:0:
329,192,67062,1,8,0:0:0:0:
402,192,67224,128,0,67387:0:0:0:0:
256,192,67224,1,0,3:0:0:0:
36,192,67387,128,0,67549:0:0:0:0:
182,192,67387,1,0,3:0:0:0:
329,192,67549,128,0,67711:0:0:0:0:
402,192,67549,1,0,3:0:0:0:
109,192,67711,128,0,67873:0:0:0:0:
475,192,67711,1,0,3:0:0:0:
36,192,67711,1,8,0:0:0:0:
402,192,67873,128,0,68035:0:0:0:0:
256,192,67873,1,0,3:0:0:0:
36,192,68035,128,0,68197:0:0:0:0:
182,192,68035,1,0,3:0:0:0:
329,192,68197,128,0,68360:0:0:0:0:
475,192,68197,1,0,3:0:0:0:
109,192,68360,128,0,68522:0:0:0:0:
256,192,68360,1,0,3:0:0:0:
36,192,68360,1,8,0:0:0:0:
402,192,68522,128,0,68684:0:0:0:0:
329,192,68522,1,0,3:0:0:0:
182,192,68684,128,0,68846:0:0:0:0:
36,192,68684,1,0,3:0:0:0:
475,192,68846,128,0,69008:0:0:0:0:
256,192,68846,1,0,3:0:0:0:
109,192,69008,128,0,69170:0:0:0:0:
329,192,69008,1,0,3:0:0:0:
36,192,69008,1,8,0:0:0:0:
402,192,69170,128,0,69333:0:0:0:0:
256,192,69170,1,0,3:0:0:0:
182,192,69333,128,0,69495:0:0:0:0:
36,192,69333,1,0,3:0:0:0:
475,192,69495,128,0,69657:0:0:0:0:
256,192,69495,1,0,3:0:0:0:
109,192,69657,128,0,69819:0:0:0:0:
329,192,69657,1,0,3:0:0:0:
36,192,69657,1,8,0:0:0:0:
402,192,69819,128,0,69981:0:0:0:0:
182,192,69819,1,0,3:0:0:0:
329,192,69981,128,0,70143:0:0:0:0:
256,192,69981,1,0,3:0:0:0:
36,192,70143,128,0,70306:0:0:0:0:
475,192,70143,1,0,3:0:0:0:
402,192,70306,128,0,70468:0:0:0:0:
256,192,70306,1,0,3:0:0:0:
182,192,70306,1,8,0:0:0:0:
109,192,70468,128,0,70630:0:0:0:0:
329,192,70468,1,8,0:0:0:0:
256,192,70468,1,0,3:0:0:0:
36,192,70630,1,0,3:0:0:0:
475,192,70630,128,0,70792:0:0:0:0:
182,192,70792,128,0,70954:0:0:0:0:
109,192,70792,1,0,3:0:0:0:
402,192,70954,128,0,71116:0:0:0:0:
256,192,70954,1,0,3:0:0:0:
475,192,70954,1,8,0:0:0:0:
109,192,71116,128,0,71279:0:0:0:0:
182,192,71116,1,0,3:0:0:0:
329,192,71279,128,0,71441:0:0:0:0:
475,192,71279,1,0,3:0:0:0:
36,192,71441,128,0,71603:0:0:0:0:
109,192,71441,1,0,3:0:0:0:
402,192,71603,128,0,71765:0:0:0:0:
182,192,71603,1,0,3:0:0:0:
329,192,71603,1,8,0:0:0:0:
109,192,71765,128,0,71927:0:0:0:0:
182,192,71765,1,0,3:0:0:0:
329,192,71765,1,8,0:0:0:0:
475,192,71927,128,0,72089:0:0:0:0:
36,192,71927,1,0,3:0:0:0:
182,192,72089,128,0,72252:0:0:0:0:
109,192,72089,1,0,3:0:0:0:
256,192,72252,128,0,72576:0:0:0:0:
329,192,72252,1,0,3:0:0:0:
402,192,72252,1,8,0:0:0:0:
36,192,72576,128,0,72900:0:0:0:0:
109,192,72576,1,2,0:0:0:0:
475,192,72900,128,0,73224:0:0:0:0:
402,192,72900,1,2,0:0:0:0:
109,192,73224,128,0,73549:0:0:0:0:
182,192,73224,1,2,0:0:0:0:
402,192,73549,128,0,73873:0:0:0:0:
329,192,73549,1,2,0:0:0:0:
36,192,74035,1,0,3:0:0:0:
109,192,74116,1,0,3:0:0:0:
182,192,74197,1,0,3:0:0:0:
475,192,74360,1,0,3:0:0:0:
402,192,74441,1,0,3:0:0:0:
329,192,74522,1,0,3:0:0:0:
109,192,74684,1,0,3:0:0:0:
256,192,75008,1,8,0:0:0:0:
402,192,75170,128,0,75333:0:0:0:0:
256,192,75333,1,0,3:0:0:0:
109,192,75333,128,0,75495:0:0:0:0:
402,192,75495,1,8,0:0:0:0:
182,192,75495,1,0,3:0:0:0:
475,192,75495,128,0,75657:0:0:0:0:
256,192,75657,1,0,3:0:0:0:
36,192,75657,128,0,75819:0:0:0:0:
329,192,75819,1,0,3:0:0:0:
402,192,75819,128,0,75981:0:0:0:0:
256,192,75981,1,0,3:0:0:0:
109,192,75981,128,0,76143:0:0:0:0:
475,192,76143,1,8,0:0:0:0:
329,192,76143,128,0,76306:0:0:0:0:
182,192,76143,1,0,3:0:0:0:
402,192,76306,1,0,3:0:0:0:
36,192,76306,128,0,76468:0:0:0:0:
475,192,76468,128,0,76630:0:0:0:0:
329,192,76468,1,0,3:0:0:0:
182,192,76630,128,0,76792:0:0:0:0:
109,192,76630,1,0,3:0:0:0:
36,192,76792,1,0,3:0:0:0:
256,192,76792,1,8,0:0:0:0:
402,192,76792,128,0,76954:0:0:0:0:
182,192,76954,1,0,3:0:0:0:
109,192,76954,128,0,77116:0:0:0:0:
329,192,77116,128,0,77279:0:0:0:0:
256,192,77116,1,0,3:0:0:0:
475,192,77279,1,0,3:0:0:0:
36,192,77279,128,0,77441:0:0:0:0:
182,192,77441,1,8,0:0:0:0:
402,192,77441,128,0,77603:0:0:0:0:
329,192,77441,1,0,3:0:0:0:
109,192,77603,128,0,77765:0:0:0:0:
256,192,77603,1,0,3:0:0:0:
329,192,77765,1,0,3:0:0:0:
475,192,77765,128,0,77927:0:0:0:0:
109,192,77927,1,0,3:0:0:0:
182,192,77927,128,0,78089:0:0:0:0:
475,192,78089,1,8,0:0:0:0:
402,192,78089,128,0,78252:0:0:0:0:
36,192,78089,1,0,3:0:0:0:
109,192,78252,128,0,78414:0:0:0:0:
256,192,78252,1,0,3:0:0:0:
329,192,78414,1,0,3:0:0:0:
475,192,78414,128,0,78576:0:0:0:0:
182,192,78576,128,0,78738:0:0:0:0:
36,192,78576,1,0,3:0:0:0:
256,192,78738,1,0,3:0:0:0:
402,192,78738,128,0,78900:0:0:0:0:
475,192,78738,1,8,0:0:0:0:
182,192,78900,1,0,3:0:0:0:
109,192,78900,128,0,79062:0:0:0:0:
475,192,79062,1,0,3:0:0:0:
329,192,79062,128,0,79224:0:0:0:0:
36,192,79224,128,0,79387:0:0:0:0:
256,192,79224,1,0,3:0:0:0:
475,192,79387,1,8,0:0:0:0:
182,192,79387,1,0,3:0:0:0:
402,192,79387,128,0,79549:0:0:0:0:
256,192,79549,1,0,3:0:0:0:
109,192,79549,128,0,79711:0:0:0:0:
475,192,79711,1,0,3:0:0:0:
329,192,79711,128,0,79873:0:0:0:0:
36,192,79873,128,0,80035:0:0:0:0:
256,192,79873,1,0,3:0:0:0:
475,192,80035,1,8,0:0:0:0:
182,192,80035,1,0,3:0:0:0:
402,192,80035,128,0,80197:0:0:0:0:
329,192,80197,1,0,3:0:0:0:
109,192,80197,128,0,80360:0:0:0:0:
256,192,80360,1,0,3:0:0:0:
182,192,80360,128,0,80522:0:0:0:0:
475,192,80522,128,0,80684:0:0:0:0:
36,192,80522,1,0,3:0:0:0:
109,192,80684,128,0,80846:0:0:0:0:
329,192,80684,1,8,0:0:0:0:
256,192,80684,1,0,3:0:0:0:
256,192,80846,1,0,3:0:0:0:
182,192,80846,1,8,0:0:0:0:
402,192,80846,128,0,81008:0:0:0:0:
475,192,81008,1,0,3:0:0:0:
36,192,81008,128,0,81170:0:0:0:0:
402,192,81170,1,0,3:0:0:0:
329,192,81170,128,0,81333:0:0:0:0:
36,192,81333,1,8,0:0:0:0:
109,192,81333,128,0,81495:0:0:0:0:
256,192,81333,1,0,3:0:0:0:
402,192,81495,128,0,81657:0:0:0:0:
329,192,81495,1,0,3:0:0:0:
36,192,81657,1,0,3:0:0:0:
182,192,81657,128,0,81819:0:0:0:0:
475,192,81819,128,0,81981:0:0:0:0:
402,192,81819,1,0,3:0:0:0:
329,192,81981,1,0,3:0:0:0:
182,192,81981,1,8,0:0:0:0:
109,192,81981,128,0,82143:0:0:0:0:
182,192,82143,1,8,0:0:0:0:
329,192,82143,1,0,3:0:0:0:
402,192,82143,128,0,82306:0:0:0:0:
475,192,82306,1,0,3:0:0:0:
36,192,82306,128,0,82468:0:0:0:0:
402,192,82468,1,0,3:0:0:0:
329,192,82468,128,0,82630:0:0:0:0:
256,192,82630,128,0,82954:0:0:0:0:
109,192,82630,1,8,0:0:0:0:
182,192,82630,1,0,3:0:0:0:
402,192,82954,1,2,0:0:0:0:
475,192,82954,128,0,83279:0:0:0:0:
36,192,83279,128,0,83603:0:0:0:0:
109,192,83279,1,2,0:0:0:0:
329,192,83603,1,2,0:0:0:0:
402,192,83603,128,0,83927:0:0:0:0:
182,192,83927,1,2,0:0:0:0:
109,192,83927,128,0,84252:0:0:0:0:
475,192,84414,1,0,3:0:0:0:
402,192,84495,1,0,3:0:0:0:
329,192,84576,1,0,3:0:0:0:
36,192,84738,1,0,3:0:0:0:
109,192,84819,1,0,3:0:0:0:
182,192,84900,1,0,3:0:0:0:
402,192,85062,1,0,3:0:0:0:
36,192,85387,128,2,85549:0:0:0:0:
475,192,85549,128,2,86035:0:0:0:0:
109,192,85549,1,0,3:0:0:0:
182,192,85873,1,8,0:0:0:0:
329,192,85873,1,0,3:0:0:0:
36,192,86035,128,2,86197:0:0:0:0:
475,192,86197,128,2,87657:0:0:0:0:
402,192,86197,1,0,3:0:0:0:
329,192,86522,1,0,3:0:0:0:
182,192,86522,1,8,0:0:0:0:
36,192,86846,1,0,3:0:0:0:
182,192,87170,1,8,0:0:0:0:
329,192,87170,1,0,3:0:0:0:
402,192,87495,1,0,3:0:0:0:
256,192,87657,1,0,3:0:0:0:
329,192,87819,1,0,3:0:0:0:
182,192,87819,1,8,0:0:0:0:
475,192,87981,128,2,88143:0:0:0:0:
256,192,87981,1,0,3:0:0:0:
402,192,88143,1,0,3:0:0:0:
36,192,88143,128,2,88630:0:0:0:0:
256,192,88306,1,0,3:0:0:0:
182,192,88468,1,0,3:0:0:0:
329,192,88468,1,8,0:0:0:0:
475,192,88630,128,2,88792:0:0:0:0:
256,192,88630,1,0,3:0:0:0:
36,192,88792,128,2,90252:0:0:0:0:
109,192,88792,1,0,3:0:0:0:
256,192,88954,1,0,3:0:0:0:
182,192,89116,1,0,3:0:0:0:
329,192,89116,1,8,0:0:0:0:
475,192,89441,1,0,3:0:0:0:
182,192,89765,1,0,3:0:0:0:
329,192,89765,1,8,0:0:0:0:
109,192,90089,1,0,3:0:0:0:
256,192,90252,1,0,3:0:0:0:
329,192,90414,1,8,0:0:0:0:
182,192,90414,1,0,3:0:0:0:
36,192,90738,128,2,91387:0:0:0:0:
182,192,91062,128,2,91387:0:0:0:0:
475,192,91387,128,2,92035:0:0:0:0:
329,192,91711,128,2,92035:0:0:0:0:
36,192,92035,128,2,92684:0:0:0:0:
182,192,92360,128,2,92684:0:0:0:0:
475,192,92684,128,2,92846:0:0:0:0:
329,192,92846,128,2,93008:0:0:0:0:
182,192,93008,128,2,93170:0:0:0:0:
36,192,93170,128,2,93333:0:0:0:0:
256,192,93333,128,2,93819:0:0:0:0:
475,192,93819,128,2,95116:0:0:0:0:
36,192,93981,128,2,95116:0:0:0:0:
256,192,93981,1,0,3:0:0:0:
182,192,94306,1,8,0:0:0:0:
329,192,94306,1,0,3:0:0:0:
109,192,94630,1,0,3:0:0:0:
182,192,94711,1,0,3:0:0:0:
256,192,94792,1,0,3:0:0:0:
329,192,94873,1,0,3:0:0:0:
402,192,94954,1,0,3:0:0:0:
329,192,95035,1,0,3:0:0:0:
256,192,95116,1,0,3:0:0:0:
182,192,95197,1,0,3:0:0:0:
109,192,95279,1,0,3:0:0:0:
402,192,95279,1,4,0:0:0:0:
475,192,95927,1,0,3:0:0:0:
402,192,95927,1,0,3:0:0:0:
109,192,96089,1,0,3:0:0:0:
36,192,96089,1,0,3:0:0:0:
475,192,96252,1,0,3:0:0:0:
402,192,96252,1,0,3:0:0:0:
36,192,96414,1,0,3:0:0:0:
109,192,96414,1,0,3:0:0:0:
475,192,96576,1,0,3:0:0:0:
402,192,96576,1,0,3:0:0:0:
256,192,96738,1,0,3:0:0:0:
329,192,96900,1,8,0:0:0:0:
182,192,96900,1,8,0:0:0:0:
109,192,97224,1,0,3:0:0:0:
36,192,97224,1,0,3:0:0:0:
402,192,97387,1,0,3:0:0:0:
475,192,97387,1,0,3:0:0:0:
109,192,97549,1,0,3:0:0:0:
36,192,97549,1,0,3:0:0:0:
402,192,97711,1,0,3:0:0:0:
475,192,97711,1,0,3:0:0:0:
109,192,97873,1,0,3:0:0:0:
36,192,97873,1,0,3:0:0:0:
402,192,98035,128,2,98197:0:0:0:0:
256,192,98197,128,2,98360:0:0:0:0:
109,192,98360,128,2,98522:0:0:0:0:
475,192,98522,128,2,98684:0:0:0:0:
36,192,98684,128,2,98846:0:0:0:0:
402,192,98846,1,0,0:0:0:0:
329,192,98887,1,0,0:0:0:0:
256,192,98927,1,0,0:0:0:0:
182,192,98968,1,0,0:0:0:0:
109,192,99008,1,0,0:0:0:0:
475,192,99170,128,2,99333:0:0:0:0:
36,192,99333,128,2,99495:0:0:0:0:
402,192,99495,1,0,0:0:0:0:
329,192,99535,1,0,0:0:0:0:
256,192,99576,1,0,0:0:0:0:
182,192,99616,1,0,0:0:0:0:
109,192,99657,1,0,0:0:0:0:
256,192,99981,128,2,100630:0:0:0:0:
475,192,100306,128,2,102414:0:0:0:0:
36,192,100468,128,2,102414:0:0:0:0:
256,192,100792,128,2,102414:0:0:0:0:
182,192,101116,128,2,102414:0:0:0:0:
329,192,101116,128,2,102414:0:0:0:0:
109,192,101765,1,0,0:0:0:0:
402,192,101927,1,0,0:0:0:0:
109,192,102089,1,0,0:0:0:0:
402,192,102252,1,0,0:0:0:0:
109,192,102414,1,0,0:0:0:0:
256,192,103468,1,0,0:0:0:0:
