osu file format v14

[General]
AudioFilename: yryrrrrr.mp3
AudioLeadIn: 0
PreviewTime: 63819
Countdown: 0
SampleSet: Soft
StackLeniency: 0.7
Mode: 0
LetterboxInBreaks: 0
WidescreenStoryboard: 0

[Editor]
DistanceSpacing: 1
BeatDivisor: 4
GridSize: 4
TimelineZoom: 1.7

[Metadata]
Title:Yuru Yurinrinrinrinrin
TitleUnicode:ゆるゆりんりんりんりんりん
Artist:Nanamori-chu*Goraku-bu
ArtistUnicode:七森中☆ごらく部
Creator:Haruru
Version:Normal
Source:ゆるゆり なちゅやちゅみ!
Tags:三上枝織 大坪由佳 津田美波 大久保瑠美 mikami shiori otsubo yuka tsuda minami okubo rumi 赤座あかり akaza akari 歳納京子 toshino kyoko 船見結衣 funami yui 吉川ちなつ yoshikawa chinatsu yryr ova opening anime nachuyachumi rare melophobia kshr
BeatmapID:650251
BeatmapSetID:287318

[Difficulty]
HPDrainRate:4
CircleSize:3
OverallDifficulty:4
ApproachRate:5
SliderMultiplier:1.2
SliderTickRate:1

[Events]
//Background and Video events
0,0,"4f513e66acc85b99ee249c8210626744.png",0,0
//Break Periods
//Storyboard Layer 0 (Background)
//Storyboard Layer 1 (Fail)
//Storyboard Layer 2 (Pass)
//Storyboard Layer 3 (Foreground)
//Storyboard Sound Samples

[TimingPoints]
1225,324.324324324324,4,2,2,50,1,0
2522,-100,4,2,1,50,0,0
2603,-100,4,2,2,50,0,0
3819,-100,4,2,1,50,0,0
3900,-100,4,2,2,50,0,0
5441,-100,4,2,1,50,0,0
5765,-100,4,2,2,50,0,0
6089,-100,4,2,1,50,0,0
6170,-100,4,2,2,50,0,0
6576,-100,4,2,1,50,0,0
6657,-100,4,2,2,50,0,0
10306,-100,4,2,1,50,0,0
10387,-100,4,2,2,50,0,0
15495,-100,4,2,1,50,0,0
15576,-100,4,2,2,50,0,0
23279,-100,4,2,1,50,0,0
23360,-100,4,2,2,50,0,0
33657,-100,4,2,2,40,0,0
38846,-100,4,2,1,50,0,0
38927,-100,4,2,2,50,0,0
44035,-100,4,2,1,50,0,0
44116,-100,4,2,2,50,0,0
54414,-100,4,2,1,40,0,0
54495,-100,4,2,2,40,0,0
59603,-100,4,2,1,40,0,0
59684,-100,4,2,2,40,0,0
64792,-100,4,2,2,60,0,1
85549,-100,4,2,2,40,0,0

[HitObjects]
184,132,2035,6,0,L|188:212,1,60,4|8,0:0|0:0,0:0:0:0:
236,304,2522,2,0,L|384:300,2,120,12|2|2,0:0|0:0|0:0,0:0:0:0:
180,324,3333,2,0,P|180:284|184:240,1,60,4|8,0:0|0:0,0:0:0:0:
252,168,3819,2,0,L|396:164,2,120,12|2|2,0:0|0:0|0:0,0:0:0:0:
192,164,4630,2,0,P|192:128|196:80,1,60,4|8,0:0|0:0,0:0:0:0:
80,144,5116,6,0,P|80:180|76:224,2,60,4|4|8,0:0|0:0|0:0,0:0:0:0:
160,236,5765,2,0,P|192:244|224:236,1,60,4|4,0:0|0:0,0:0:0:0:
276,224,6089,2,0,P|280:292|244:356,1,120,12|4,0:0|0:0,0:0:0:0:
220,384,6576,2,0,L|356:372,1,120,8|0,0:0|0:0,0:0:0:0:
380,328,7062,1,8,0:0:0:0:
372,208,7387,1,8,0:0:0:0:
492,208,7711,6,0,P|464:120|424:92,1,120,4|8,0:0|0:0,0:0:0:0:
376,204,8360,2,0,L|300:200,1,60,4|4,0:0|0:0,0:0:0:0:
292,256,8684,2,0,L|224:252,1,60,8|4,0:0|0:0,0:0:0:0:
180,280,9008,1,4,0:0:0:0:
152,116,9981,5,4,0:0:0:0:
124,232,10306,6,0,P|228:208|248:184,1,120,4|8,0:0|0:0,0:0:0:0:
244,144,10792,2,0,L|372:140,1,120,0|4,0:0|0:0,0:0:0:0:
424,140,11279,1,8,0:0:0:0:
372,248,11603,2,0,L|496:252,2,120,4|8|0,0:0|0:0|0:0,0:0:0:0:
336,296,12414,2,0,L|268:292,1,60,4|8,0:0|0:0,0:0:0:0:
156,284,12900,6,0,P|136:216|156:152,1,120,4|8,0:0|0:0,0:0:0:0:
188,124,13387,2,0,L|260:248,1,120,4|4,0:0|0:0,0:0:0:0:
260,288,13873,1,8,0:0:0:0:
356,360,14197,2,0,P|420:292|420:252,1,120,4|8,0:0|0:0,0:0:0:0:
396,216,14684,1,0,0:0:0:0:
372,160,14846,2,0,L|376:84,2,60,4|4|8,0:0|0:0|0:0,0:0:0:0:
296,256,15495,6,0,P|252:184|256:132,1,120,4|8,0:0|0:0,0:0:0:0:
284,36,16143,1,0,0:0:0:0:
228,64,16306,2,0,P|193:64|152:60,1,60,4|8,0:0|0:0,0:0:0:0:
56,24,16792,2,0,L|64:164,1,120,4|8,0:0|0:0,0:0:0:0:
148,232,17441,2,0,L|140:148,2,60,0|4|8,0:0|0:0|0:0,0:0:0:0:
116,348,18089,5,8,0:0:0:0:
176,344,18252,2,0,P|244:292|256:240,1,120,4|8,0:0|0:0,0:0:0:0:
240,204,18738,1,4,0:0:0:0:
296,96,19062,1,8,0:0:0:0:
344,208,19387,1,8,0:0:0:0:
400,232,19549,2,0,P|400:164|393:100,1,120,4|8,0:0|0:0,0:0:0:0:
344,80,20035,2,0,L|268:76,1,60,4|4,0:0|0:0,0:0:0:0:
244,120,20360,2,0,L|168:116,1,60,8|4,0:0|0:0,0:0:0:0:
104,208,20846,5,8,0:0:0:0:
156,236,21008,2,0,P|224:252|288:236,1,120,8|8,0:0|0:0,0:0:0:0:
312,200,21495,2,0,L|312:344,1,120,8|8,0:0|0:0,0:0:0:0:
216,168,22306,2,0,L|220:32,2,120,4|4|4,0:0|0:0|0:0,0:0:0:0:
248,284,23279,5,4,0:0:0:0:
132,256,23603,1,8,0:0:0:0:
168,372,23927,2,0,L|312:368,1,120,4|8,0:0|0:0,0:0:0:0:
364,272,24576,2,0,P|380:156|372:136,1,120,4|8,0:0|0:0,0:0:0:0:
356,104,25062,2,0,L|224:100,1,120,0|4,0:0|0:0,0:0:0:0:
176,88,25549,1,8,0:0:0:0:
72,148,25873,6,0,P|116:192|192:204,1,120,4|8,0:0|0:0,0:0:0:0:
228,188,26360,1,4,0:0:0:0:
224,308,26684,1,4,0:0:0:0:
252,360,26846,2,0,P|292:364|328:356,1,60,8|0,0:0|0:0,0:0:0:0:
360,324,27170,2,0,L|364:200,2,120,6|10|4,0:0|0:0|0:0,0:0:0:0:
400,368,27981,2,0,L|476:372,1,60,4|10,0:0|0:0,0:0:0:0:
472,252,28468,5,4,0:0:0:0:
468,132,28792,2,0,P|408:88|284:96,1,180,8|4,0:0|0:0,0:0:0:0:
252,116,29441,1,8,0:0:0:0:
136,80,29765,2,0,P|132:140|168:212,1,120,4|8,0:0|0:0,0:0:0:0:
196,240,30252,2,0,L|324:236,1,120,0|4,0:0|0:0,0:0:0:0:
368,208,30738,1,8,0:0:0:0:
452,296,31062,5,4,0:0:0:0:
484,180,31387,1,8,0:0:0:0:
456,128,31549,2,0,P|388:88|324:92,1,120,4|4,0:0|0:0,0:0:0:0:
292,108,32035,1,8,0:0:0:0:
200,184,32360,2,0,L|68:176,2,120,6|8|4,0:0|0:0|0:0,0:0:0:0:
260,176,33170,2,0,L|252:252,1,60,4|10,0:0|0:0,0:0:0:0:
152,300,33657,6,0,P|104:240|120:140,1,180,4|4,0:0|0:0,0:0:0:0:
164,104,34306,2,0,L|28:100,1,120,4|8,0:0|0:0,0:0:0:0:
132,20,34954,2,0,L|312:16,1,180,6|4,0:0|0:0,0:0:0:0:
372,8,35603,2,0,L|380:136,1,120,4|8,0:0|0:0,0:0:0:0:
488,76,36252,6,0,P|504:144|440:232,1,180,6|4,0:0|0:0,0:0:0:0:
384,236,36900,2,0,L|260:232,1,120,4|8,0:0|0:0,0:0:0:0:
160,172,37549,6,0,P|144:240|204:332,1,180,6|4,0:0|0:0,0:0:0:0:
256,352,38197,2,0,L|384:356,1,120,4|8,0:0|0:0,0:0:0:0:
424,244,38846,6,0,L|416:100,2,120,4|8|0,0:0|0:0|0:0,0:0:0:0:
372,276,39657,2,0,L|304:272,1,60,4|8,0:0|0:0,0:0:0:0:
212,340,40143,2,0,P|192:268|204:216,1,120,4|8,0:0|0:0,0:0:0:0:
260,120,40792,2,0,L|324:120,2,60,0|4|8,0:0|0:0|0:0,0:0:0:0:
160,48,41441,6,0,P|126:137|129:161,1,120,8|4,0:0|0:0,0:0:0:0:
152,276,42089,1,4,0:0:0:0:
196,316,42252,2,0,L|192:384,2,60,8|8|8,0:0|0:0|0:0,0:0:0:0:
236,272,42738,2,0,P|266:267|304:268,1,60,4|4,0:0|0:0,0:0:0:0:
348,300,43062,2,0,P|340:227|344:160,1,120,8|4,0:0|0:0,0:0:0:0:
360,124,43549,1,4,0:0:0:0:
384,68,43711,2,0,L|240:64,1,120,8|4,0:0|0:0,0:0:0:0:
148,92,44360,6,0,P|152:188|168:228,1,120,8|0,0:0|0:0,0:0:0:0:
196,256,44846,2,0,L|264:252,1,60,4|8,0:0|0:0,0:0:0:0:
352,324,45333,2,0,P|372:244|360:200,1,120,4|8,0:0|0:0,0:0:0:0:
320,168,45819,2,0,L|316:48,1,120
256,44,46306,1,8,0:0:0:0:
232,160,46630,6,0,P|176:132|148:64,1,120,4|8,0:0|0:0,0:0:0:0:
128,28,47116,2,0,L|120:168,1,120,4|4,0:0|0:0,0:0:0:0:
132,208,47603,1,8,0:0:0:0:
224,284,47927,2,0,L|372:276,2,120,6|8|4,0:0|0:0|0:0,0:0:0:0:
180,324,48738,2,0,P|180:284|184:244,1,60,4|10,0:0|0:0,0:0:0:0:
216,148,49224,5,4,0:0:0:0:
284,48,49549,2,0,P|328:109|310:221,1,180,8|4,0:0|0:0,0:0:0:0:
276,248,50197,1,8,0:0:0:0:
156,244,50522,2,0,P|156:174|176:128,1,120,4|8,0:0|0:0,0:0:0:0:
208,80,51008,2,0,L|80:76,1,120,0|4,0:0|0:0,0:0:0:0:
32,100,51495,1,8,0:0:0:0:
28,220,51819,6,0,P|65:281|133:299,1,120,4|8,0:0|0:0,0:0:0:0:
168,304,52306,1,4,0:0:0:0:
240,208,52630,1,4,0:0:0:0:
284,248,52792,2,0,P|284:285|276:320,1,60,8|0,0:0|0:0,0:0:0:0:
256,364,53116,2,0,L|392:356,1,120,6|8,0:0|0:0,0:0:0:0:
428,324,53603,2,0,P|432:288|428:252,1,60,4|4,0:0|0:0,0:0:0:0:
416,144,54089,1,10,0:0:0:0:
320,72,54414,6,0,P|296:136|340:244,1,180,4|4,0:2|0:0,0:0:0:0:
372,284,55062,2,0,L|248:280,1,120,4|8,0:0|0:0,0:0:0:0:
160,360,55711,2,0,P|128:268|168:184,1,180,4|4,0:0|0:0,0:0:0:0:
212,168,56360,1,4,0:0:0:0:
260,56,56684,1,8,0:0:0:0:
332,152,57008,6,0,P|333:213|348:284,1,120,4|0,0:0|0:0,0:0:0:0:
376,324,57495,1,4,0:0:0:0:
420,364,57657,2,0,L|296:360,1,120,4|8,0:0|0:0,0:0:0:0:
180,376,58306,2,0,P|192:280|168:188,1,180,4|4,0:0|0:0,0:0:0:0:
136,156,58954,2,0,L|268:152,1,120,4|8,0:0|0:0,0:0:0:0:
356,84,59603,5,4,0:0:0:0:
356,204,59927,2,0,P|292:256|188:240,1,180,8|4,0:0|0:0,0:0:0:0:
144,272,60576,1,8,0:0:0:0:
104,160,60900,2,0,P|100:100|96:32,2,120,4|8|0,0:0|0:0|0:0,0:0:0:0:
156,188,61711,2,0,P|190:178|240:172,1,60,4|8,0:0|0:0,0:0:0:0:
332,164,62197,6,0,L|336:304,1,120,4|4,0:0|0:0,0:0:0:0:
304,336,62684,1,4,0:0:0:0:
264,384,62846,2,0,L|192:376,1,60,4|8,0:0|0:0,0:0:0:0:
172,328,63170,2,0,L|176:252,2,60,8|8|8,0:0|0:0|0:0,0:0:0:0:
192,296,64792,6,0,L|184:160,2,120,4|10|0,0:0|0:0|0:0,0:0:0:0:
232,340,65603,2,0,L|304:336,1,60,6|8,0:0|0:0,0:0:0:0:
404,376,66089,2,0,P|420:304|400:240,1,120,4|10,0:0|0:0,0:0:0:0:
364,220,66576,2,0,P|348:148|368:84,1,120,6|6,0:0|0:0,0:0:0:0:
400,60,67062,1,8,0:0:0:0:
280,80,67387,6,0,L|152:72,1,120,4|10,0:0|0:0,0:0:0:0:
48,116,68035,2,0,P|47:150|52:196,1,60,0|6,0:0|0:0,0:0:0:0:
72,232,68360,1,8,0:0:0:0:
180,280,68684,2,0,P|192:228|168:160,1,120,4|8,0:0|0:0,0:0:0:0:
128,128,69170,2,0,L|260:124,1,120,6|6,0:0|0:0,0:0:0:0:
304,140,69657,1,10,0:0:0:0:
412,192,69981,6,0,P|376:236|304:252,1,120,4|8,0:0|0:0,0:0:0:0:
264,224,70468,2,0,P|208:232|136:268,1,120,4|0,0:0|0:0,0:0:0:0:
100,288,70954,1,8,0:0:0:0:
104,168,71279,2,0,P|166:94|211:89,1,120,4|8,0:0|0:0,0:0:0:0:
240,112,71765,1,4,0:0:0:0:
360,132,72089,2,0,L|444:124,1,60,4|8,0:0|0:0,0:0:0:0:
316,68,72576,6,0,P|284:120|308:192,1,120,6|10,0:0|0:0,0:0:0:0:
372,268,73224,2,0,L|448:272,2,60,2|4|10,0:0|0:0|0:0,0:0:0:0:
256,304,73873,2,0,P|196:304|136:280,1,120,2|10,0:0|0:0,0:0:0:0:
112,228,74360,1,8,0:0:0:0:
120,168,74522,2,0,P|120:131|108:92,1,60,10|4,0:0|0:0,0:0:0:0:
92,52,74846,2,0,L|172:48,1,60,0|4,0:0|0:0,0:0:0:0:
208,72,75170,6,0,P|280:100|336:76,1,120,4|10,0:0|0:0,0:0:0:0:
364,48,75657,2,0,L|368:168,1,120,2|6,0:0|0:0,0:0:0:0:
392,224,76143,1,8,0:0:0:0:
344,336,76468,2,0,P|276:308|220:316,1,120,4|10,0:0|0:0,0:0:0:0:
180,344,76954,2,0,L|188:196,1,120,6|6,0:0|0:0,0:0:0:0:
200,164,77441,1,8,0:0:0:0:
88,204,77765,6,0,L|80:328,2,120,4|10|0,0:0|0:0|0:0,0:0:0:0:
124,156,78576,2,0,P|128:123|128:88,1,60,6|8,0:0|0:0,0:0:0:0:
28,32,79062,2,0,L|168:36,1,120,4|14,0:0|0:0,0:0:0:0:
244,104,79711,2,0,L|240:24,2,60,2|4|10,0:0|0:0|0:0,0:0:0:0:
184,208,80360,6,0,L|320:216,1,120,4|8,0:0|0:0,0:0:0:0:
352,252,80846,2,0,P|400:204|400:132,1,120,0|4,0:0|0:0,0:0:0:0:
348,152,81333,2,0,L|352:88,1,60,8|4,0:0|0:0,0:0:0:0:
276,0,81819,1,4,0:0:0:0:
260,56,81981,2,0,P|216:84|128:72,1,120,8|0,0:0|0:0,0:0:0:0:
96,52,82468,2,0,L|88:124,1,60,4|8,0:0|0:0,0:0:0:0:
88,232,82954,6,0,P|168:252|216:232,1,120,6|10,0:0|0:0,0:0:0:0:
296,168,83603,2,0,L|304:252,2,60,2|4|10,0:0|0:0|0:0,0:0:0:0:
208,88,84252,2,0,P|276:56|340:60,1,120,2|6,0:0|0:0,0:0:0:0:
376,160,84900,2,0,L|380:288,1,120,6|4,0:0|0:0,0:0:0:0:
280,348,85549,6,0,P|216:348|140:336,1,120,4|8,0:0|0:0,0:0:0:0:
104,324,86035,1,0,0:0:0:0:
64,280,86197,2,0,P|52:216|72:152,1,120,0|8,0:0|0:0,0:0:0:0:
128,64,86846,2,0,L|268:60,1,120,4|8,0:0|0:0,0:0:0:0:
324,152,87495,2,0,L|328:228,2,60,0|4|8,0:0|0:0|0:0,0:0:0:0:
264,256,88143,6,0,P|336:288|384:264,1,120,4|8,0:0|0:0,0:0:0:0:
408,228,88630,2,0,L|400:108,1,120,0|4,0:0|0:0,0:0:0:0:
368,56,89116,1,8,0:0:0:0:
260,104,89441,2,0,P|180:100|124:80,2,120,4|8|0,0:0|0:0|0:0,0:0:0:0:
312,72,90252,2,0,L|312:156,1,60,4|8,0:0|0:0,0:0:0:0:
248,232,90738,6,0,L|120:224,1,120,6|10,0:0|0:0,0:0:0:0:
52,132,91387,2,0,L|192:140,1,120,6|10,0:0|0:0,0:0:0:0:
292,152,92035,2,0,P|332:212|324:280,1,120,6|10,0:0|0:0,0:0:0:0:
240,332,92684,2,0,L|168:328,1,60,6|6,0:0|0:0,0:0:0:0:
144,284,93008,2,0,L|80:280,1,60,10|6,0:0|0:0,0:0:0:0:
32,312,93333,6,0,L|44:176,1,120,6|8,0:0|0:0,0:0:0:0:
112,96,93981,2,0,P|156:156|160:208,1,120,6|8,0:0|0:0,0:0:0:0:
96,300,94630,2,0,B|172:340|229:294|229:294|280:308|280:308|344:288,1,240,8|8,0:0|0:0,0:0:0:0:
260,76,95927,6,0,L|120:72,2,120,2|2|2,0:0|0:0|0:0,0:0:0:0:
320,72,96738,2,0,L|324:148,1,60,4|8,0:0|0:0,0:0:0:0:
296,248,97224,2,0,L|164:244,2,120,2|2|2,0:0|0:0|0:0,0:0:0:0:
356,240,98035,2,0,L|360:312,1,60,4|8,0:0|0:0,0:0:0:0:
248,340,98522,6,0,L|168:328,1,60,4|4,0:0|0:0,0:0:0:0:
128,320,98846,2,0,P|92:244|104:192,1,120,8|4,0:0|0:0,0:0:0:0:
116,152,99333,1,4,0:0:0:0:
140,96,99495,2,0,P|78:97|24:68,1,120,8|4,0:0|0:0,0:0:0:0:
0,20,99981,6,0,L|8:152,1,120,8|8,0:0|0:0,0:0:0:0:
32,196,100468,1,8,0:0:0:0:
16,316,100792,1,8,0:0:0:0:
124,264,101116,6,0,L|268:260,1,120,4|8,0:0|0:0,0:0:0:0:
360,292,101765,2,0,L|356:220,1,60,0|4,0:0|0:0,0:0:0:0:
316,188,102089,2,0,L|312:112,2,60,8|4|8,0:0|0:0|0:0,0:0:0:0:
240,96,102738,5,2,0:0:0:0:
356,64,103062,2,0,L|488:60,1,120
