osu file format v14

[General]
AudioFilename: yryrrrrr.mp3
AudioLeadIn: 0
PreviewTime: 63819
Countdown: 0
SampleSet: Soft
StackLeniency: 0.7
Mode: 0
LetterboxInBreaks: 0
WidescreenStoryboard: 0

[Editor]
Bookmarks: 10306,23279,33657,44035,54414,64792,75170,85549,95927
DistanceSpacing: 1.2
BeatDivisor: 4
GridSize: 4
TimelineZoom: 1.7

[Metadata]
Title:Yuru Yurinrinrinrinrin
TitleUnicode:ゆるゆりんりんりんりんりん
Artist:Nanamori-chu*Goraku-bu
ArtistUnicode:七森中☆ごらく部
Creator:Haruru
Version:Light Insane
Source:ゆるゆり なちゅやちゅみ!
Tags:三上枝織 大坪由佳 津田美波 大久保瑠美 mikami shiori otsubo yuka tsuda minami okubo rumi 赤座あかり akaza akari 歳納京子 toshino kyoko 船見結衣 funami yui 吉川ちなつ yoshikawa chinatsu yryr ova opening anime nachuyachumi rare melophobia kshr
BeatmapID:732257
BeatmapSetID:287318

[Difficulty]
HPDrainRate:5.5
CircleSize:4
OverallDifficulty:7
ApproachRate:8.5
SliderMultiplier:1.55
SliderTickRate:1

[Events]
//Background and Video events
0,0,"4f513e66acc85b99ee249c8210626744.png",0,0
//Break Periods
//Storyboard Layer 0 (Background)
//Storyboard Layer 1 (Fail)
//Storyboard Layer 2 (Pass)
//Storyboard Layer 3 (Foreground)
//Storyboard Sound Samples

[TimingPoints]
1225,324.324324324324,4,2,2,50,1,0
2035,-111.111111111111,4,2,2,50,0,0
10306,-100,4,2,1,50,0,0
10387,-100,4,2,2,50,0,0
15495,-100,4,2,1,50,0,0
15657,-100,4,2,2,50,0,0
19306,-100,4,2,1,50,0,0
19468,-100,4,2,2,50,0,0
19792,-100,4,2,1,50,0,0
19954,-100,4,2,2,50,0,0
20684,-100,4,2,1,50,0,0
21900,-100,4,2,2,50,0,0
23279,-100,4,2,1,50,0,0
23360,-100,4,2,2,50,0,0
27170,-100,4,2,1,50,0,0
28468,-100,4,2,2,50,0,0
33657,-125,4,2,0,50,0,0
33738,-125,4,2,2,50,0,0
38846,-100,4,2,0,50,0,0
38927,-100,4,2,2,50,0,0
41441,-100,4,2,0,50,0,0
41522,-100,4,2,2,50,0,0
44035,-100,4,2,1,50,0,0
44116,-100,4,2,2,50,0,0
54414,-125,4,2,1,50,0,0
54495,-125,4,2,2,50,0,0
59603,-100,4,2,1,50,0,0
59684,-100,4,2,2,50,0,0
62197,-100,4,2,1,50,0,0
62279,-100,4,2,2,50,0,0
63008,-100,4,2,2,35,0,0
63495,-100,4,2,2,50,0,0
64792,-100,4,2,0,50,0,1
64873,-100,4,2,2,50,0,1
75170,-100,4,2,0,50,0,1
75252,-100,4,2,2,50,0,1
84981,-100,4,2,2,45,0,1
85143,-100,4,2,2,40,0,1
85306,-100,4,2,2,35,0,1
85549,-100,4,2,1,50,0,0
95927,-100,4,2,2,50,0,0

[HitObjects]
136,112,2035,5,4,0:0:0:0:
96,192,2197,2,0,P|91:226|92:268,1,69.749997871399,8|0,0:0|0:0,0:0:0:0:
216,348,2522,2,0,L|304:344,1,69.749997871399,2|2,0:0|0:0,0:0:0:0:
256,216,2846,2,0,L|336:220,1,69.749997871399,2|2,0:0|0:0,0:0:0:0:
408,260,3170,1,2,0:0:0:0:
404,168,3333,2,0,P|403:129|400:68,2,69.749997871399,4|8|0,0:0|0:0|0:0,0:0:0:0:
328,312,3819,6,0,P|328:350|332:412,1,69.749997871399,2|2,0:0|0:0,0:0:0:0:
409,329,4143,2,0,P|408:290|405:229,1,69.749997871399,2|2,0:0|0:0,0:0:0:0:
320,128,4468,1,2,0:0:0:0:
244,180,4630,2,0,L|148:176,1,69.749997871399,4|8,0:0|0:0,0:0:0:0:
112,92,4954,1,0,0:0:0:0:
4,104,5116,5,4,0:0:0:0:
4,104,5279,1,4,0:0:0:0:
96,236,5441,2,0,L|100:272,3,23.2499992904663,10|2|2|2,0:0|0:0|0:0|0:0,0:0:0:0:
86,141,5765,1,4,0:0:0:0:
86,141,5927,1,4,0:0:0:0:
24,288,6089,2,0,L|20:332,3,23.2499992904663,10|2|2|2,0:0|0:0|0:0|0:0,0:0:0:0:
12,196,6414,5,4,0:0:0:0:
168,176,6576,2,0,P|232:152|304:176,1,139.499995742798,8|0,0:0|0:0,0:0:0:0:
296,192,6981,1,0,0:0:0:0:
296,192,7062,2,0,L|300:280,1,69.749997871399,8|0,0:0|0:0,0:0:0:0:
224,364,7387,1,8,0:0:0:0:
224,364,7711,6,0,L|392:360,2,139.499995742798,4|8|4,0:0|0:0|0:0,0:0:0:0:
168,260,8522,1,4,0:0:0:0:
80,340,8684,2,0,L|-8:336,1,69.749997871399,8|4,0:0|0:0,0:0:0:0:
96,192,9008,1,4,0:0:0:0:
284,280,9981,6,0,P|300:232|292:180,1,104.624996807098,4|0,0:0|0:0,0:0:0:0:
268,144,10306,6,0,B|304:128|304:128|380:144|380:144|416:128,1,155,6|8,0:0|0:0,0:0:0:0:
368,44,10792,1,2,0:0:0:0:
512,104,10954,2,0,B|500:180|500:180|472:208,1,116.25,2|0,0:0|0:0,0:0:0:0:
440,180,11279,2,0,L|428:256,1,77.5,8|2,0:0|0:0,0:0:0:0:
468,340,11603,6,0,P|400:304|324:312,1,155,6|8,0:0|0:0,0:0:0:0:
254,375,12089,1,2,0:0:0:0:
212,292,12252,2,0,L|224:216,1,77.5,2|4,0:0|0:0,0:0:0:0:
316,88,12576,2,0,L|304:164,1,77.5,8|2,0:0|0:0,0:0:0:0:
224,215,12900,6,0,P|148:201|100:141,1,155,6|8,0:0|0:0,0:0:0:0:
144,60,13387,1,6,0:0:0:0:
4,124,13549,2,0,B|-12:160|-12:160|4:248,1,116.25,2|0,0:0|0:0,0:0:0:0:
44,244,13873,2,0,L|28:324,1,77.5,8|2,0:0|0:0,0:0:0:0:
104,376,14197,6,0,B|216:348|216:348|252:368,1,155,6|8,0:0|0:0,0:0:0:0:
336,328,14684,1,2,0:0:0:0:
412,384,14846,2,0,L|428:308,1,77.5,6|4,0:0|0:0,0:0:0:0:
300,224,15170,2,0,P|288:168|304:112,1,116.25,8|8,0:0|0:0,0:0:0:0:
344,124,15495,6,0,L|332:44,1,77.5,6|0,0:0|0:0,0:0:0:0:
180,16,15819,2,0,L|191:92,1,77.5,10|0,0:0|0:0,0:0:0:0:
152,176,16143,2,0,P|80:200|12:164,1,155,2|8,0:0|0:0,0:0:0:0:
84,104,16630,6,0,L|108:268,1,155,2|2,0:0|0:0,0:0:0:0:
16,276,17116,2,0,P|8:312|16:368,1,77.5,10|0,0:0|0:0,0:0:0:0:
200,384,17441,2,0,P|216:328|208:272,1,116.25,2|0,0:0|0:0,0:0:0:0:
244,244,17765,2,0,P|280:252|314:273,1,77.5,8|0,0:0|0:0,0:0:0:0:
368,352,18089,5,10,0:0:0:0:
436,284,18252,2,0,L|424:208,1,77.5,6|4,0:0|0:0,0:0:0:0:
324,88,18576,1,10,0:0:0:0:
264,160,18738,2,0,P|300:180|352:180,1,77.5,6|4,0:0|0:0,0:0:0:0:
484,136,19062,2,0,L|472:60,1,77.5,10|8,0:0|0:3,0:0:0:0:
324,88,19387,5,14,0:0:0:0:
264,160,19549,2,0,L|276:236,1,77.5,6|4,0:0|0:0,0:0:0:0:
368,352,19873,1,14,0:0:0:0:
436,284,20035,5,6,0:0:0:0:
368,352,20197,1,4,0:0:0:0:
280,316,20360,1,10,0:0:0:0:
212,384,20522,1,6,0:0:0:0:
368,184,20846,5,8,0:0:0:0:
368,184,21008,1,12,0:0:0:0:
224,64,21333,1,8,0:0:0:0:
224,64,21495,1,12,0:0:0:0:
72,168,21819,1,12,0:0:0:0:
148,224,21981,6,0,L|164:144,1,77.5,4|0,0:0|0:0,0:0:0:0:
240,296,22306,2,0,L|256:216,1,77.5,4|0,0:0|0:0,0:0:0:0:
355,96,22630,6,0,L|340:172,1,77.5,12|0,0:0|0:0,0:0:0:0:
447,168,22954,2,0,L|432:244,1,77.5,12|0,0:0|0:0,0:0:0:0:
484,320,23279,6,0,P|388:328|352:284,1,155,4|8,0:0|0:0,0:0:0:0:
276,240,23765,1,0,0:0:0:0:
216,376,23927,2,0,L|204:300,1,77.5,0|4,0:0|0:0,0:0:0:0:
44,248,24252,2,0,P|92:260|160:224,1,116.25,8|0,0:0|0:0,0:0:0:0:
164,208,24576,2,0,L|156:116,1,77.5,4|0,0:0|0:0,0:0:0:0:
192,40,24900,1,8,0:0:0:0:
264,100,25062,2,0,B|364:80|364:80|424:96,1,155,4|4,0:0|0:0,0:0:0:0:
484,32,25549,2,0,L|404:12,1,77.5,8|0,0:0|0:0,0:0:0:0:
316,20,25873,6,0,P|288:104|316:160,1,155,4|8,0:0|0:0,0:0:0:0:
373,364,26360,2,0,P|401:293|372:224,1,155,4|4,0:0|0:0,0:0:0:0:
288,240,26846,2,0,L|208:244,1,77.5,8|0,0:0|0:0,0:0:0:0:
45,115,27170,6,0,L|200:108,1,155,2|10,0:0|0:0,0:0:0:0:
276,164,27657,2,0,P|352:180|424:124,1,155,2|0,0:0|0:0,0:0:0:0:
500,172,28143,2,0,L|492:88,1,77.5,10|0,0:0|0:0,0:0:0:0:
403,24,28468,6,0,L|413:139,1,116.25,4|0,0:0|0:0,0:0:0:0:
400,168,28792,2,0,L|408:248,1,77.5,8|0,0:0|0:0,0:0:0:0:
464,316,29116,2,0,P|396:284|316:312,1,155,0|8,0:0|0:0,0:0:0:0:
272,384,29603,1,0,0:0:0:0:
228,304,29765,2,0,L|232:212,1,77.5,4|0,0:0|0:0,0:0:0:0:
76,136,30089,1,8,0:0:0:0:
16,208,30252,2,0,P|76:232|156:168,1,155,4|4,0:0|0:0,0:0:0:0:
144,18,30738,2,0,L|152:96,1,77.5,8|0,0:0|0:0,0:0:0:0:
232,144,31062,6,0,L|392:136,1,155,4|8,0:0|0:0,0:0:0:0:
444,64,31549,2,0,P|472:112|436:216,1,155,4|4,0:0|0:0,0:0:0:0:
368,252,32035,2,0,L|284:256,1,77.5,8|0,0:0|0:0,0:0:0:0:
220,320,32360,6,0,P|152:352|64:312,1,155,2|8,0:0|0:0,0:0:0:0:
4,264,32846,2,0,P|72:232|160:272,1,155,2|6,0:0|0:0,0:0:0:0:
208,188,33333,2,0,L|200:104,1,77.5,10|0,0:0|0:0,0:0:0:0:
284,44,33657,6,0,L|304:232,1,186,4|4,0:0|0:0,0:0:0:0:
303,228,34306,2,0,P|372:200|424:212,1,124,4|8,0:0|0:0,0:0:0:0:
292,348,34954,6,0,P|196:304|108:328,1,186,6|4,0:0|0:0,0:0:0:0:
120,320,35603,2,0,L|128:176,1,124,4|8,0:0|0:0,0:0:0:0:
188,72,36252,6,0,B|92:48|92:92|-8:72,1,186,6|4,0:0|0:0,0:0:0:0:
3,74,36900,2,0,L|8:204,1,124,4|8,0:0|0:0,0:0:0:0:
28,344,37549,6,0,P|96:288|192:320,1,186,6|4,0:0|0:0,0:0:0:0:
183,311,38197,2,0,P|249:312|320:316,1,124,4|8,0:0|0:0,0:0:0:0:
372,208,38846,6,0,L|368:124,2,77.5,4|0|8,0:0|0:0|0:0,0:0:0:0:
420,288,39333,2,0,P|344:296|284:228,1,155,4|4,0:0|0:0,0:0:0:0:
292,152,39819,1,8,0:0:0:0:
212,196,39981,2,0,L|104:192,1,77.5,0|4,0:0|0:0,0:0:0:0:
16,120,40306,5,0,0:0:0:0:
56,244,40468,2,0,L|52:332,1,77.5,8|4,0:0|0:0,0:0:0:0:
134,193,40792,2,0,L|132:104,1,77.5,0|4,0:0|0:0,0:0:0:0:
120,24,41116,1,8,0:0:0:0:
120,24,41441,6,0,P|200:56|268:32,1,155,4|8,0:0|0:0,0:0:0:0:
262,36,41927,2,0,L|268:128,1,77.5,0|4,0:0|0:0,0:0:0:0:
232,204,42252,1,8,0:0:0:0:
172,128,42414,1,8,0:0:0:0:
140,216,42576,1,8,0:0:0:0:
267,113,42738,5,4,0:0:0:0:
140,216,42900,1,4,0:0:0:0:
296,276,43062,2,0,P|376:300|444:252,1,155,10|4,0:0|0:0,0:0:0:0:
488,168,43549,1,4,0:0:0:0:
488,356,43711,2,0,L|392:352,1,77.5,10|8,0:0|0:0,0:0:0:0:
364,360,43954,1,0,0:0:0:0:
364,360,44035,6,0,P|396:292|372:220,1,155,4|8,0:0|0:0,0:0:0:0:
292,172,44522,1,0,0:0:0:0:
208,212,44684,2,0,B|192:176|192:176|204:100,1,116.25
176,68,45008,2,0,L|164:147,1,77.5,8|0,0:0|0:0,0:0:0:0:
100,288,45333,6,0,L|88:211,1,77.5,4|0,0:0|0:0,0:0:0:0:
8,164,45657,1,8,0:0:0:0:
36,348,45819,2,0,P|90:372|173:335,1,155,0|4,0:0|0:0,0:0:0:0:
268,328,46306,2,0,L|280:248,1,77.5,8|0,0:0|0:0,0:0:0:0:
388,116,46630,6,0,B|372:232|372:232|400:260,1,155,4|8,0:0|0:0,0:0:0:0:
476,208,47116,2,0,P|482:291|436:344,1,155,4|4,0:0|0:0,0:0:0:0:
344,339,47603,2,0,P|306:329|268:328,1,77.5,8|0,0:0|0:0,0:0:0:0:
84,324,47927,6,0,P|158:308|213:254,1,155,6|10,0:0|0:0,0:0:0:0:
136,60,48414,2,0,P|112:131|131:206,1,155,2|4,0:0|0:0,0:0:0:0:
300,220,48900,2,0,L|311:143,1,77.5,10|0,0:0|0:0,0:0:0:0:
304,48,49224,6,0,P|352:105|427:105,1,155,4|8,0:0|0:0,0:0:0:0:
480,28,49711,1,0,0:0:0:0:
512,164,49873,2,0,L|492:284,1,116.25
452,300,50197,2,0,P|458:339|477:372,1,77.5,8|0,0:0|0:0,0:0:0:0:
384,216,50522,6,0,P|358:246|344:281,1,77.5,4|0,0:0|0:0,0:0:0:0:
340,376,50846,1,8,0:0:0:0:
220,244,51008,2,0,P|195:171|219:99,1,155,0|4,0:0|0:0,0:0:0:0:
160,28,51495,2,0,L|84:48,1,77.5,8|0,0:0|0:0,0:0:0:0:
32,152,51819,6,0,L|106:132,2,77.5,4|0|8,0:0|0:0|0:0,0:0:0:0:
96,224,52306,2,0,L|170:204,2,77.5,4|0|4,0:0|0:0|0:0,0:0:0:0:
20,280,52792,2,0,P|20:320|32:356,1,77.5,8|0,0:0|0:0,0:0:0:0:
120,384,53116,6,0,P|188:352|264:368,1,155,6|10,0:0|0:0,0:0:0:0:
320,292,53603,2,0,P|389:324|463:308,1,155,2|4,0:0|0:0,0:0:0:0:
512,228,54089,2,0,L|496:152,1,77.5,10|0,0:0|0:0,0:0:0:0:
424,212,54414,6,0,L|400:88,1,124,4|0,0:0|0:0,0:0:0:0:
340,28,54900,1,4,0:0:0:0:
276,88,55062,2,0,P|204:100|148:60,1,124,4|8,0:0|0:0,0:0:0:0:
8,156,55711,6,0,P|80:168|136:128,1,124,4|0,0:0|0:0,0:0:0:0:
188,88,56197,1,4,0:0:0:0:
244,156,56360,2,0,L|236:284,1,124,4|8,0:0|0:0,0:0:0:0:
380,376,57008,6,0,L|388:248,1,124,4|0,0:0|0:0,0:0:0:0:
456,196,57495,1,4,0:0:0:0:
456,196,57657,2,0,P|484:140|464:64,1,124,4|8,0:0|0:0,0:0:0:0:
320,0,58306,6,0,L|332:132,1,124,4|0,0:0|0:0,0:0:0:0:
336,212,58792,1,4,0:0:0:0:
336,212,58954,2,0,P|280:188|208:200,1,124,4|8,0:0|0:0,0:0:0:0:
80,316,59603,6,0,P|128:316|164:300,1,77.5,4|0,0:0|0:0,0:0:0:0:
196,220,59927,1,8,0:0:0:0:
232,352,60089,2,0,P|268:368|376:324,1,155,0|4,0:0|0:0,0:0:0:0:
416,252,60576,1,8,0:0:0:0:
476,324,60738,6,0,L|464:160,1,155
428,84,61224,1,12,0:0:0:0:
464,169,61387,1,4,0:0:0:0:
364,152,61549,2,0,L|280:160,1,77.5,0|4,0:0|0:0,0:0:0:0:
232,84,61873,2,0,L|148:92,1,77.5,8|0,0:0|0:0,0:0:0:0:
1,198,62197,6,0,L|156:184,1,155,4|0,0:0|0:0,0:0:0:0:
248,176,62684,1,0,0:0:0:0:
196,252,62846,2,0,P|240:268|280:260,1,77.5,0|8,0:0|0:0,0:0:0:0:
412,192,63170,2,0,P|368:208|328:200,1,77.5,8|8,0:0|0:0,0:0:0:0:
364,116,63495,1,8,0:0:0:0:
364,116,64792,6,0,B|288:96|288:136|184:116,1,155,4|10,0:0|0:0,0:0:0:0:
120,92,65279,1,2,0:0:0:0:
80,204,65441,2,0,L|76:292,1,77.5,0|6,0:0|0:0,0:0:0:0:
208,368,65765,2,0,L|204:284,1,77.5,8|2,0:0|0:0,0:0:0:0:
288,200,66089,6,0,P|348:168|440:204,1,155,4|10,0:0|0:0,0:0:0:0:
504,288,66576,2,0,L|492:124,1,155,6|6,0:0|0:0,0:0:0:0:
412,44,67062,2,0,P|344:36|324:40,1,77.5,8|2,0:0|0:0,0:0:0:0:
256,148,67387,6,0,P|174:151|97:102,1,155,4|10,0:0|0:0,0:0:0:0:
56,24,67873,1,2,0:0:0:0:
36,160,68035,2,0,L|32:244,1,77.5,0|6,0:0|0:0,0:0:0:0:
136,244,68360,2,0,L|124:340,1,77.5,8|2,0:0|0:0,0:0:0:0:
276,360,68684,6,0,P|352:324|424:348,1,155,4|8,0:0|0:0,0:0:0:0:
416,342,69170,1,6,0:0:0:0:
316,244,69333,2,0,L|312:144,1,77.5,2|4,0:0|0:0,0:0:0:0:
440,108,69657,2,0,L|436:208,1,77.5,10|0,0:0|0:0,0:0:0:0:
376,308,69981,6,0,P|320:332|236:272,1,155,4|10,0:0|0:0,0:0:0:0:
160,208,70468,2,0,L|52:204,1,77.5,10|0,0:0|0:0,0:0:0:0:
108,308,70792,2,0,L|12:304,1,77.5,6|8,0:0|0:0,0:0:0:0:
12,212,71116,1,0,0:0:0:0:
188,272,71279,6,0,P|196:312|184:360,1,77.5
88,216,71603,2,0,L|84:136,1,77.5,10|2,0:0|0:0,0:0:0:0:
192,40,71927,2,0,L|188:144,1,77.5,0|6,0:0|0:0,0:0:0:0:
224,252,72252,1,8,0:0:0:0:
224,252,72576,6,0,L|324:248,1,77.5,6|0,0:0|0:0,0:0:0:0:
397,336,72900,2,0,L|320:340,1,77.5,10|0,0:0|0:0,0:0:0:0:
312,156,73224,2,0,L|389:153,1,77.5,2|4,0:0|0:0,0:0:0:0:
477,240,73549,2,0,L|400:244,1,77.5,10|0,0:0|0:0,0:0:0:0:
316,280,73873,5,6,0:0:0:0:
296,192,74035,1,8,0:0:0:0:
296,192,74116,1,8,0:0:0:0:
296,192,74197,1,8,0:0:0:0:
232,256,74360,1,8,0:0:0:0:
380,216,74522,2,0,P|380:176|376:120,1,77.5,10|4,0:0|0:0,0:0:0:0:
316,280,74846,2,0,P|316:320|320:376,1,77.5,0|4,0:0|0:0,0:0:0:0:
232,256,75170,6,0,P|167:214|90:215,1,155,4|10,0:0|0:0,0:0:0:0:
4,260,75657,1,2,0:0:0:0:
0,168,75819,2,0,L|12:92,1,77.5,0|4,0:0|0:0,0:0:0:0:
168,16,76143,2,0,L|156:92,1,77.5,8|2,0:0|0:0,0:0:0:0:
224,160,76468,6,0,P|300:160|368:120,1,155,6|10,0:0|0:0,0:0:0:0:
408,36,76954,1,6,0:0:0:0:
480,208,77116,2,0,P|436:220|404:220,1,77.5
364,304,77441,2,0,P|320:292|288:292,1,77.5,8|2,0:0|0:0,0:0:0:0:
228,364,77765,6,0,P|258:294|240:216,1,155,6|10,0:0|0:0,0:0:0:0:
164,168,78252,1,2,0:0:0:0:
312,152,78414,2,0,L|324:76,1,77.5,0|6,0:0|0:0,0:0:0:0:
408,36,78738,1,8,0:0:0:0:
408,36,78900,1,2,0:0:0:0:
364,238,79062,6,0,P|289:250|229:206,1,155,6|10,0:0|0:0,0:0:0:0:
148,256,79549,2,0,B|132:220|132:220|156:104,1,155,2|6,0:0|0:0,0:0:0:0:
24,28,80035,2,0,L|4:125,1,77.5,10|2,0:0|0:0,0:0:0:0:
24,196,80360,6,0,P|96:208|164:168,1,155,4|10,0:0|0:0,0:0:0:0:
236,44,80846,2,0,P|236:72|248:120,1,77.5,2|0,0:0|0:0,0:0:0:0:
316,248,81170,2,0,P|291:234|244:220,1,77.5,6|8,0:0|0:0,0:0:0:0:
292,356,81495,6,0,P|366:341|416:284,1,155,6|6,0:0|0:0,0:0:0:0:
492,160,81981,2,0,L|504:236,1,77.5,10|2,0:0|0:0,0:0:0:0:
368,176,82306,2,0,L|356:100,1,77.5,0|6,0:0|0:0,0:0:0:0:
412,24,82630,1,8,0:0:0:0:
248,216,82954,6,0,P|212:216|172:204,1,77.5,6|0,0:0|0:0,0:0:0:0:
67,59,83279,2,0,P|106:59|143:71,1,77.5,10|0,0:0|0:0,0:0:0:0:
80,227,83603,2,0,P|80:188|91:152,1,77.5,2|4,0:0|0:0,0:0:0:0:
236,48,83927,2,0,P|236:84|224:124,1,77.5,10|4,0:0|0:0,0:0:0:0:
172,204,84252,5,2,0:0:0:0:
264,292,84414,2,0,L|312:284,2,38.75,8|8|8,0:0|0:0|0:3,0:0:0:0:
200,360,84738,1,8,0:3:0:0:
120,312,84900,1,0,0:0:0:0:
36,336,85062,1,4,0:3:0:0:
36,336,85224,1,4,0:3:0:0:
36,336,85387,1,4,0:3:0:0:
20,244,85549,6,0,L|32:80,1,155,4|8,0:0|0:0,0:0:0:0:
168,32,86035,1,0,0:0:0:0:
111,105,86197,2,0,P|182:127|244:84,1,155,0|8,0:0|0:0,0:0:0:0:
288,164,86684,1,0,0:0:0:0:
327,8,86846,2,0,B|324:44|324:44|336:84,1,77.5
476,224,87170,1,8,0:0:0:0:
476,224,87333,2,0,P|508:156|476:88,1,155
268,72,87819,1,8,0:0:0:0:
424,12,87981,1,0,0:0:0:0:
335,130,88143,6,0,P|269:165|200:136,1,155,0|8,0:0|0:0,0:0:0:0:
408,72,88630,1,0,0:0:0:0:
376,221,88792,2,0,P|442:186|512:216,1,155,0|8,0:0|0:0,0:0:0:0:
296,384,89279,1,0,0:0:0:0:
288,292,89441,2,0,L|280:212,1,77.5
268,124,89765,1,8,0:0:0:0:
196,180,89927,2,0,P|124:196|52:144,1,155
58,154,90414,2,0,L|60:72,1,77.5,8|0,0:0|0:0,0:0:0:0:
269,46,90738,6,0,L|267:128,1,77.5,2|0,0:0|0:0,0:0:0:0:
278,291,91062,2,0,L|280:214,1,77.5,10|0,0:0|0:0,0:0:0:0:
356,160,91387,2,0,L|440:168,1,77.5,2|0,0:0|0:0,0:0:0:0:
196,180,91711,2,0,L|112:172,1,77.5,10|0,0:0|0:0,0:0:0:0:
191,38,92035,6,0,L|275:46,1,77.5,2|0,0:0|0:0,0:0:0:0:
433,167,92360,2,0,L|349:159,1,77.5,10|0,0:0|0:0,0:0:0:0:
280,214,92684,1,2,0:0:0:0:
179,319,92846,1,2,0:0:0:0:
246,282,93008,1,10,0:0:0:0:
104,309,93170,1,2,0:0:0:0:
48,257,93333,6,0,P|19:187|48:117,1,155,2|8,0:0|0:0,0:0:0:0:
140,184,93819,1,0,0:0:0:0:
232,252,93981,2,0,P|261:182|233:112,1,155,2|8,0:0|0:0,0:0:0:0:
104,309,94468,1,0,0:0:0:0:
184,352,94630,5,8,0:0:0:0:
219,366,94711,1,0,0:0:0:0:
258,369,94792,1,0,0:0:0:0:
294,357,94873,1,0,0:0:0:0:
325,334,94954,1,8,0:0:0:0:
376,256,95116,1,0,0:0:0:0:
476,384,95279,1,8,0:0:0:0:
184,152,95927,6,0,L|106:149,1,77.5,2|2,0:0|0:0,0:0:0:0:
220,240,96252,2,0,L|297:243,1,77.5,2|2,0:0|0:0,0:0:0:0:
376,288,96576,1,2,0:0:0:0:
380,196,96738,2,0,L|384:96,2,77.5,4|8|0,0:0|0:0|0:0,0:0:0:0:
296,340,97224,6,0,L|191:337,1,77.5,2|2,0:0|0:0,0:0:0:0:
172,256,97549,2,0,L|60:252,1,77.5,2|2,0:0|0:0,0:0:0:0:
16,192,97873,1,2,0:0:0:0:
48,328,98035,1,4,0:0:0:0:
132,164,98197,2,0,L|224:160,1,77.5,8|0,0:0|0:0,0:0:0:0:
312,200,98522,5,4,0:0:0:0:
312,200,98684,1,4,0:0:0:0:
300,88,98846,2,0,L|304:40,3,25.8333333333333,10|2|2|2,0:0|0:0|0:0|0:0,0:0:0:0:
220,280,99170,1,4,0:0:0:0:
220,280,99333,1,4,0:0:0:0:
204,164,99495,2,0,L|200:116,3,25.8333333333333,10|2|2|2,0:0|0:0|0:0|0:0,0:0:0:0:
312,200,99819,5,4,0:0:0:0:
112,232,99981,2,0,P|96:148|132:80,1,155,8|0,0:0|0:0,0:0:0:0:
124,87,100468,2,0,L|32:84,1,77.5,8|0,0:0|0:0,0:0:0:0:
204,164,100792,2,0,L|300:160,1,77.5,8|0,0:0|0:0,0:0:0:0:
400,116,101116,5,4,0:0:0:0:
400,116,101441,2,0,L|404:204,1,77.5,8|0,0:0|0:0,0:0:0:0:
316,228,101765,2,0,L|320:332,1,77.5,0|4,0:0|0:0,0:0:0:0:
384,372,102089,1,8,0:0:0:0:
280,300,102252,1,4,0:0:0:0:
172,372,102414,5,8,0:0:0:0:
172,372,102738,2,0,P|183:290|160:232,1,116.25,2|0,0:0|0:0,0:0:0:0:
144,224,103062,2,0,L|44:220,1,77.5,2|0,0:0|0:0,0:0:0:0:
