osu file format v14

[General]
AudioFilename: yryrrrrr.mp3
AudioLeadIn: 0
PreviewTime: 63819
Countdown: 0
SampleSet: Soft
StackLeniency: 0.7
Mode: 0
LetterboxInBreaks: 0
WidescreenStoryboard: 0

[Editor]
DistanceSpacing: 1.3
BeatDivisor: 4
GridSize: 4
TimelineZoom: 1.7

[Metadata]
Title:Yuru Yurinrinrinrinrin
TitleUnicode:ゆるゆりんりんりんりんりん
Artist:Nanamori-chu*Goraku-bu
ArtistUnicode:七森中☆ごらく部
Creator:Haruru
Version:Insane
Source:ゆるゆり なちゅやちゅみ!
Tags:三上枝織 大坪由佳 津田美波 大久保瑠美 mikami shiori otsubo yuka tsuda minami okubo rumi 赤座あかり akaza akari 歳納京子 toshino kyoko 船見結衣 funami yui 吉川ちなつ yoshikawa chinatsu yryr ova opening anime nachuyachumi rare melophobia kshr
BeatmapID:648315
BeatmapSetID:287318

[Difficulty]
HPDrainRate:6
CircleSize:4
OverallDifficulty:8
ApproachRate:9
SliderMultiplier:1.7
SliderTickRate:1

[Events]
//Background and Video events
0,0,"4f513e66acc85b99ee249c8210626744.png",0,0
//Break Periods
//Storyboard Layer 0 (Background)
//Storyboard Layer 1 (Fail)
//Storyboard Layer 2 (Pass)
//Storyboard Layer 3 (Foreground)
//Storyboard Sound Samples

[TimingPoints]
1225,324.324324324324,4,2,2,50,1,0
2522,-100,4,2,1,50,0,0
2684,-100,4,2,2,50,0,0
3819,-100,4,2,1,50,0,0
3981,-100,4,2,2,50,0,0
5441,-100,4,2,1,50,0,0
5522,-100,4,2,2,50,0,0
6089,-100,4,2,1,50,0,0
6170,-100,4,2,2,50,0,0
10306,-100,4,2,1,50,0,0
10387,-100,4,2,2,50,0,0
15495,-100,4,2,1,50,0,0
15576,-100,4,2,2,50,0,0
23279,-100,4,2,1,50,0,0
23360,-100,4,2,2,50,0,0
33657,-133.333333333333,4,2,1,40,0,0
33738,-133.333333333333,4,2,2,40,0,0
38846,-100,4,2,1,50,0,0
39008,-100,4,2,2,50,0,0
44035,-100,4,2,1,50,0,0
44116,-100,4,2,2,50,0,0
54414,-133.333333333333,4,2,1,40,0,0
54495,-133.333333333333,4,2,2,40,0,0
59603,-100,4,2,1,40,0,0
59765,-100,4,2,2,40,0,0
62197,-100,4,2,1,40,0,0
62279,-100,4,2,2,40,0,0
64792,-100,4,2,1,65,0,1
64873,-100,4,2,2,65,0,1
69981,-100,4,2,1,65,0,1
70143,-100,4,2,2,65,0,1
75170,-100,4,2,1,65,0,1
75252,-100,4,2,2,65,0,1
80360,-100,4,2,1,65,0,1
80522,-100,4,2,2,65,0,1
85549,-100,4,2,1,55,0,0
85630,-100,4,2,2,55,0,0

[HitObjects]
196,284,2035,6,0,L|204:172,1,85,4|8,0:0|0:0,0:0:0:0:
160,56,2522,5,2,0:0:0:0:
159,45,2684,1,2,0:0:0:0:
158,34,2846,1,2,0:0:0:0:
156,24,3008,1,2,0:0:0:0:
153,14,3170,1,2,0:0:0:0:
148,4,3333,2,0,L|144:108,1,85,4|8,0:0|0:0,0:0:0:0:
252,224,3819,5,2,0:0:0:0:
264,241,3981,1,2,0:0:0:0:
273,260,4143,1,2,0:0:0:0:
278,280,4306,1,2,0:0:0:0:
280,302,4468,1,2,0:0:0:0:
280,320,4630,2,0,L|276:208,1,85,4|8,0:0|0:0,0:0:0:0:
208,24,5116,5,4,0:0:0:0:
136,140,5279,1,4,0:0:0:0:
352,24,5441,2,0,L|376:8,3,28.3333333333333,12|2|2|2,0:0|0:0|0:0|0:0,0:0:0:0:
280,140,5765,5,4,0:0:0:0:
208,24,5927,1,4,0:0:0:0:
420,144,6089,2,0,L|464:172,3,28.3333333333333,12|2|2|2,0:0|0:0|0:0|0:0,0:0:0:0:
280,140,6414,5,4,0:0:0:0:
340,244,6576,2,0,P|396:164|384:96,1,170,8|0,0:0|0:0,0:0:0:0:
196,144,7062,2,0,L|300:140,1,85,8|0,0:0|0:0,0:0:0:0:
440,20,7387,2,0,L|336:24,1,85,8|0,0:0|0:0,0:0:0:0:
144,80,7711,6,0,L|152:252,2,170,4|8|4,0:0|0:0|0:0,0:0:0:0:
240,8,8522,1,4,0:0:0:0:
252,128,8684,1,8,0:0:0:0:
144,80,8846,1,4,0:0:0:0:
360,176,9008,1,4,0:0:0:0:
352,64,9981,6,0,B|352:112|352:112|359:146|359:146|360:200,1,127.5,4|0,0:0|0:0,0:0:0:0:
308,276,10306,6,0,P|264:228|288:120,1,170,4|8,0:0|0:0,0:0:0:0:
360,190,10792,1,6,0:0:0:0:
360,190,11116,1,4,0:0:0:0:
204,284,11279,2,0,L|120:288,1,85,8|2,0:0|0:0,0:0:0:0:
192,116,11603,6,0,B|240:120|240:120|272:112|272:112|320:120|380:112,1,170,6|8,0:0|0:0,0:0:0:0:
372,280,12089,2,0,P|304:263|275:155,1,170,2|4,0:0|0:0,0:0:0:0:
284,56,12576,1,8,0:0:0:0:
360,190,12738,1,2,0:0:0:0:
200,188,12900,6,0,L|104:184,1,85,6|0,0:0|0:0,0:0:0:0:
4,140,13225,1,10,0:0:0:0:
88,56,13387,2,0,P|120:128|91:225,1,170,6|4,0:0|0:0,0:0:0:0:
4,140,13873,2,0,L|108:136,1,85,8|2,0:0|0:0,0:0:0:0:
292,232,14197,6,0,L|184:236,1,85,6|0,0:0|0:0,0:0:0:0:
384,160,14522,2,0,P|404:236|396:272,1,85,8|2,0:0|0:0,0:0:0:0:
280,116,14846,2,0,P|320:48|352:29,1,85,6|4,0:0|0:0,0:0:0:0:
512,140,15170,2,0,L|380:144,1,127.5,8|8,0:0|0:0,0:0:0:0:
376,132,15495,6,0,L|380:228,1,85,4|0,0:0|0:0,0:0:0:0:
464,84,15819,2,0,L|460:-11,1,85,10|0,0:0|0:0,0:0:0:0:
280,116,16143,1,2,0:0:0:0:
464,176,16306,1,4,0:0:0:0:
344,40,16468,1,8,0:0:0:0:
384,232,16630,6,0,L|388:328,1,85,2|4,0:0|0:0,0:0:0:0:
464,84,16954,1,2,0:0:0:0:
304,176,17116,2,0,P|288:236|316:308,1,127.5,10|0,0:0|0:0,0:0:0:0:
336,316,17441,2,0,L|440:312,1,85,2|4,0:0|0:0,0:0:0:0:
196,272,17765,1,8,0:0:0:0:
200,280,18089,5,10,0:0:0:0:
384,224,18252,2,0,P|388:176|376:112,1,85,4|0,0:0|0:0,0:0:0:0:
204,288,18576,1,10,0:0:0:0:
208,128,18738,1,4,0:0:0:0:
316,292,18900,1,4,0:0:0:0:
308,60,19062,1,10,0:0:0:0:
212,236,19225,1,4,0:0:0:0:
212,236,19306,1,4,0:0:0:0:
212,236,19387,6,0,L|216:332,1,85,10|4,0:0|0:0,0:0:0:0:
316,176,19711,1,4,0:0:0:0:
112,188,19873,1,10,0:0:0:0:
316,292,20035,1,4,0:0:0:0:
208,128,20197,1,4,0:0:0:0:
216,348,20360,1,10,0:0:0:0:
412,232,20522,1,8,0:0:0:0:
412,232,20603,1,8,0:0:0:0:
412,232,20684,1,4,0:0:0:0:
320,300,20846,5,10,0:0:0:0:
216,240,21008,2,0,L|124:236,1,85,10|0,0:0|0:0,0:0:0:0:
316,292,21333,1,10,0:0:0:0:
208,128,21495,2,0,L|120:124,1,85,10|0,0:0|0:0,0:0:0:0:
68,300,21819,2,0,P|136:324|216:264,1,170,10|8,0:0|0:0,0:0:0:0:
216,256,22224,1,8,0:0:0:0:
216,240,22306,6,0,L|220:352,1,85,4|8,0:0|0:0,0:0:0:0:
232,340,22549,1,8,0:0:0:0:
244,352,22630,1,4,0:0:0:0:
142,188,22792,1,8,0:0:0:0:
156,172,22873,1,8,0:0:0:0:
173,159,22954,1,4,0:0:0:0:
192,151,23035,1,8,0:0:0:0:
213,149,23116,1,8,0:0:0:0:
234,151,23197,1,8,0:0:0:0:
254,159,23279,6,0,L|360:156,1,85,4|0,0:0|0:0,0:0:0:0:
400,268,23603,2,0,B|392:220|392:220|400:176|400:176|388:132|396:96,1,170,8|0,0:0|0:0,0:0:0:0:
512,128,24089,1,4,0:0:0:0:
440,352,24252,2,0,L|332:340,1,85,8|0,0:0|0:0,0:0:0:0:
232,260,24576,6,0,B|296:268|296:268|347:261|347:261|429:270,1,170,4|8,0:0|0:0,0:0:0:0:
184,344,25062,2,0,P|140:264|176:184,1,170,0|4,0:0|0:0,0:0:0:0:
316,128,25549,1,8,0:0:0:0:
320,136,25873,6,0,L|324:236,1,85,4|0,0:0|0:0,0:0:0:0:
240,56,26197,1,8,0:0:0:0:
212,168,26360,2,0,L|104:164,1,85,4|0,0:0|0:0,0:0:0:0:
344,24,26684,1,4,0:0:0:0:
400,216,26846,2,0,L|396:312,1,85,8|0,0:0|0:0,0:0:0:0:
160,236,27170,6,0,P|132:148|180:88,1,170,6|10,0:0|0:0,0:0:0:0:
297,177,27657,2,0,L|181:165,1,85,2|4,0:0|0:0,0:0:0:0:
88,92,27981,1,4,0:0:0:0:
216,16,28143,2,0,L|220:112,1,85,10|0,0:0|0:0,0:0:0:0:
152,324,28468,6,0,P|84:284|96:176,2,170,4|8|0,0:0|0:0|0:0,0:0:0:0:
260,272,29279,1,4,0:0:0:0:
160,120,29441,2,0,L|164:208,1,85,8|0,0:0|0:0,0:0:0:0:
272,364,29765,6,0,P|344:304|324:208,1,170,4|8,0:0|0:0,0:0:0:0:
90,288,30252,2,0,L|292:268,1,170,0|4,0:0|0:0,0:0:0:0:
248,140,30738,2,0,P|199:155|166:196,1,85,8|0,0:0|0:0,0:0:0:0:
260,332,31062,6,0,P|260:260|252:236,1,85,4|0,0:0|0:0,0:0:0:0:
156,124,31387,1,8,0:0:0:0:
68,296,31549,2,0,L|188:284,1,85,4|0,0:0|0:0,0:0:0:0:
304,232,31873,1,4,0:0:0:0:
200,368,32035,2,0,P|176:288|184:244,1,127.5,8|0,0:0|0:0,0:0:0:0:
216,152,32360,6,0,L|116:156,1,85,6|0,0:0|0:0,0:0:0:0:
304,232,32684,1,10,0:0:0:0:
328,116,32846,1,2,0:0:0:0:
188,276,33008,1,4,0:0:0:0:
420,184,33170,1,6,0:0:0:0:
240,36,33333,2,0,L|244:148,1,85,10|0,0:0|0:0,0:0:0:0:
364,300,33657,6,0,P|392:244|304:140,1,191.250007295609,6|4,0:0|0:0,0:0:0:0:
176,240,34306,2,0,L|320:232,1,127.500004863739,4|8,0:0|0:0,0:0:0:0:
304,240,34954,6,0,B|292:184|292:184|296:144|296:144|272:88|296:28,1,191.250007295609,6|4,0:0|0:0,0:0:0:0:
392,88,35603,2,0,B|404:136|404:136|400:180|400:180|412:224,1,127.500004863739,4|8,0:0|0:0,0:0:0:0:
408,224,36252,6,0,L|264:220,1,127.500004863739,6|0,0:0|0:0,0:0:0:0:
168,188,36738,1,4,0:0:0:0:
196,304,36900,2,0,L|200:384,1,63.7500024318696,4|0,0:0|0:0,0:0:0:0:
256,108,37224,2,0,L|252:28,1,63.7500024318696,8|0,0:0|0:0,0:0:0:0:
57,154,37549,6,0,P|89:186|186:175,1,127.500004863739,6|0,0:0|0:0,0:0:0:0:
132,116,38035,1,4,0:0:0:0:
32,284,38197,2,0,L|140:288,1,95.6250036478044,4|0,0:0|0:0,0:0:0:0:
160,308,38522,1,8,0:0:0:0:
160,308,38846,5,4,0:0:0:0:
248,152,39008,1,0,0:0:0:0:
252,360,39170,1,8,0:0:0:0:
160,204,39333,2,0,L|152:100,1,85
336,204,39657,1,4,0:0:0:0:
160,308,39819,1,8,0:0:0:0:
248,152,39981,2,0,L|344:148,1,85,0|4,0:0|0:0,0:0:0:0:
424,300,40306,6,0,L|328:303,1,85,0|8,0:0|0:0,0:0:0:0:
160,204,40630,1,0,0:0:0:0:
248,256,40792,1,0,0:0:0:0:
68,264,40954,1,4,0:0:0:0:
152,100,41116,2,0,L|252:96,1,85,8|0,0:0|0:0,0:0:0:0:
396,264,41441,6,0,P|324:288|248:216,1,170,4|4,0:0|0:0,0:0:0:0:
272,112,41927,1,4,0:0:0:0:
304,312,42089,1,4,0:0:0:0:
120,236,42252,1,8,0:0:0:0:
344,200,42414,1,8,0:0:0:0:
192,328,42576,1,8,0:0:0:0:
160,128,42738,5,4,0:0:0:0:
236,224,42900,1,4,0:0:0:0:
68,156,43062,2,0,P|80:76|144:32,1,127.5,10|0,0:0|0:0,0:0:0:0:
160,128,43387,2,0,L|165:227,1,85,4|4,0:0|0:0,0:0:0:0:
64,336,43711,2,0,L|58:236,1,85,10|8,0:0|0:0,0:0:0:0:
64,236,43954,1,8,0:0:0:0:
68,220,44035,6,0,L|256:224,1,170,4|8,0:0|0:0,0:0:0:0:
340,284,44522,1,0,0:0:0:0:
236,336,44684,2,0,P|224:280|244:216,1,85,0|4,0:0|0:0,0:0:0:0:
312,76,45008,2,0,P|324:132|304:196,1,85,8|0,0:0|0:0,0:0:0:0:
128,132,45333,6,0,L|248:128,1,85,4|0,0:0|0:0,0:0:0:0:
316,188,45657,1,8,0:0:0:0:
220,256,45819,2,0,P|200:168|244:88,1,170,0|4,0:0|0:0,0:0:0:0:
328,304,46306,2,0,L|324:392,1,85,8|0,0:0|0:0,0:0:0:0:
124,312,46630,6,0,L|128:224,1,85,4|0,0:0|0:0,0:0:0:0:
204,76,46954,1,8,0:0:0:0:
244,188,47116,2,0,P|172:188|100:116,1,170,4|4,0:0|0:0,0:0:0:0:
320,92,47603,2,0,L|324:196,1,85,8|0,0:0|0:0,0:0:0:0:
192,256,47927,6,0,P|164:168|224:104,1,170,6|8,0:0|0:0,0:0:0:0:
329,194,48414,2,0,L|213:186,1,85,2|4,0:0|0:0,0:0:0:0:
104,128,48738,1,6,0:0:0:0:
92,248,48900,2,0,P|172:228|192:208,1,85,10|0,0:0|0:0,0:0:0:0:
0,184,49224,6,0,L|12:364,2,170,4|8|0,0:0|0:0|0:0,0:0:0:0:
0,64,50035,1,4,0:0:0:0:
188,132,50197,2,0,L|88:128,1,85,8|0,0:0|0:0,0:0:0:0:
224,244,50522,6,0,P|276:208|292:160,1,85,4|0,0:0|0:0,0:0:0:0:
288,72,50846,1,8,0:0:0:0:
148,212,51008,2,0,P|152:284|252:320,1,170,0|4,0:0|0:0,0:0:0:0:
256,172,51495,2,0,L|248:72,1,85,8|0,0:0|0:0,0:0:0:0:
92,12,51819,6,0,L|100:112,1,85,4|0,0:0|0:0,0:0:0:0:
148,212,52143,1,8,0:0:0:0:
228,300,52306,2,0,P|264:244|256:192,1,85,4|0,0:0|0:0,0:0:0:0:
212,108,52630,1,4,0:0:0:0:
22,198,52792,2,0,B|52:208|52:208|162:211,1,127.5,8|0,0:0|0:0,0:0:0:0:
220,260,53116,6,0,P|232:212|204:144,1,85,6|0,0:0|0:0,0:0:0:0:
116,40,53441,2,0,P|104:88|132:155,1,85,10|2,0:0|0:0,0:0:0:0:
284,92,53765,2,0,L|176:88,1,85,4|6,0:0|0:0,0:0:0:0:
60,208,54089,2,0,L|168:212,1,85,10|0,0:0|0:0,0:0:0:0:
256,332,54414,6,0,P|192:332|164:204,1,191.250007295609,6|4,0:0|0:0,0:0:0:0:
216,128,55062,2,0,L|224:276,1,127.500004863739,4|8,0:0|0:0,0:0:0:0:
228,264,55711,6,0,L|440:256,1,191.250007295609,6|4,0:0|0:0,0:0:0:0:
372,332,56360,2,0,P|328:260|348:204,1,127.500004863739,4|8,0:0|0:0,0:0:0:0:
344,232,57008,6,0,L|336:96,1,127.500004863739,6|2,0:0|0:0,0:0:0:0:
292,28,57495,1,4,0:0:0:0:
232,92,57657,2,0,P|288:112|304:112,1,63.7500024318696,6|0,0:0|0:0,0:0:0:0:
200,8,57981,2,0,P|154:45|145:59,1,63.7500024318696,10|0,0:0|0:0,0:0:0:0:
264,180,58306,6,0,P|320:124|316:60,1,127.500004863739,6|0,0:0|0:0,0:0:0:0:
232,92,58792,1,4,0:0:0:0:
372,184,58954,2,0,L|488:180,1,95.6250036478044,4|0,0:0|0:0,0:0:0:0:
488,152,59279,1,8,0:0:0:0:
492,140,59603,5,4,0:0:0:0:
396,72,59765,1,0,0:0:0:0:
496,128,59927,1,8,0:0:0:0:
372,184,60089,2,0,L|252:176,1,85
172,104,60414,1,4,0:0:0:0:
184,240,60576,1,8,0:0:0:0:
304,160,60738,2,0,P|308:116|296:76,1,85,0|4,0:0|0:0,0:0:0:0:
112,84,61062,6,0,P|146:111|186:124,1,85,0|8,0:0|0:0,0:0:0:0:
204,4,61387,1,0,0:0:0:0:
128,176,61549,2,0,L|132:280,1,85,0|4,0:0|0:0,0:0:0:0:
228,192,61873,1,8,0:0:0:0:
128,40,62035,1,0,0:0:0:0:
40,208,62197,6,0,P|76:256|192:240,1,170,4|4,0:0|0:0,0:0:0:0:
260,164,62684,1,4,0:0:0:0:
140,136,62846,1,4,0:0:0:0:
292,288,63008,1,8,0:0:0:0:
228,48,63170,1,8,0:0:0:0:
176,252,63333,1,8,0:0:0:0:
376,188,63495,1,8,0:0:0:0:
384,200,64792,6,0,P|276:196|248:124,1,170,4|10,0:0|0:0,0:0:0:0:
260,32,65279,1,2,0:0:0:0:
332,132,65441,2,0,L|336:236,1,85,0|6,0:0|0:0,0:0:0:0:
204,324,65765,2,0,L|200:220,1,85,8|2,0:0|0:0,0:0:0:0:
396,72,66089,6,0,P|416:112|360:216,1,170,4|10,0:0|0:0,0:0:0:0:
248,140,66576,1,6,0:0:0:0:
248,140,66657,1,0,0:0:0:0:
248,140,66738,2,0,L|356:132,1,85,0|6,0:0|0:0,0:0:0:0:
188,248,67062,2,0,L|80:240,1,85,10|2,0:0|0:0,0:0:0:0:
312,252,67387,6,0,P|284:328|180:376,1,170,4|10,0:0|0:0,0:0:0:0:
124,144,67873,2,0,L|123:59,1,85
240,132,68197,1,6,0:0:0:0:
188,248,68360,2,0,L|192:336,1,85,8|2,0:0|0:0,0:0:0:0:
56,204,68684,6,0,P|36:128|104:52,1,170,4|8,0:0|0:0,0:0:0:0:
209,141,69170,1,6,0:0:0:0:
209,141,69252,1,0,0:0:0:0:
209,141,69333,2,0,L|97:145,1,85,2|4,0:0|0:0,0:0:0:0:
260,44,69657,1,10,0:0:0:0:
292,200,69819,1,2,0:0:0:0:
140,216,69981,5,6,0:0:0:0:
328,104,70143,1,0,0:0:0:0:
328,320,70306,1,10,0:0:0:0:
209,141,70468,2,0,L|212:40,1,85,8|0,0:0|0:0,0:0:0:0:
376,260,70792,2,0,L|373:361,1,85,4|8,0:0|0:0,0:0:0:0:
292,200,71116,5,6,0:0:0:0:
448,160,71279,1,0,0:0:0:0:
416,320,71441,1,6,0:0:0:0:
360,144,71603,2,0,P|360:80|380:40,1,85,8|8,0:0|0:0,0:0:0:0:
456,220,71927,2,0,P|404:257|360:264,1,85,0|4,0:0|0:0,0:0:0:0:
278,132,72252,2,0,P|341:135|380:157,1,85,10|0,0:0|0:0,0:0:0:0:
300,324,72576,6,0,L|304:216,1,85,6|0,0:0|0:0,0:0:0:0:
424,40,72900,2,0,L|420:148,1,85,10|0,0:0|0:0,0:0:0:0:
216,232,73224,2,0,L|220:128,1,85,2|4,0:0|0:0,0:0:0:0:
504,112,73549,2,0,L|500:215,1,85,10|0,0:0|0:0,0:0:0:0:
372,280,73873,5,2,0:0:0:0:
356,164,74035,1,8,0:0:0:0:
356,164,74116,1,8,0:0:0:0:
356,164,74197,1,10,0:0:0:0:
476,332,74360,1,8,0:0:0:0:
261,228,74522,5,10,0:0:0:0:
314,117,74684,1,4,0:0:0:0:
424,168,74846,1,6,0:0:0:0:
372,280,75008,1,4,0:0:0:0:
228,136,75170,6,0,P|252:56|332:32,1,170,4|10,0:0|0:0,0:0:0:0:
356,164,75657,1,2,0:0:0:0:
264,268,75819,2,0,L|172:264,1,85,0|6,0:0|0:0,0:0:0:0:
280,192,76143,1,8,0:0:0:0:
332,352,76306,1,2,0:0:0:0:
196,204,76468,6,0,P|220:132|304:112,1,170,4|8,0:0|0:0,0:0:0:0:
287,277,76954,2,0,L|279:173,1,85,6|0,0:0|0:0,0:0:0:0:
328,32,77279,1,6,0:0:0:0:
400,124,77441,2,0,P|364:144|304:144,1,85,8|2,0:0|0:0,0:0:0:0:
216,92,77765,6,0,B|217:218|217:218|252:172,1,170,4|10,0:0|0:0,0:0:0:0:
300,76,78252,1,2,0:0:0:0:
172,196,78414,2,0,L|176:288,1,85,0|6,0:0|0:0,0:0:0:0:
336,344,78738,2,0,L|332:252,1,85,8|2,0:0|0:0,0:0:0:0:
128,124,79062,6,0,P|88:188|132:272,1,170,4|8,0:0|0:0,0:0:0:0:
257,190,79549,1,6,0:0:0:0:
257,190,79630,1,0,0:0:0:0:
257,190,79711,2,0,L|145:198,1,85,2|4,0:0|0:0,0:0:0:0:
40,324,80035,2,0,L|160:304,1,85,10|0,0:0|0:0,0:0:0:0:
240,328,80360,5,6,0:0:0:0:
176,176,80522,1,0,0:0:0:0:
76,296,80684,1,10,0:0:0:0:
256,232,80846,2,0,P|268:184|252:112,1,85,10|0,0:0|0:0,0:0:0:0:
112,40,81170,2,0,P|100:88|116:160,1,85,6|8,0:0|0:0,0:0:0:0:
172,272,81495,6,0,P|252:231|267:152,1,170,6|6,0:0|0:0,0:0:0:0:
92,180,81981,2,0,L|212:176,1,85,8|8,0:0|0:0,0:0:0:0:
376,36,82306,2,0,L|256:40,1,85,0|4,0:0|0:0,0:0:0:0:
196,108,82630,1,8,0:0:0:0:
196,108,82954,6,0,P|188:164|208:216,1,85,6|0,0:0|0:0,0:0:0:0:
312,336,83279,2,0,P|320:280|299:228,1,85,10|2,0:0|0:0,0:0:0:0:
120,300,83603,2,0,L|216:296,1,85,2|4,0:0|0:0,0:0:0:0:
376,144,83927,2,0,L|280:148,1,85,10|4,0:0|0:0,0:0:0:0:
168,212,84252,5,2,0:0:0:0:
232,16,84414,1,8,0:0:0:0:
232,16,84495,1,8,0:0:0:0:
232,16,84576,1,6,0:0:0:0:
260,132,84738,1,4,0:0:0:0:
144,100,84900,5,6,0:0:0:0:
260,73,85062,1,4,0:0:0:0:
287,189,85224,1,4,0:0:0:0:
170,216,85387,1,4,0:0:0:0:
336,120,85549,6,0,P|368:168|320:272,1,170,4|8,0:0|0:0,0:0:0:0:
170,216,86035,1,0,0:0:0:0:
288,196,86197,2,0,L|381:199,1,85,0|4,0:0|0:0,0:0:0:0:
480,312,86522,2,0,L|387:308,1,85,8|0,0:0|0:0,0:0:0:0:
232,280,86846,6,0,P|188:192|232:108,2,170,4|8|0,0:0|0:0|0:0,0:0:0:0:
288,196,87657,1,4,0:0:0:0:
144,240,87819,2,0,L|148:336,1,85,8|0,0:0|0:0,0:0:0:0:
156,340,88062,1,0,0:0:0:0:
164,356,88143,6,0,L|344:344,1,170,4|8,0:0|0:0,0:0:0:0:
408,252,88630,1,0,0:0:0:0:
296,216,88792,2,0,P|292:260|304:316,1,85,0|4,0:0|0:0,0:0:0:0:
384,128,89116,2,0,P|387:84|376:28,1,85,8|0,0:0|0:0,0:0:0:0:
272,96,89441,5,4,0:0:0:0:
272,96,89765,1,8,0:0:0:0:
236,276,89927,2,0,P|296:300|380:228,1,170,0|4,0:0|0:0,0:0:0:0:
292,128,90414,2,0,L|300:236,1,85,8|0,0:0|0:0,0:0:0:0:
328,340,90738,6,0,B|233:339|233:339|168:320,1,127.5,6|0,0:0|0:0,0:0:0:0:
160,232,91062,2,0,B|220:236|220:236|264:252,1,85,10|0,0:0|0:0,0:0:0:0:
136,312,91387,6,0,P|76:244|92:180,1,127.5,6|0,0:0|0:0,0:0:0:0:
168,148,91711,2,0,L|156:260,1,85,10|0,0:0|0:0,0:0:0:0:
52,324,92035,6,0,L|68:168,1,127.5,6|0,0:0|0:0,0:0:0:0:
168,148,92360,2,0,L|156:256,1,85,10|0,0:0|0:0,0:0:0:0:
28,64,92684,5,6,0:0:0:0:
208,24,92846,1,6,0:0:0:0:
156,196,93008,1,10,0:0:0:0:
112,8,93170,1,6,0:0:0:0:
248,216,93333,6,0,P|204:275|102:271,1,170,6|8,0:0|0:0,0:0:0:0:
220,120,93819,1,2,0:0:0:0:
344,252,93981,2,0,L|348:344,1,85,6|0,0:0|0:0,0:0:0:0:
156,196,94306,2,0,L|152:104,1,85,8|0,0:0|0:0,0:0:0:0:
328,184,94630,5,8,0:0:0:0:
333,215,94711,1,8,0:0:0:0:
328,246,94792,1,8,0:0:0:0:
312,273,94873,1,8,0:0:0:0:
288,294,94954,2,0,L|196:292,1,85,4|4,0:0|0:0,0:0:0:0:
292,112,95279,1,8,0:0:0:0:
292,112,95927,5,2,0:0:0:0:
396,148,96089,1,2,0:0:0:0:
376,40,96252,1,2,0:0:0:0:
316,228,96414,1,2,0:0:0:0:
484,80,96576,1,2,0:0:0:0:
276,4,96738,6,0,L|272:96,1,85,4|8,0:0|0:0,0:0:0:0:
248,352,97224,5,2,0:0:0:0:
220,216,97387,1,2,0:0:0:0:
120,308,97549,1,2,0:0:0:0:
304,280,97711,1,2,0:0:0:0:
184,128,97873,1,2,0:0:0:0:
200,232,98035,6,0,L|308:228,1,85,4|8,0:0|0:0,0:0:0:0:
392,120,98522,5,4,0:0:0:0:
368,264,98684,1,4,0:0:0:0:
256,160,98846,2,0,L|240:112,3,28.3333333333333,10|2|2|2,0:0|0:0|0:0|0:0,0:0:0:0:
444,204,99170,5,4,0:0:0:0:
304,80,99333,1,4,0:0:0:0:
272,264,99495,2,0,L|268:312,3,28.3333333333333,10|2|2|2,0:0|0:0|0:0|0:0,0:0:0:0:
308,72,99819,5,4,0:0:0:0:
320,220,99981,2,0,P|232:244|164:176,1,170,8|0,0:0|0:0,0:0:0:0:
253,74,100468,2,0,L|257:194,1,85,8|0,0:0|0:0,0:0:0:0:
160,336,100792,2,0,L|156:216,1,85,8|0,0:0|0:0,0:0:0:0:
320,156,101116,5,4,0:0:0:0:
288,272,101279,1,0,0:0:0:0:
208,184,101441,2,0,L|212:88,1,85,8|0,0:0|0:0,0:0:0:0:
404,244,101765,2,0,L|400:344,1,85,0|4,0:0|0:0,0:0:0:0:
168,296,102089,1,8,0:0:0:0:
240,72,102252,1,4,0:0:0:0:
288,272,102414,5,8,0:0:0:0:
288,272,102738,2,0,P|384:224|392:192,1,127.5,2|2,0:0|0:0,0:0:0:0:
304,188,103062,2,0,L|184:184,1,85,2|0,0:0|0:0,0:0:0:0:
