osu file format v14

[General]
AudioFilename: Song_Yes!Yuyuyu Yuruyuri.mp3
AudioLeadIn: 0
PreviewTime: 57598
Countdown: 0
SampleSet: Soft
StackLeniency: 0.4
Mode: 0
LetterboxInBreaks: 0
WidescreenStoryboard: 0

[Editor]
DistanceSpacing: 0.5
BeatDivisor: 4
GridSize: 4
TimelineZoom: 2.2

[Metadata]
Title:Yes! YuYuYu*YuruYuri
TitleUnicode:いぇす!ゆゆゆ☆ゆるゆり♪♪
Artist:Nanamori-chu*Goraku-bu
ArtistUnicode:七森中☆ごらく部
Creator:Karia
Version:Yuri
Source:ゆるゆり♪♪
Tags:三上枝織 大坪由佳 津田美波 大久保瑠美 Mikami Shiori Otsubo Yuka Tsuda Minami Okubo Rumi 赤座あかり Akaza Akari 歳納京子 Toshino Kyoko 船見結衣 Funami Yui 吉川ちなつ Yoshikawa Chinatsu yryr Yuru Yuri♪♪ Opening TV Size Setz
BeatmapID:830158
BeatmapSetID:379229

[Difficulty]
HPDrainRate:7
CircleSize:4.2
OverallDifficulty:8.5
ApproachRate:9.3
SliderMultiplier:1.86
SliderTickRate:1

[Events]
//Background and Video events
Video,0,"VIDEO.avi"
0,0,"BG.jpg",0,0
//Break Periods
//Storyboard Layer 0 (Background)
//Storyboard Layer 1 (Fail)
//Storyboard Layer 2 (Pass)
//Storyboard Layer 3 (Foreground)
//Storyboard Sound Samples

[TimingPoints]
236,329.67032967033,4,2,1,60,1,0
12763,-100,4,2,2,60,0,0
13422,-100,4,2,2,70,0,0
22488,-142.857142857143,4,2,2,70,0,0
22983,-100,4,2,2,70,0,0
23065,-100,4,2,2,5,0,0
23148,-100,4,2,2,70,0,0
23230,-100,4,2,2,5,0,0
23312,-100,4,2,2,70,0,0
23395,-100,4,2,2,5,0,0
23642,-83.3333333333333,4,2,2,70,0,0
23972,-100,4,2,1,60,0,0
31884,-125,4,2,1,60,0,0
32131,-125,4,2,1,5,0,0
32214,-71.4285714285714,4,2,1,70,0,0
32461,-71.4285714285714,4,2,1,5,0,0
32543,-125,4,2,1,60,0,0
32873,-71.4285714285714,4,2,1,70,0,0
32955,-71.4285714285714,4,2,1,5,0,0
33038,-125,4,2,1,70,0,0
33285,-125,4,2,1,5,0,0
33367,-125,4,2,1,70,0,0
33532,-100,4,2,1,70,0,0
34521,-100,4,2,2,70,0,0
42763,-76.9230769230769,4,2,2,70,0,0
45071,-100,4,2,2,70,0,0
50345,-133.333333333333,4,2,2,70,0,0
54631,-100,4,2,2,70,0,0
58257,-100,4,2,2,75,0,1
68725,-100,4,2,2,75,0,0
68807,-100,4,2,2,75,0,1
76719,-125,4,2,2,75,0,1
76966,-125,4,2,2,5,0,1
77049,-71.4285714285714,4,2,2,75,0,1
77296,-71.4285714285714,4,2,2,5,0,1
77378,-125,4,2,2,75,0,1
77626,-125,4,2,2,5,0,1
77708,-71.4285714285714,4,2,2,75,0,1
77955,-71.4285714285714,4,2,2,5,0,1
78038,-100,4,2,2,75,0,1
81994,-100,4,2,1,60,0,0
86609,-100,4,2,2,60,0,0

[Colours]
Combo1 : 0,0,117
Combo2 : 255,166,166
Combo3 : 255,255,179
Combo4 : 255,191,255

[HitObjects]
92,82,2873,6,0,P|69:159|160:175,1,186,4|8,0:0|0:0,0:0:0:0:
273,27,3367,2,0,L|285:140,1,93,2|0,0:0|0:0,0:0:0:0:
286,122,3615,1,0,0:0:0:0:
289,124,3697,1,0,0:0:0:0:
166,42,3862,1,8,0:0:0:0:
394,14,4027,6,0,L|377:213,1,186,2|0,0:0|0:0,0:0:0:0:
168,235,4521,2,0,L|270:198,1,93,8|0,0:0|0:0,0:0:0:0:
431,137,4851,1,2,0:0:0:0:
326,342,5016,5,8,0:0:0:0:
272,96,5181,1,8,0:0:0:0:
498,202,5345,1,8,0:0:0:0:
206,271,5510,5,4,0:0:0:0:
279,79,5675,1,0,0:0:0:0:
281,92,5757,1,0,0:0:0:0:
284,105,5840,1,8,0:0:0:0:
211,175,6005,1,0,0:0:0:0:
132,110,6170,2,0,P|84:106|35:130,1,93,2|0,0:0|0:0,0:0:0:0:
69,309,6499,2,0,P|117:313|166:289,1,93,8|0,0:0|0:0,0:0:0:0:
317,181,6829,5,2,0:0:0:0:
282,288,6994,1,0,0:0:0:0:
218,194,7159,1,8,0:0:0:0:
400,258,7323,1,0,0:0:0:0:
278,65,7488,5,2,0:0:0:0:
319,312,7653,1,0,0:0:0:0:
278,65,7818,1,8,0:0:0:0:
319,312,7983,1,0,0:0:0:0:
466,86,8148,6,0,B|457:153|457:153|470:206|470:206|461:276,1,186,4|8,0:0|0:0,0:0:0:0:
246,206,8642,2,0,L|347:187,1,93,2|0,0:0|0:0,0:0:0:0:
342,188,8889,1,0,0:0:0:0:
346,187,8972,1,0,0:0:0:0:
216,346,9137,1,8,0:0:0:0:
130,133,9301,6,0,P|57:162|88:248,1,186,2|0,0:0|0:0,0:0:0:0:
246,188,9796,2,0,L|237:78,1,93,8|0,0:0|0:0,0:0:0:0:
169,240,10126,1,2,0:0:0:0:
348,197,10290,5,8,0:0:0:0:
139,124,10455,1,8,0:0:0:0:
407,81,10620,1,8,0:0:0:0:
115,27,10785,5,4,0:0:0:0:
407,81,11444,5,4,0:0:0:0:
139,124,11939,1,4,0:0:0:0:
348,197,12268,5,8,0:0:0:0:
248,28,12433,1,8,0:0:0:0:
130,185,12598,1,8,0:0:0:0:
341,110,12763,5,2,0:0:0:0:
130,13,12928,1,2,0:0:0:0:
130,13,13010,1,2,0:0:0:0:
130,13,13093,1,4,0:0:0:0:
159,235,13257,1,2,0:0:0:0:
130,13,13422,6,0,L|112:118,1,93,4|0,0:0|0:0,0:0:0:0:
84,211,13752,1,8,0:0:0:0:
84,211,13917,1,0,0:0:0:0:
285,106,14082,2,0,L|304:213,1,93,2|0,0:0|0:0,0:0:0:0:
325,306,14411,1,8,0:0:0:0:
325,306,14576,1,0,0:0:0:0:
474,209,14741,5,2,0:0:0:0:
340,148,14906,1,0,0:0:0:0:
412,329,15071,1,8,0:0:0:0:
488,112,15236,1,0,0:0:0:0:
221,191,15400,6,0,L|336:220,1,93,2|0,0:0|0:0,0:0:0:0:
62,248,15730,2,0,L|177:277,1,93,8|0,0:0|0:0,0:0:0:0:
32,72,16060,5,2,0:0:0:0:
41,164,16225,1,0,0:0:0:0:
231,70,16389,2,0,L|220:176,1,93,8|0,0:0|0:0,0:0:0:0:
407,21,16719,1,2,0:0:0:0:
315,30,16884,1,0,0:0:0:0:
409,220,17049,2,0,L|303:209,1,93,8|0,0:0|0:0,0:0:0:0:
122,102,17378,5,2,0:0:0:0:
231,327,17543,1,8,0:0:0:0:
330,113,17708,1,8,0:0:0:0:
79,217,17873,1,4,0:0:0:0:
294,380,18038,2,0,P|318:326|318:282,1,93,0|2,0:0|0:0,0:0:0:0:
136,110,18367,1,8,0:0:0:0:
133,142,18450,1,8,0:0:0:0:
141,173,18532,1,2,0:0:0:0:
396,227,18697,5,4,0:0:0:0:
288,95,18862,1,0,0:0:0:0:
468,168,19027,1,8,0:0:0:0:
258,240,19192,1,0,0:0:0:0:
374,16,19356,2,0,L|389:122,1,93,2|0,0:0|0:0,0:0:0:0:
149,81,19686,2,0,P|194:61|245:53,1,93,8|0,0:0|0:0,0:0:0:0:
16,24,20016,5,2,0:0:0:0:
141,96,20181,1,0,0:0:0:0:
44,287,20345,1,8,0:0:0:0:
13,131,20510,1,0,0:0:0:0:
228,200,20675,6,0,L|124:218,1,93,2|0,0:0|0:0,0:0:0:0:
387,292,21005,2,0,L|283:310,1,93,8|0,0:0|0:0,0:0:0:0:
469,64,21334,6,0,L|365:82,1,93,4|8,0:0|0:0,0:0:0:0:
363,83,21582,1,8,0:0:0:0:
349,87,21664,1,8,0:0:0:0:
265,282,21829,1,2,0:0:0:0:
211,27,21994,1,4,0:3:0:0:
165,322,22159,1,2,0:0:0:0:
301,89,22323,1,2,0:0:0:0:
454,307,22488,6,0,P|503:260|479:193,1,130.199996026611,4|8,0:0|0:0,0:0:0:0:
287,231,22983,6,0,L|297:288,1,46.5,8|0,0:0|0:0,0:0:0:0:
428,127,23148,2,0,L|418:184,1,46.5,8|0,0:0|0:0,0:0:0:0:
252,59,23312,2,0,L|262:116,1,46.5,8|0,0:0|0:0,0:0:0:0:
269,116,23642,6,0,P|321:69|246:54,1,167.399994891358,4|0,0:0|0:0,0:0:0:0:
189,101,23972,6,0,L|203:202,1,93,4|4,0:0|0:0,0:0:0:0:
80,336,24301,1,8,0:0:0:0:
105,218,24466,1,0,0:0:0:0:
204,304,24631,1,0,0:0:0:0:
22,251,24796,1,0,0:0:0:0:
218,185,24961,1,8,0:0:0:0:
3,129,25126,6,0,L|99:104,1,93,2|0,0:0|0:0,0:0:0:0:
318,217,25455,2,0,L|222:192,1,93,2|8,0:0|0:0,0:0:0:0:
86,289,25785,1,2,0:0:0:0:
204,90,25950,2,0,L|224:191,1,93,2|0,0:0|0:0,0:0:0:0:
359,74,26279,1,10,0:0:0:0:
105,21,26444,1,0,0:0:0:0:
100,22,26527,1,0,0:0:0:0:
96,24,26609,6,0,L|79:143,1,93,4|4,0:0|0:0,0:0:0:0:
158,235,26939,1,8,0:0:0:0:
272,153,27104,1,0,0:0:0:0:
163,120,27268,1,0,0:0:0:0:
267,307,27433,1,0,0:0:0:0:
360,104,27598,1,8,0:0:0:0:
503,280,27763,6,0,L|407:289,1,93,2|0,0:0|0:0,0:0:0:0:
176,223,28093,2,0,L|272:214,1,93,2|8,0:0|0:0,0:0:0:0:
116,337,28422,1,2,0:0:0:0:
44,127,28587,2,0,L|29:232,1,93,2|0,0:0|0:0,0:0:0:0:
220,164,28917,1,8,0:0:0:0:
120,17,29082,1,0,0:0:0:0:
117,20,29164,1,0,0:0:0:0:
115,24,29246,6,0,L|134:149,1,93,4|4,0:0|0:0,0:0:0:0:
325,57,29576,1,8,0:0:0:0:
240,158,29741,1,0,0:0:0:0:
450,192,29906,1,0,0:0:0:0:
296,57,30071,1,0,0:0:0:0:
249,256,30236,1,8,0:0:0:0:
453,148,30400,6,0,P|405:135|361:133,1,93,2|0,0:0|0:0,0:0:0:0:
186,305,30730,2,0,P|234:298|262:264,1,93,2|8,0:0|0:0,0:0:0:0:
177,78,31060,1,2,0:0:0:0:
24,229,31225,1,2,0:0:0:0:
24,229,31389,1,0,0:0:0:0:
83,33,31554,1,10,0:0:0:0:
125,252,31719,1,0,0:0:0:0:
140,242,31801,1,0,0:0:0:0:
155,232,31884,6,0,P|208:222|261:249,1,111.6,4|0,0:3|0:0,0:0:0:0:
308,345,32214,6,0,P|286:260|384:273,1,195.299994039917,12|0,0:0|0:0,0:0:0:0:
438,321,32543,6,0,P|392:326|375:269,1,111.6,4|0,0:3|0:0,0:0:0:0:
442,177,32873,6,0,L|457:254,1,65.0999980133057,8|0,0:0|0:0,0:0:0:0:
302,135,33038,6,0,L|287:273,1,111.6,4|0,0:0|0:0,0:0:0:0:
285,279,33367,1,8,0:0:0:0:
172,114,33532,5,2,0:0:0:0:
370,198,33697,1,8,0:0:0:0:
122,183,33862,5,2,0:0:0:0:
372,213,34027,1,8,0:0:0:0:
72,252,34192,5,2,0:0:0:0:
375,227,34356,1,8,0:0:0:0:
334,215,34439,1,0,0:0:0:0:
294,203,34521,1,4,0:0:0:0:
294,203,34851,5,8,0:0:0:0:
374,349,35016,1,0,0:0:0:0:
489,168,35181,1,2,0:0:0:0:
394,254,35345,1,2,0:0:0:0:
344,28,35510,1,8,0:0:0:0:
394,254,35675,6,0,L|410:156,1,93,2|0,0:0|0:0,0:0:0:0:
278,322,36005,1,2,0:0:0:0:
489,284,36170,1,8,0:0:0:0:
337,136,36334,1,0,0:0:0:0:
385,356,36499,2,0,L|401:258,1,93,2|2,0:0|0:0,0:0:0:0:
251,141,36829,2,0,L|265:232,1,93,8|0,0:0|0:0,0:0:0:0:
479,115,37159,6,0,L|464:206,1,93,4|0,0:0|0:0,0:0:0:0:
315,31,37488,1,8,0:0:0:0:
414,165,37653,1,0,0:0:0:0:
185,197,37818,1,2,0:0:0:0:
346,254,37983,1,2,0:0:0:0:
230,53,38148,1,8,0:0:0:0:
92,240,38312,6,0,L|75:144,1,93,2|0,0:0|0:0,0:0:0:0:
228,296,38642,1,2,0:0:0:0:
264,161,38807,1,8,0:0:0:0:
85,258,38972,1,0,0:0:0:0:
293,362,39137,2,0,P|297:308|308:248,1,93,2|2,0:0|0:0,0:0:0:0:
233,68,39466,1,8,0:0:0:0:
452,145,39631,1,8,0:0:0:0:
419,151,39714,1,8,0:0:0:0:
387,157,39796,6,0,B|363:119|363:119|369:62,1,93,4|0,0:0|0:0,0:0:0:0:
453,272,40126,1,8,0:0:0:0:
512,75,40290,1,0,0:0:0:0:
293,156,40455,1,2,0:0:0:0:
430,190,40620,1,2,0:0:0:0:
179,212,40785,1,8,0:0:0:0:
430,190,40950,6,0,L|333:163,1,93,2|0,0:0|0:0,0:0:0:0:
217,303,41279,1,2,0:0:0:0:
151,80,41444,1,8,0:0:0:0:
151,80,41609,1,8,0:0:0:0:
12,241,41774,1,0,0:0:0:0:
237,155,41939,2,0,L|306:171,1,46.5,2|2,0:0|0:0,0:0:0:0:
354,217,42104,1,8,0:0:0:0:
385,209,42186,1,8,0:0:0:0:
416,201,42268,1,2,0:0:0:0:
489,285,42433,5,0,0:0:0:0:
489,285,42598,1,0,0:0:0:0:
306,150,42763,2,0,B|297:239|297:239|345:220,1,120.899994465637,8|8,0:0|0:0,0:0:0:0:
453,187,43093,5,0,0:0:0:0:
453,187,43258,1,0,0:0:0:0:
270,52,43423,2,0,B|261:141|261:141|309:122,1,120.899994465637,8|8,0:0|0:0,0:0:0:0:
303,126,43917,5,8,0:0:0:0:
82,40,44082,1,8,0:0:0:0:
279,19,44246,1,8,0:0:0:0:
88,164,44411,1,12,0:0:0:0:
314,277,44576,5,8,0:0:0:0:
327,243,44659,1,8,0:0:0:0:
326,206,44741,1,12,0:0:0:0:
92,302,44906,1,8,0:0:0:0:
127,309,44988,1,8,0:0:0:0:
162,316,45071,6,0,P|199:264|149:189,1,139.5,4|0,0:0|0:0,0:0:0:0:
171,199,45400,2,0,P|197:229|264:220,1,93,8|0,0:0|0:0,0:0:0:0:
425,123,45730,1,2,0:0:0:0:
363,240,45895,1,2,0:0:0:0:
310,43,46060,1,8,0:0:0:0:
363,240,46225,6,0,P|329:158|430:134,1,186,2|2,0:0|0:0,0:0:0:0:
195,178,46719,1,8,0:0:0:0:
373,245,46884,1,0,0:0:0:0:
261,71,47049,1,2,0:0:0:0:
157,249,47214,1,2,0:0:0:0:
358,160,47378,2,0,P|316:153|258:141,1,93,8|0,0:0|0:0,0:0:0:0:
55,242,47708,6,0,P|110:226|209:223,1,139.5,4|0,0:0|0:0,0:0:0:0:
255,277,48038,2,0,P|267:321|236:366,1,93,8|0,0:0|0:0,0:0:0:0:
60,297,48367,1,2,0:0:0:0:
56,278,48450,1,0,0:0:0:0:
53,260,48532,1,0,0:0:0:0:
168,88,48697,1,8,0:0:0:0:
1,140,48862,1,0,0:0:0:0:
23,144,48944,1,0,0:0:0:0:
46,148,49027,5,8,0:0:0:0:
190,320,49192,1,0,0:0:0:0:
279,96,49356,1,8,0:0:0:0:
94,238,49521,1,8,0:0:0:0:
94,238,49851,5,4,0:3:0:0:
165,177,50016,1,2,0:0:0:0:
245,223,50181,1,2,0:0:0:0:
94,238,50345,6,0,P|57:178|93:109,1,139.500005321503,4|0,0:0|0:0,0:0:0:0:
172,301,50840,1,2,0:0:0:0:
172,301,51005,2,0,L|319:286,1,139.500005321503,8|0,0:0|0:0,0:0:0:0:
457,118,51499,6,0,P|408:89|357:157,1,139.500005321503,4|2,0:0|0:0,0:0:0:0:
448,269,51994,1,2,0:0:0:0:
448,269,52323,2,0,L|463:121,1,139.500005321503,8|0,0:0|0:0,0:0:0:0:
49,130,52983,6,0,L|64:269,1,139.500005321503,4|0,0:0|0:0,0:0:0:0:
159,341,53477,1,2,0:0:0:0:
159,341,53642,2,0,P|219:328|226:246,1,139.500005321503,8|0,0:0|0:0,0:0:0:0:
139,86,54137,6,0,P|120:144|187:191,1,139.500005321503,4|8,0:0|0:0,0:0:0:0:
392,147,54631,1,8,0:0:0:0:
352,132,54714,1,8,0:0:0:0:
311,135,54796,1,8,0:0:0:0:
274,154,54878,1,8,0:0:0:0:
248,187,54961,5,2,0:0:0:0:
251,165,55043,1,0,0:0:0:0:
255,144,55126,1,0,0:0:0:0:
257,122,55208,1,0,0:0:0:0:
259,100,55290,1,2,0:0:0:0:
261,78,55373,1,0,0:0:0:0:
262,57,55455,1,0,0:0:0:0:
262,35,55538,1,0,0:0:0:0:
262,13,55620,5,4,0:0:0:0:
181,76,55840,5,2,0:0:0:0:
350,142,56060,5,2,0:0:0:0:
125,188,56279,5,4,0:0:0:0:
376,245,56499,5,2,0:0:0:0:
69,300,56719,5,2,0:0:0:0:
402,348,56939,6,0,L|260:366,1,139.5,4|0,0:0|0:0,0:0:0:0:
214,291,57268,2,0,L|321:278,1,93,8|0,0:0|0:0,0:0:0:0:
495,163,57598,1,8,0:0:0:0:
450,148,57681,1,0,0:0:0:0:
404,145,57763,1,0,0:0:0:0:
359,153,57845,1,0,0:0:0:0:
316,173,57928,1,0,0:0:0:0:
274,192,58010,1,0,0:0:0:0:
228,201,58093,1,0,0:0:0:0:
182,198,58175,1,0,0:0:0:0:
138,183,58257,6,0,B|121:45|121:45|168:66,1,186,4|8,0:0|0:0,0:0:0:0:
266,109,58752,1,0,0:0:0:0:
31,161,58917,2,0,L|128:182,1,93,2|2,0:0|0:0,0:0:0:0:
273,331,59246,1,8,0:0:0:0:
355,104,59411,6,0,P|424:143|380:238,1,186,2|2,0:0|0:0,0:0:0:0:
257,122,59906,2,0,L|270:25,1,93,8|0,0:0|0:0,0:0:0:0:
317,270,60236,2,0,L|330:173,1,93,2|2,0:0|0:0,0:0:0:0:
121,224,60565,1,8,0:0:0:0:
255,326,60730,1,0,0:0:0:0:
4,322,60895,6,0,B|198:287,1,186,4|8,0:0|0:0,0:0:0:0:
266,338,61389,1,0,0:0:0:0:
327,169,61554,2,0,L|337:273,1,93,2|2,0:0|0:0,0:0:0:0:
443,97,61884,1,8,0:0:0:0:
214,183,62049,6,0,P|137:157|167:64,1,186,2|2,0:0|0:0,0:0:0:0:
39,249,62543,2,0,L|25:153,1,93,8|0,0:0|0:0,0:0:0:0:
240,83,62873,1,2,0:0:0:0:
223,176,63038,1,2,0:0:0:0:
89,58,63203,1,8,0:0:0:0:
337,13,63367,1,8,0:0:0:0:
337,13,63450,1,8,0:0:0:0:
337,13,63532,6,0,L|354:123,1,93,4|0,0:0|0:0,0:0:0:0:
319,308,63862,2,0,L|302:198,1,93,8|0,0:0|0:0,0:0:0:0:
470,108,64192,1,2,0:0:0:0:
362,252,64356,1,2,0:0:0:0:
288,28,64521,1,8,0:0:0:0:
414,162,64686,1,8,0:0:0:0:
176,186,64851,5,2,0:0:0:0:
351,104,65016,1,2,0:0:0:0:
224,289,65181,1,8,0:0:0:0:
263,100,65345,1,0,0:0:0:0:
441,236,65510,1,2,0:0:0:0:
292,215,65675,1,2,0:0:0:0:
492,96,65840,1,8,0:0:0:0:
417,355,66005,1,0,0:0:0:0:
413,351,66087,1,0,0:0:0:0:
409,348,66170,6,0,L|394:159,1,186,4|8,0:0|0:0,0:0:0:0:
502,277,66664,1,0,0:0:0:0:
306,155,66829,1,2,0:0:0:0:
220,349,66994,1,2,0:0:0:0:
368,270,67159,1,8,0:0:0:0:
113,225,67323,6,0,L|97:320,1,93,4|0,0:0|0:0,0:0:0:0:
15,78,67653,2,0,L|32:183,1,93,4|8,0:0|0:0,0:0:0:0:
207,224,67983,1,8,0:0:0:0:
207,224,68065,1,8,0:0:0:0:
207,224,68148,1,8,0:0:0:0:
18,68,68312,1,8,0:0:0:0:
18,68,68395,1,8,0:0:0:0:
18,68,68477,2,0,L|68:55,1,46.5,4|2,0:3|0:0,0:0:0:0:
172,233,68642,2,0,L|126:221,1,46.5,2|2,0:0|0:0,0:0:0:0:
225,64,68807,6,0,P|297:15|400:59,1,186,4|8,0:0|0:0,0:0:0:0:
385,42,69301,1,0,0:0:0:0:
221,86,69466,2,0,P|175:75|116:67,1,93,2|2,0:0|0:0,0:0:0:0:
21,241,69796,1,8,0:0:0:0:
249,201,69961,6,0,P|342:191|438:190,1,186,4|2,0:0|0:0,0:0:0:0:
218,352,70455,2,0,P|195:312|208:251,1,93,8|0,0:0|0:0,0:0:0:0:
371,226,70785,1,2,0:0:0:0:
315,322,70950,1,2,0:0:0:0:
354,83,71115,1,8,0:0:0:0:
500,229,71279,1,0,0:0:0:0:
233,192,71444,6,0,B|166:203|166:203|112:197|112:197|33:210,1,186,4|8,0:0|0:0,0:0:0:0:
96,289,71939,1,0,0:0:0:0:
227,86,72104,2,0,P|230:132|239:188,1,93,2|2,0:0|0:0,0:0:0:0:
381,310,72433,1,8,0:0:0:0:
494,152,72598,6,0,P|407:117|337:201,1,186,4|2,0:0|0:0,0:0:0:0:
461,354,73093,1,8,0:0:0:0:
240,320,73257,1,8,0:0:0:0:
437,222,73422,1,2,0:0:0:0:
342,351,73587,1,2,0:0:0:0:
341,346,73670,1,2,0:0:0:0:
340,341,73752,1,8,0:0:0:0:
297,140,73917,1,2,0:0:0:0:
80,262,74082,6,0,L|175:280,1,93,4|0,0:0|0:0,0:0:0:0:
432,262,74411,2,0,L|337:280,1,93,8|0,0:0|0:0,0:0:0:0:
142,193,74741,2,0,P|128:145|132:89,1,93,2|2,0:0|0:0,0:0:0:0:
382,102,75071,2,0,P|382:148|370:193,1,93,8|0,0:0|0:0,0:0:0:0:
256,315,75400,5,2,0:0:0:0:
256,315,75565,1,2,0:0:0:0:
210,125,75730,2,0,P|255:114|301:121,1,93,8|0,0:0|0:0,0:0:0:0:
468,257,76060,1,2,0:0:0:0:
323,217,76225,1,2,0:0:0:0:
409,23,76389,1,8,0:0:0:0:
459,143,76554,1,0,0:0:0:0:
255,31,76719,6,0,L|232:152,1,111.6,4|0,0:3|0:0,0:0:0:0:
275,237,77049,6,0,P|236:174|141:239,1,195.299994039917,12|0,0:0|0:0,0:0:0:0:
272,252,77378,6,0,P|322:240|388:238,1,111.6,4|0,0:3|0:0,0:0:0:0:
441,337,77708,6,0,P|367:339|403:248,1,195.299994039917,12|0,0:0|0:0,0:0:0:0:
488,266,78038,6,0,L|481:372,1,93,4|0,0:0|0:0,0:0:0:0:
405,169,78367,1,8,0:0:0:0:
347,120,78477,1,8,0:0:0:0:
273,133,78587,1,8,0:0:0:0:
246,202,78697,5,4,0:3:0:0:
272,270,78807,1,4,0:3:0:0:
224,328,78917,1,4,0:3:0:0:
150,314,79027,5,2,0:0:0:0:
125,244,79137,1,2,0:0:0:0:
173,188,79246,1,2,0:0:0:0:
198,258,79356,5,4,0:0:0:0:
198,258,80016,6,0,L|212:61,1,186,4|8,0:0|0:0,0:0:0:0:
198,258,80510,1,4,0:0:0:0:
198,258,80840,5,8,0:0:0:0:
438,156,81005,1,8,0:0:0:0:
215,147,81170,1,8,0:0:0:0:
472,258,81334,1,8,0:0:0:0:
331,38,81499,1,2,0:0:0:0:
331,38,81582,1,2,0:0:0:0:
331,38,81664,2,0,P|321:110|312:196,1,139.5,4|0,0:0|0:0,0:0:0:0:
280,265,81994,6,0,P|270:175|248:77,1,186,4|8,0:0|0:0,0:0:0:0:
177,264,82488,2,0,P|131:266|86:241,1,93,2|0,0:0|0:0,0:0:0:0:
90,245,82818,1,0,0:0:0:0:
244,71,82983,1,8,0:0:0:0:
308,324,83148,6,0,P|283:262|376:228,1,186,2|0,0:0|0:0,0:0:0:0:
161,324,83642,2,0,L|146:215,1,93,8|0,0:0|0:0,0:0:0:0:
128,75,83972,1,2,0:0:0:0:
271,206,84137,5,8,0:0:0:0:
46,258,84301,1,8,0:0:0:0:
277,104,84466,1,8,0:0:0:0:
6,166,84631,5,4,0:0:0:0:
277,104,85290,5,4,0:0:0:0:
164,273,85785,1,4,0:0:0:0:
164,273,86115,5,8,0:0:0:0:
127,65,86279,1,8,0:0:0:0:
326,141,86444,1,8,0:0:0:0:
98,229,86609,5,2,0:0:0:0:
248,37,86774,1,2,0:0:0:0:
248,37,86856,1,2,0:0:0:0:
248,37,86939,1,4,0:0:0:0:
337,263,87104,1,2,0:0:0:0:
93,147,87268,6,0,P|185:137|290:122,1,186,4|2,0:0|0:0,0:0:0:0:
177,365,87763,1,4,0:0:0:0:
