osu file format v14

[General]
AudioFilename: Song_Yes!Yuyuyu Yuruyuri.mp3
AudioLeadIn: 0
PreviewTime: 57598
Countdown: 0
SampleSet: Soft
StackLeniency: 0.4
Mode: 0
LetterboxInBreaks: 0
WidescreenStoryboard: 0

[Editor]
DistanceSpacing: 1
BeatDivisor: 4
GridSize: 4
TimelineZoom: 2.2

[Metadata]
Title:Yes! YuYuYu*YuruYuri
TitleUnicode:いぇす!ゆゆゆ☆ゆるゆり♪♪
Artist:Nanamori-chu*Goraku-bu
ArtistUnicode:七森中☆ごらく部
Creator:Karia
Version:Hard
Source:ゆるゆり♪♪
Tags:三上枝織 大坪由佳 津田美波 大久保瑠美 Mikami Shiori Otsubo Yuka Tsuda Minami Okubo Rumi 赤座あかり Akaza Akari 歳納京子 Toshino Kyoko 船見結衣 Funami Yui 吉川ちなつ Yoshikawa Chinatsu yryr Yuru Yuri♪♪ Opening TV Size Setz
BeatmapID:830670
BeatmapSetID:379229

[Difficulty]
HPDrainRate:6
CircleSize:4
OverallDifficulty:6
ApproachRate:8
SliderMultiplier:1.6
SliderTickRate:1

[Events]
//Background and Video events
Video,0,"VIDEO.avi"
0,0,"BG.jpg",0,0
//Break Periods
//Storyboard Layer 0 (Background)
//Storyboard Layer 1 (Fail)
//Storyboard Layer 2 (Pass)
//Storyboard Layer 3 (Foreground)
//Storyboard Sound Samples

[TimingPoints]
236,329.67032967033,4,2,1,60,1,0
12763,-100,4,2,2,60,0,0
13422,-100,4,2,2,70,0,0
22488,-117.647058823529,4,2,2,70,0,0
22818,-100,4,2,2,70,0,0
23972,-100,4,2,1,60,0,0
34521,-100,4,2,2,70,0,0
50345,-117.647058823529,4,2,2,70,0,0
54631,-100,4,2,2,70,0,0
58257,-100,4,2,2,75,0,1
68725,-100,4,2,2,75,0,0
68807,-100,4,2,2,75,0,1
81994,-100,4,2,1,60,0,0
86609,-100,4,2,2,60,0,0

[Colours]
Combo1 : 0,0,117
Combo2 : 255,166,166
Combo3 : 255,255,179
Combo4 : 255,191,255

[HitObjects]
38,109,2873,6,0,P|95:58|173:112,1,160,4|8,0:0|0:0,0:0:0:0:
223,141,3367,2,0,P|264:133|325:132,1,80,2|0,0:0|0:0,0:0:0:0:
384,165,3697,1,0,0:0:0:0:
429,91,3862,1,8,0:0:0:0:
429,91,4027,6,0,L|446:250,1,160,2|0,0:0|0:0,0:0:0:0:
376,289,4521,2,0,L|371:372,2,80,8|0|2,0:0|0:0|0:0,0:0:0:0:
314,236,5016,5,8,0:0:0:0:
231,313,5181,1,8,0:0:0:0:
207,203,5345,1,8,0:0:0:0:
207,203,5510,6,0,P|166:194|117:213,1,80,4|0,0:0|0:0,0:0:0:0:
91,274,5840,2,0,P|50:283|1:264,1,80,8|0,0:0|0:0,0:0:0:0:
169,267,6170,2,0,L|159:354,1,80,2|0,0:0|0:0,0:0:0:0:
239,356,6499,2,0,L|249:269,1,80,8|0,0:0|0:0,0:0:0:0:
306,220,6829,5,2,0:0:0:0:
306,220,6994,1,0,0:0:0:0:
353,284,7159,2,0,P|396:288|440:268,1,80,8|0,0:0|0:0,0:0:0:0:
504,215,7488,2,0,L|517:308,1,80,2|0,0:0|0:0,0:0:0:0:
424,190,7818,2,0,L|437:97,1,80,8|0,0:0|0:0,0:0:0:0:
336,142,8148,6,0,P|261:150|163:159,1,160,4|8,0:0|0:0,0:0:0:0:
103,124,8642,2,0,P|99:88|97:32,1,80,2|0,0:0|0:0,0:0:0:0:
16,49,8972,2,0,P|20:85|22:141,1,80,2|8,0:0|0:0,0:0:0:0:
10,225,9301,6,0,P|75:197|157:236,1,160,2|0,0:0|0:0,0:0:0:0:
226,262,9796,2,0,P|235:216|243:172,2,80,8|0|2,0:0|0:0|0:0,0:0:0:0:
165,314,10290,5,8,0:0:0:0:
257,381,10455,1,8,0:0:0:0:
341,307,10620,1,8,0:0:0:0:
341,307,10785,5,4,0:0:0:0:
257,381,11444,2,0,B|204:345|199:284|199:284|167:340|94:342,1,240,4|4,0:0|0:0,0:0:0:0:
6,210,12268,6,0,L|-3:122,2,80,8|8|8,0:0|0:0|0:0,0:0:0:0:
71,270,12763,1,2,0:0:0:0:
130,203,12928,1,2,0:0:0:0:
133,200,13010,1,2,0:0:0:0:
136,198,13093,2,0,P|176:197|223:219,1,80,4|2,0:0|0:0,0:0:0:0:
301,315,13422,6,0,P|288:272|296:216,1,80,4|0,0:0|0:0,0:0:0:0:
354,189,13752,2,0,L|444:197,1,80,8|0,0:0|0:0,0:0:0:0:
454,118,14082,2,0,L|374:110,1,80,2|0,0:0|0:0,0:0:0:0:
308,65,14411,2,0,P|267:62|230:75,1,80,8|0,0:0|0:0,0:0:0:0:
175,132,14741,6,0,L|184:218,1,80,2|0,0:0|0:0,0:0:0:0:
119,284,15071,1,8,0:0:0:0:
119,284,15236,1,0,0:0:0:0:
185,351,15400,2,0,P|228:351|279:320,1,80,2|0,0:0|0:0,0:0:0:0:
349,298,15730,2,0,L|341:394,1,80,8|0,0:0|0:0,0:0:0:0:
281,256,16060,6,0,L|289:160,1,80,2|0,0:0|0:0,0:0:0:0:
311,99,16389,2,0,L|216:112,1,80,8|0,0:0|0:0,0:0:0:0:
191,179,16719,2,0,L|111:168,1,80,2|0,0:0|0:0,0:0:0:0:
39,132,17049,2,0,P|23:95|32:50,1,80,8|0,0:0|0:0,0:0:0:0:
95,11,17378,5,2,0:0:0:0:
170,84,17543,1,8,0:0:0:0:
170,84,17708,1,8,0:0:0:0:
257,23,17873,1,4,0:0:0:0:
293,94,18038,2,0,P|330:100|381:86,1,80,0|2,0:0|0:0,0:0:0:0:
428,35,18367,2,0,L|471:28,2,40,8|8|2,0:0|0:0|0:0,0:0:0:0:
444,113,18697,6,0,L|452:212,1,80,4|0,0:0|0:0,0:0:0:0:
386,241,19027,2,0,L|394:340,1,80,8|0,0:0|0:0,0:0:0:0:
329,369,19356,2,0,P|287:372|230:350,1,80,2|0,0:0|0:0,0:0:0:0:
207,294,19686,2,0,P|165:291|108:313,1,80,8|0,0:0|0:0,0:0:0:0:
58,354,20016,6,0,L|48:266,1,80,2|0,0:0|0:0,0:0:0:0:
113,204,20345,1,8,0:0:0:0:
113,204,20510,1,0,0:0:0:0:
39,143,20675,2,0,P|41:97|63:59,1,80,2|0,0:0|0:0,0:0:0:0:
147,99,21005,2,0,P|178:65|219:50,1,80,8|0,0:0|0:0,0:0:0:0:
294,97,21334,5,4,0:0:0:0:
377,48,21499,2,0,L|387:9,2,40,8|8|8,0:0|0:0|0:0,0:0:0:0:
370,128,21829,1,2,0:0:0:0:
444,98,21994,1,4,0:3:0:0:
444,98,22159,2,0,L|531:111,1,80,2|2,0:0|0:0,0:0:0:0:
370,128,22488,6,0,L|218:144,1,136.000002593994,4|8,0:0|0:0,0:0:0:0:
172,233,22983,1,8,0:0:0:0:
74,185,23148,1,8,0:0:0:0:
64,292,23312,1,8,0:0:0:0:
64,292,23642,2,0,L|79:377,1,80,4|0,0:0|0:0,0:0:0:0:
149,264,23972,6,0,L|168:185,1,80,4|4,0:0|0:0,0:0:0:0:
130,115,24301,2,0,P|91:106|46:120,1,80,8|0,0:0|0:0,0:0:0:0:
167,186,24631,2,0,P|206:195|251:181,1,80
311,141,24961,1,8,0:0:0:0:
364,200,25126,6,0,L|354:290,1,80,2|0,0:0|0:0,0:0:0:0:
412,335,25455,2,0,P|450:325|492:325,2,80,2|8|2,0:0|0:0|0:0,0:0:0:0:
334,358,25950,2,0,P|294:353|238:339,1,80,2|0,0:0|0:0,0:0:0:0:
196,290,26279,1,10,0:0:0:0:
196,290,26444,1,0,0:0:0:0:
124,367,26609,6,0,L|115:275,1,80,4|4,0:0|0:0,0:0:0:0:
196,290,26939,2,0,L|206:200,1,80,8|0,0:0|0:0,0:0:0:0:
139,164,27268,2,0,P|99:175|31:179,1,80
6,120,27598,1,8,0:0:0:0:
36,46,27763,6,0,P|74:35|114:30,1,80,2|0,0:0|0:0,0:0:0:0:
172,85,28093,2,0,P|211:80|250:69,1,80,2|8,0:0|0:0,0:0:0:0:
313,20,28422,1,2,0:0:0:0:
371,74,28587,2,0,L|365:158,1,80,2|0,0:0|0:0,0:0:0:0:
425,207,28917,1,8,0:0:0:0:
374,269,29082,1,0,0:0:0:0:
371,272,29164,1,0,0:0:0:0:
367,274,29246,6,0,B|274:264,1,80,4|4,0:0|0:0,0:0:0:0:
209,245,29576,2,0,L|219:342,1,80,8|0,0:0|0:0,0:0:0:0:
267,193,29906,2,0,L|257:96,1,80
200,57,30236,1,8,0:0:0:0:
141,110,30400,6,0,P|97:116|47:123,1,80,2|0,0:0|0:0,0:0:0:0:
53,201,30730,2,0,P|97:195|147:188,1,80,2|8,0:0|0:0,0:0:0:0:
196,238,31060,1,2,0:0:0:0:
196,238,31225,2,0,L|186:329,1,80,2|0,0:0|0:0,0:0:0:0:
247,370,31554,1,10,0:0:0:0:
313,324,31719,2,0,L|357:342,2,40,0|0|4,0:0|0:0|0:3,0:0:0:0:
313,324,32214,6,0,P|325:257|335:147,1,160,12|0,0:0|0:0,0:0:0:0:
292,97,32708,2,0,P|254:87|207:105,1,80,0|8,0:0|0:0,0:0:0:0:
174,203,33038,6,0,P|110:251|30:217,1,160,4|8,0:0|0:0,0:0:0:0:
5,156,33532,2,0,L|-6:75,1,80,2|8,0:0|0:0,0:0:0:0:
97,164,33862,2,0,L|110:80,1,80,2|8,0:0|0:0,0:0:0:0:
179,200,34192,2,0,L|221:112,1,80,2|8,0:0|0:0,0:0:0:0:
215,124,34439,1,8,0:0:0:0:
217,121,34521,1,4,0:0:0:0:
372,157,34851,5,8,0:0:0:0:
372,157,35016,1,0,0:0:0:0:
333,87,35181,2,0,P|371:77|423:95,1,80,2|2,0:0|0:0,0:0:0:0:
478,128,35510,1,8,0:0:0:0:
478,128,35675,6,0,L|501:26,1,80,2|0,0:0|0:0,0:0:0:0:
439,200,36005,2,0,L|455:293,1,80,2|8,0:0|0:0,0:0:0:0:
393,333,36334,1,0,0:0:0:0:
323,293,36499,2,0,L|209:308,1,80,2|2,0:0|0:0,0:0:0:0:
179,351,36829,2,0,L|65:366,1,80,8|0,0:0|0:0,0:0:0:0:
10,307,37159,6,0,P|0:265|11:216,1,80,4|0,0:0|0:0,0:0:0:0:
80,198,37488,2,0,P|92:156|126:119,1,80,8|0,0:0|0:0,0:0:0:0:
186,91,37818,2,0,L|273:117,1,80,2|2,0:0|0:0,0:0:0:0:
320,170,38148,1,8,0:0:0:0:
396,148,38312,6,0,P|445:91|384:19,1,160,2|2,0:0|0:0,0:0:0:0:
328,15,38807,2,0,L|233:26,1,80,8|0,0:0|0:0,0:0:0:0:
188,78,39137,2,0,P|143:77|95:55,1,80,2|2,0:0|0:0,0:0:0:0:
48,14,39466,1,8,0:0:0:0:
4,80,39631,1,8,0:0:0:0:
2,83,39714,1,8,0:0:0:0:
0,86,39796,6,0,B|15:189,1,80,4|0,0:0|0:0,0:0:0:0:
70,220,40126,2,0,L|55:320,1,80,8|0,0:0|0:0,0:0:0:0:
125,342,40455,2,0,P|161:334|219:331,1,80,2|2,0:0|0:0,0:0:0:0:
278,362,40785,1,8,0:0:0:0:
354,337,40950,6,0,P|359:292|346:235,1,80,2|0,0:0|0:0,0:0:0:0:
291,208,41279,1,2,0:0:0:0:
340,144,41444,2,0,B|378:131|378:131|426:138,1,80,8|8,0:0|0:0,0:0:0:0:
291,208,41774,2,0,P|249:209|199:197,1,80,2|0,0:0|0:0,0:0:0:0:
156,126,42104,2,0,L|168:66,2,40,8|8|2,0:0|0:0|0:0,0:0:0:0:
86,65,42433,6,0,P|45:59|5:75,1,80
19,187,42763,2,0,P|60:193|100:177,1,80,8|8,0:0|0:0,0:0:0:0:
156,126,43093,6,0,P|197:120|237:136,1,80
301,221,43422,2,0,B|317:121,1,80,8|8,0:0|0:0,0:0:0:0:
313,142,43917,5,8,0:0:0:0:
281,68,44082,1,8,0:0:0:0:
201,70,44246,1,8,0:0:0:0:
169,143,44411,1,12,0:0:0:0:
219,205,44576,6,0,L|259:203,2,40,8|8|12,0:0|0:0|0:0,0:0:0:0:
125,226,44906,1,8,0:0:0:0:
110,220,44988,1,8,0:0:0:0:
96,214,45071,6,0,P|42:238|58:331,1,160,4|8,0:0|0:0,0:0:0:0:
127,352,45565,1,0,0:0:0:0:
127,352,45730,2,0,L|213:343,1,80,2|2,0:0|0:0,0:0:0:0:
255,277,46060,1,8,0:0:0:0:
305,357,46225,6,0,P|312:266|324:183,1,160,2|2,0:0|0:0,0:0:0:0:
380,143,46719,1,8,0:0:0:0:
380,143,46884,1,0,0:0:0:0:
423,210,47049,2,0,P|466:214|500:193,1,80,2|2,0:0|0:0,0:0:0:0:
475,119,47378,2,0,P|432:115|398:136,1,80,8|0,0:0|0:0,0:0:0:0:
328,206,47708,6,0,P|289:200|222:194,1,80,4|0,0:0|0:0,0:0:0:0:
200,130,48038,2,0,P|162:141|98:163,1,80,8|0,0:0|0:0,0:0:0:0:
52,190,48367,2,0,L|43:106,1,80,2|2,0:0|0:0,0:0:0:0:
120,234,48697,2,0,L|111:313,1,80,8|0,0:0|0:0,0:0:0:0:
184,377,49027,5,8,0:0:0:0:
184,377,49192,1,0,0:0:0:0:
260,322,49356,1,8,0:0:0:0:
260,322,49521,1,8,0:0:0:0:
260,322,49851,2,0,P|297:328|343:332,2,80,4|2|2,0:3|0:0|0:0,0:0:0:0:
195,271,50345,6,0,P|135:279|42:291,1,136.000002593994,4|0,0:0|0:0,0:0:0:0:
27,213,50840,1,2,0:0:0:0:
27,213,51005,2,0,P|63:151|125:182,1,136.000002593994,8|0,0:0|0:0,0:0:0:0:
192,190,51499,6,0,L|336:175,1,136.000002593994,4|2,0:0|0:0,0:0:0:0:
378,240,51994,2,0,L|458:251,1,68.0000012969971,2|0,0:0|0:0,0:0:0:0:
497,186,52323,2,0,P|510:115|481:49,1,136.000002593994,8|0,0:0|0:0,0:0:0:0:
414,20,52818,1,0,0:0:0:0:
414,20,52983,6,0,L|269:38,1,136.000002593994,4|2,0:0|0:0,0:0:0:0:
230,102,53477,1,2,0:0:0:0:
230,102,53642,2,0,P|174:135|108:81,1,136.000002593994,8|0,0:0|0:0,0:0:0:0:
73,33,54137,6,0,P|73:96|61:195,1,136.000002593994,4|8,0:0|0:0,0:0:0:0:
20,253,54631,2,0,L|59:263,3,40,8|8|8|8,0:0|0:0|0:0|0:0,0:0:0:0:
94,290,54961,2,0,L|140:281,3,40,2|0|0|0,0:0|0:0|0:0|0:0,0:0:0:0:
165,252,55290,2,0,L|211:262,3,40,2|0|0|0,0:0|0:0|0:0|0:0,0:0:0:0:
234,293,55620,6,0,P|227:240|221:176,2,106.666666666667,4|2|2,0:0|0:0|0:0,0:0:0:0:
325,348,56279,2,0,P|379:354|432:359,2,106.666666666667,4|2|2,0:0|0:0|0:0,0:0:0:0:
331,240,56939,6,0,P|399:237|497:227,1,160,4|8,0:0|0:0,0:0:0:0:
490,227,57598,2,0,L|498:175,3,40,8|0|0|0,0:0|0:0|0:0|0:0,0:0:0:0:
461,167,57928,2,0,L|453:115,3,40,2|0|0|0,0:0|0:0|0:0|0:0,0:0:0:0:
472,91,58257,6,0,B|420:103|420:103|368:95|368:95|292:103,1,160,4|8,0:0|0:0,0:0:0:0:
252,152,58752,1,0,0:0:0:0:
205,86,58917,2,0,P|161:80|111:101,1,80,2|0,0:0|0:0,0:0:0:0:
50,173,59246,1,8,0:0:0:0:
50,173,59411,6,0,P|35:243|112:271,1,160,2|2,0:0|0:0,0:0:0:0:
178,198,59906,2,0,P|182:246|190:290,1,80,8|0,0:0|0:0,0:0:0:0:
253,322,60236,2,0,L|348:306,1,80,2|2,0:0|0:0,0:0:0:0:
410,291,60565,2,0,L|394:386,1,80,8|0,0:0|0:0,0:0:0:0:
356,231,60895,6,0,P|348:164|338:62,1,160,4|8,0:0|0:0,0:0:0:0:
404,26,61389,1,0,0:0:0:0:
476,59,61554,2,0,P|482:108|467:169,1,80,2|2,0:0|0:0,0:0:0:0:
404,171,61884,1,8,0:0:0:0:
404,171,62049,6,0,P|333:167|234:164,1,160,2|2,0:0|0:0,0:0:0:0:
171,238,62543,2,0,P|165:203|157:142,1,80,8|0,0:0|0:0,0:0:0:0:
251,248,62873,2,0,L|235:328,1,80,2|2,0:0|0:0,0:0:0:0:
169,372,63203,1,8,0:0:0:0:
110,318,63367,1,8,0:0:0:0:
109,314,63450,1,8,0:0:0:0:
108,310,63532,6,0,L|10:324,1,80,4|0,0:0|0:0,0:0:0:0:
17,241,63862,2,0,L|115:227,1,80,8|0,0:0|0:0,0:0:0:0:
192,173,64192,2,0,L|176:267,1,80,2|2,0:0|0:0,0:0:0:0:
258,266,64521,2,0,L|273:171,1,80,8|8,0:0|0:0,0:0:0:0:
357,117,64851,6,0,L|274:106,1,80,2|2,0:0|0:0,0:0:0:0:
279,25,65181,2,0,L|362:36,1,80,8|0,0:0|0:0,0:0:0:0:
446,107,65510,2,0,L|457:24,1,80,2|2,0:0|0:0,0:0:0:0:
362,138,65840,2,0,L|373:221,1,80,8|0,0:0|0:0,0:0:0:0:
373,221,66087,1,0,0:0:0:0:
373,225,66170,6,0,P|295:216|203:220,1,160,4|8,0:0|0:0,0:0:0:0:
144,257,66664,1,0,0:0:0:0:
73,218,66829,2,0,P|62:180|67:130,2,80,2|2|8,0:0|0:0|0:0,0:0:0:0:
172,152,67323,6,0,L|261:137,1,80,4|0,0:0|0:0,0:0:0:0:
328,219,67653,2,0,L|249:232,1,80,4|8,0:0|0:0,0:0:0:0:
175,317,67983,2,0,L|163:272,2,40,8|8|8,0:0|0:0|0:0,0:0:0:0:
257,349,68312,1,8,0:0:0:0:
260,351,68395,1,8,0:0:0:0:
263,353,68477,2,0,L|319:339,3,40,4|2|2|2,0:3|0:0|0:0|0:0,0:0:0:0:
312,324,68807,6,0,P|390:346|454:291,1,160,4|8,0:0|0:0,0:0:0:0:
459,222,69301,1,0,0:0:0:0:
459,222,69466,2,0,L|446:137,1,80,2|2,0:0|0:0,0:0:0:0:
352,83,69796,1,8,0:0:0:0:
300,181,69961,6,0,P|230:204|158:153,1,160,4|2,0:0|0:0,0:0:0:0:
85,135,70455,2,0,L|81:223,1,80,8|0,0:0|0:0,0:0:0:0:
145,263,70785,2,0,P|186:250|238:239,1,80,2|2,0:0|0:0,0:0:0:0:
291,201,71115,2,0,P|332:213|384:225,1,80,8|0,0:0|0:0,0:0:0:0:
409,327,71444,6,0,B|426:164,1,160,4|8,0:0|0:0,0:0:0:0:
364,114,71939,1,0,0:0:0:0:
364,114,72104,2,0,P|323:122|276:131,1,80,2|2,0:0|0:0,0:0:0:0:
201,204,72433,1,8,0:0:0:0:
201,204,72598,6,0,P|279:208|372:219,1,160,4|2,0:0|0:0,0:0:0:0:
440,296,73093,2,0,P|447:255|462:192,1,80,8|8,0:0|0:0,0:0:0:0:
357,300,73422,2,0,P|318:309|271:315,1,80,2|2,0:0|0:0,0:0:0:0:
217,366,73752,2,0,P|177:361|138:352,1,80,8|0,0:0|0:0,0:0:0:0:
40,317,74082,6,0,L|27:234,1,80,4|0,0:0|0:0,0:0:0:0:
107,233,74411,2,0,L|118:152,1,80,8|0,0:0|0:0,0:0:0:0:
25,123,74741,2,0,L|12:40,1,80,2|2,0:0|0:0,0:0:0:0:
93,46,75071,2,0,P|133:53|178:58,1,80,8|0,0:0|0:0,0:0:0:0:
239,125,75400,6,0,P|279:118|322:107,1,80,2|2,0:0|0:0,0:0:0:0:
375,53,75730,2,0,P|413:56|467:69,1,80,8|0,0:0|0:0,0:0:0:0:
483,157,76060,2,0,L|471:253,1,80,2|2,0:0|0:0,0:0:0:0:
393,234,76389,2,0,L|405:138,1,80,8|0,0:0|0:0,0:0:0:0:
289,230,76719,1,4,0:3:0:0:
289,230,77049,6,0,P|245:238|205:247,1,80,12|0,0:0|0:0,0:0:0:0:
150,298,77378,2,0,P|100:292|61:288,1,80,4|0,0:3|0:0,0:0:0:0:
2,198,77708,2,0,P|64:191|143:178,1,120,12|0,0:0|0:0,0:0:0:0:
140,173,78038,2,0,P|146:138|142:87,1,80,4|0,0:0|0:0,0:0:0:0:
228,46,78367,6,0,L|284:36,2,53.3333333333333,8|8|8,0:0|0:0|0:0,0:0:0:0:
234,121,78697,2,0,L|295:124,2,53.3333333333333,4|4|4,0:3|0:3|0:3,0:0:0:0:
218,195,79027,2,0,L|268:214,2,53.3333333333333,2|2|2,0:0|0:0|0:0,0:0:0:0:
165,255,79356,5,4,0:0:0:0:
165,255,80016,6,0,P|236:248|328:240,1,160,4|8,0:0|0:0,0:0:0:0:
418,301,80510,1,4,0:0:0:0:
418,301,80840,6,0,L|436:213,1,80,8|8,0:0|0:0,0:0:0:0:
329,327,81170,2,0,L|347:239,1,80,8|8,0:0|0:0,0:0:0:0:
304,179,81499,1,2,0:0:0:0:
302,175,81582,1,2,0:0:0:0:
299,172,81664,2,0,P|230:176|167:185,1,120,4|0,0:0|0:0,0:0:0:0:
160,194,81994,6,0,P|176:113|97:92,1,160,4|8,0:0|0:0,0:0:0:0:
52,133,82488,2,0,L|61:223,1,80,2|0,0:0|0:0,0:0:0:0:
122,264,82818,2,0,L|119:352,1,80,0|8,0:0|0:0,0:0:0:0:
216,302,83148,6,0,P|287:297|380:285,1,160,2|0,0:0|0:0,0:0:0:0:
446,248,83642,2,0,L|457:337,2,80,8|0|2,0:0|0:0|0:0,0:0:0:0:
379,202,84137,5,8,0:0:0:0:
290,269,84301,1,8,0:0:0:0:
260,162,84466,1,8,0:0:0:0:
260,162,84631,5,4,0:0:0:0:
260,162,85290,2,0,B|199:163|162:106|162:106|136:168|68:178,1,240,4|4,0:0|0:0,0:0:0:0:
26,331,86115,6,0,L|12:238,2,80,8|8|8,0:0|0:0|0:0,0:0:0:0:
88,381,86609,1,2,0:0:0:0:
152,300,86774,1,2,0:0:0:0:
155,297,86856,1,2,0:0:0:0:
158,295,86939,2,0,P|199:291|247:314,1,80,4|2,0:0|0:0,0:0:0:0:
323,372,87268,6,0,L|335:188,1,160,4|2,0:0|0:0,0:0:0:0:
344,100,87763,1,4,0:0:0:0:
