osu file format v14

[General]
AudioFilename: Song_Yes!Yuyuyu Yuruyuri.mp3
AudioLeadIn: 0
PreviewTime: 57598
Countdown: 0
SampleSet: Soft
StackLeniency: 0.4
Mode: 0
LetterboxInBreaks: 0
WidescreenStoryboard: 0

[Editor]
DistanceSpacing: 1.1
BeatDivisor: 2
GridSize: 4
TimelineZoom: 2.2

[Metadata]
Title:Yes! YuYuYu*YuruYuri
TitleUnicode:いぇす!ゆゆゆ☆ゆるゆり♪♪
Artist:Nanamori-chu*Goraku-bu
ArtistUnicode:七森中☆ごらく部
Creator:Karia
Version:Easy
Source:ゆるゆり♪♪
Tags:三上枝織 大坪由佳 津田美波 大久保瑠美 Mikami Shiori Otsubo Yuka Tsuda Minami Okubo Rumi 赤座あかり Akaza Akari 歳納京子 Toshino Kyoko 船見結衣 Funami Yui 吉川ちなつ Yoshikawa Chinatsu yryr Yuru Yuri♪♪ Opening TV Size Setz
BeatmapID:831160
BeatmapSetID:379229

[Difficulty]
HPDrainRate:2
CircleSize:3
OverallDifficulty:2
ApproachRate:3
SliderMultiplier:0.8
SliderTickRate:1

[Events]
//Background and Video events
Video,0,"VIDEO.avi"
0,0,"BG.jpg",0,0
//Break Periods
//Storyboard Layer 0 (Background)
//Storyboard Layer 1 (Fail)
//Storyboard Layer 2 (Pass)
//Storyboard Layer 3 (Foreground)
//Storyboard Sound Samples

[TimingPoints]
236,329.67032967033,4,2,1,60,1,0
12763,-100,4,2,2,60,0,0
13422,-100,4,2,2,70,0,0
23972,-100,4,2,1,60,0,0
34521,-100,4,2,2,70,0,0
58257,-100,4,2,2,75,0,1
68725,-100,4,2,2,75,0,0
68807,-100,4,2,2,75,0,1
81994,-100,4,2,1,60,0,0
86609,-100,4,2,2,60,0,0

[Colours]
Combo1 : 0,0,117
Combo2 : 255,166,166
Combo3 : 255,255,179
Combo4 : 255,191,255

[HitObjects]
45,85,2873,6,0,P|47:127|57:192,1,80,4|8,0:0|0:0,0:0:0:0:
137,144,3532,2,0,P|192:133|274:126,2,120,2|2|8,0:0|0:0|0:0,0:0:0:0:
131,231,4851,2,0,P|172:235|226:242,1,80,2|8,0:0|0:0,0:0:0:0:
280,293,5510,6,0,P|344:284|464:266,1,160,4|2,0:0|0:0,0:0:0:0:
496,204,6499,1,8,0:0:0:0:
432,142,6829,2,0,L|350:136,1,80,2|8,0:0|0:0,0:0:0:0:
289,197,7488,2,0,L|188:212,1,80,2|8,0:0|0:0,0:0:0:0:
124,185,8148,6,0,P|115:145|109:106,1,80,4|8,0:0|0:0,0:0:0:0:
24,83,8807,2,0,P|16:146|7:218,2,120,2|2|8,0:0|0:0|0:0,0:0:0:0:
89,24,10126,2,0,P|126:19|186:29,1,80,2|8,0:0|0:0,0:0:0:0:
247,61,10785,5,4,0:0:0:0:
123,185,11444,2,0,P|103:234|139:293,1,120,4|4,0:0|0:0,0:0:0:0:
213,325,12268,6,0,P|272:315|338:310,1,120,8|2,0:0|0:0,0:0:0:0:
407,355,13093,1,4,0:0:0:0:
488,321,13422,6,0,B|504:275|504:275|490:156,1,160,4|2,0:0|0:0,0:0:0:0:
413,121,14411,1,8,0:0:0:0:
341,172,14741,2,0,P|298:172|248:165,1,80,2|8,0:0|0:0,0:0:0:0:
199,104,15400,1,2,0:0:0:0:
110,100,15730,1,8,0:0:0:0:
48,163,16060,6,0,P|22:234|78:287,1,160,2|2,0:0|0:0,0:0:0:0:
164,294,17049,1,8,0:0:0:0:
249,274,17378,2,0,P|260:217|261:144,2,120,2|4|8,0:0|0:0|0:0,0:0:0:0:
237,361,18697,6,0,P|316:345|421:338,1,160,4|2,0:0|0:0,0:0:0:0:
479,364,19686,1,8,0:0:0:0:
504,280,20016,2,0,P|499:236|495:182,1,80,2|8,0:0|0:0,0:0:0:0:
426,145,20675,1,2,0:0:0:0:
337,144,21005,1,8,0:0:0:0:
281,211,21334,6,0,P|239:213|183:204,1,80,4|8,0:0|0:0,0:0:0:0:
132,153,21994,2,0,P|125:86|118:24,2,120,4|4|8,0:3|0:0|0:0,0:0:0:0:
73,218,23312,1,8,0:0:0:0:
93,303,23642,1,4,0:0:0:0:
175,333,23972,6,0,P|211:327|255:323,1,80,4|8,0:0|0:0,0:0:0:0:
324,271,24631,2,0,P|381:280|458:289,1,120,0|2,0:0|0:0,0:0:0:0:
457,200,25455,2,0,P|400:191|323:182,1,120,2|2,0:0|0:0,0:0:0:0:
257,218,26279,1,2,0:0:0:0:
190,160,26609,6,0,L|185:73,1,80,4|8,0:0|0:0,0:0:0:0:
97,69,27268,2,0,P|101:120|105:208,1,120,0|2,0:0|0:0,0:0:0:0:
28,234,28093,2,0,P|14:297|53:344,1,120,2|2,0:0|0:0,0:0:0:0:
131,352,28917,1,8,0:0:0:0:
209,311,29246,6,0,P|247:309|288:317,1,80,4|8,0:0|0:0,0:0:0:0:
367,356,29906,2,0,L|381:229,1,120,0|2,0:0|0:0,0:0:0:0:
292,226,30730,2,0,L|276:96,1,120,2|2,0:0|0:0,0:0:0:0:
346,52,31554,1,10,0:0:0:0:
415,106,31884,5,4,0:3:0:0:
493,66,32214,2,0,L|502:165,1,80,12|4,0:0|0:3,0:0:0:0:
503,277,33038,6,0,P|463:264|410:262,1,80,4|8,0:0|0:0,0:0:0:0:
354,314,33697,1,8,0:0:0:0:
286,257,34027,2,0,P|225:258|154:280,1,120,8|4,0:0|0:0,0:0:0:0:
95,322,34851,5,8,0:0:0:0:
20,275,35181,2,0,L|8:143,1,120,2|2,0:0|0:0,0:0:0:0:
55,80,36005,2,0,B|109:57|109:57|183:81,1,120,2|2,0:0|0:0,0:0:0:0:
237,128,36829,1,8,0:0:0:0:
320,100,37159,6,0,L|329:13,1,80,4|8,0:0|0:0,0:0:0:0:
416,12,37818,2,0,P|423:71|434:156,1,120,2|2,0:0|0:0,0:0:0:0:
495,190,38642,2,0,P|488:249|477:334,1,120,2|2,0:0|0:0,0:0:0:0:
406,356,39466,1,8,0:0:0:0:
335,303,39796,6,0,P|330:267|325:216,1,80,4|8,0:0|0:0,0:0:0:0:
240,200,40455,2,0,P|232:262|220:350,1,120,2|2,0:0|0:0,0:0:0:0:
144,355,41279,2,0,P|80:363|29:342,1,120,2|2,0:0|0:0,0:0:0:0:
7,257,42104,6,0,L|0:164,1,80,8|0,0:0|0:0,0:0:0:0:
88,164,42763,2,0,L|94:243,1,80,8|0,0:0|0:0,0:0:0:0:
181,252,43422,2,0,L|170:125,2,120,8|8|12,0:0|0:0|0:0,0:0:0:0:
251,304,44741,1,12,0:0:0:0:
320,249,45071,6,0,P|360:256|422:261,1,80,4|8,0:0|0:0,0:0:0:0:
479,224,45730,2,0,L|496:89,2,120,2|2|8,0:0|0:0|0:0,0:0:0:0:
404,177,47049,2,0,P|364:170|302:165,1,80,2|8,0:0|0:0,0:0:0:0:
246,206,47708,6,0,P|207:207|143:214,1,80,4|8,0:0|0:0,0:0:0:0:
109,278,48367,2,0,P|71:279|20:266,1,80,2|8,0:0|0:0,0:0:0:0:
1,186,49027,2,0,L|15:41,1,120,8|8,0:0|0:0,0:0:0:0:
232,52,50345,6,0,P|235:126|246:247,1,160,4|8,0:0|0:0,0:0:0:0:
373,218,51499,2,0,P|381:153|390:75,1,120,4|2,0:0|0:0,0:0:0:0:
341,23,52323,1,8,0:0:0:0:
207,138,52983,6,0,P|124:146|39:147,1,160,4|8,0:0|0:0,0:0:0:0:
52,279,54137,2,0,P|109:284|194:292,1,120,4|8,0:0|0:0,0:0:0:0:
236,230,54961,1,2,0:0:0:0:
313,271,55290,1,2,0:0:0:0:
381,216,55620,6,0,P|374:144|366:48,2,160,4|4|4,0:0|0:0|0:0,0:0:0:0:
438,282,57268,1,8,0:0:0:0:
380,348,57598,2,0,L|284:357,1,80,8|2,0:0|0:0,0:0:0:0:
242,289,58257,6,0,B|144:282,1,80,4|8,0:0|0:0,0:0:0:0:
103,216,58917,2,0,P|99:151|95:79,2,120,2|2|8,0:0|0:0|0:0,0:0:0:0:
188,194,60236,2,0,P|224:193|285:202,1,80,2|8,0:0|0:0,0:0:0:0:
336,253,60895,6,0,L|427:245,1,80,4|8,0:0|0:0,0:0:0:0:
479,186,61554,2,0,P|497:129|485:70,1,120,2|2,0:0|0:0,0:0:0:0:
354,90,62543,2,0,L|366:181,1,80,8|2,0:0|0:0,0:0:0:0:
326,249,63203,1,8,0:0:0:0:
245,283,63532,6,0,L|146:275,1,80,4|8,0:0|0:0,0:0:0:0:
114,204,64192,2,0,L|24:216,1,80,2|8,0:0|0:0,0:0:0:0:
15,128,64851,2,0,L|94:117,1,80,2|8,0:0|0:0,0:0:0:0:
179,140,65510,2,0,L|189:60,1,80,2|8,0:0|0:0,0:0:0:0:
277,60,66170,6,0,L|289:143,1,80,4|8,0:0|0:0,0:0:0:0:
337,212,66829,2,0,P|394:201|463:195,1,120,2|4,0:0|0:0,0:0:0:0:
512,262,67653,1,4,0:0:0:0:
472,340,67983,2,0,P|414:350|346:357,1,120,4|4,0:0|0:3,0:0:0:0:
275,315,68807,6,0,L|255:218,1,80,4|8,0:0|0:0,0:0:0:0:
171,225,69466,2,0,L|150:372,2,120,2|4|8,0:0|0:0|0:0,0:0:0:0:
122,151,70785,2,0,P|78:154|41:158,1,80,2|8,0:0|0:0,0:0:0:0:
33,70,71444,6,0,P|77:67|114:63,1,80,4|8,0:0|0:0,0:0:0:0:
193,98,72104,2,0,L|323:113,1,120,2|4,0:0|0:0,0:0:0:0:
430,169,73093,2,0,P|437:124|443:72,2,80,8|2|8,0:0|0:0|0:0,0:0:0:0:
364,227,74082,6,0,L|378:318,1,80,4|8,0:0|0:0,0:0:0:0:
289,322,74741,2,0,L|275:231,1,80,2|8,0:0|0:0,0:0:0:0:
188,245,75400,2,0,L|175:324,1,80,2|8,0:0|0:0,0:0:0:0:
87,328,76060,2,0,L|74:248,1,80,2|8,0:0|0:0,0:0:0:0:
23,176,76719,1,4,0:3:0:0:
96,126,77049,6,0,P|134:129|177:134,1,80,4|4,0:0|0:3,0:0:0:0:
242,190,77708,1,12,0:0:0:0:
307,131,78038,2,0,P|352:126|408:121,1,80,4|8,0:0|0:0,0:0:0:0:
452,181,78697,2,0,L|445:276,1,80,4|2,0:3|0:0,0:0:0:0:
484,340,79356,5,4,0:0:0:0:
312,297,80016,2,0,P|251:304|178:311,1,120,4|4,0:0|0:0,0:0:0:0:
182,222,80840,6,0,P|241:216|301:209,1,120,8|8,0:0|0:0,0:0:0:0:
336,128,81664,1,4,0:0:0:0:
278,61,81994,6,0,P|241:62|178:73,1,80,4|8,0:0|0:0,0:0:0:0:
126,119,82653,2,0,P|68:112|7:106,2,120,2|2|8,0:0|0:0|0:0,0:0:0:0:
191,178,83972,2,0,P|193:231|199:295,1,80,2|8,0:0|0:0,0:0:0:0:
269,305,84631,5,4,0:0:0:0:
315,135,85290,2,0,P|372:121|432:155,1,120,4|4,0:0|0:0,0:0:0:0:
482,214,86115,2,0,L|468:349,1,120,8|2,0:0|0:0,0:0:0:0:
386,363,86939,1,4,0:0:0:0:
313,313,87268,6,0,B|234:297|234:297|183:324,1,120,4|4,0:0|0:0,0:0:0:0:
