osu file format v9

[General]
AudioFilename: Yes!YuyuyuYuruyuri.mp3
AudioLeadIn: 2000
PreviewTime: 57781
Countdown: 0
SampleSet: Normal
StackLeniency: 0.7
Mode: 1
LetterboxInBreaks: 0

[Editor]
DistanceSpacing: 0.8
BeatDivisor: 4
GridSize: 32

[Metadata]
Title:Yes! YuYuYu*YuruYuri (TV Size)
Artist:Nanamori-chu * Goraku-bu
Creator:LKs
Version:Taiko
Source:Yuru Yuri
Tags:opening BakaHuang fanzhen0019

[Difficulty]
HPDrainRate:5
CircleSize:5
OverallDifficulty:5
ApproachRate:5
SliderMultiplier:1.4
SliderTickRate:1

[Events]
//Background and Video events
0,0,"BG2.jpg"
//Break Periods
//Storyboard Layer 0 (Background)
//Storyboard Layer 1 (Fail)
//Storyboard Layer 2 (Pass)
//Storyboard Layer 3 (Foreground)
//Storyboard Sound Samples
//Background Colour Transformations
3,100,163,162,255

[TimingPoints]
3180,329.67032967033,4,1,0,70,1,0
3344,-100,4,1,0,70,0,0
58564,-100,4,1,0,75,0,1
79663,-100,4,1,0,75,0,0

[Colours]
Combo1 : 0,0,255
Combo2 : 255,0,0
Combo3 : 0,0,255
Combo4 : 255,0,0

[HitObjects]
256,192,542,1,0
256,192,1201,1,0
256,192,1861,1,0
256,192,2438,1,0
256,192,2520,5,2
256,192,3180,5,4
255,191,3509,5,2
255,191,3592,5,0
256,191,3674,1,0
256,191,3839,1,0
256,191,3921,1,0
256,192,4004,1,0
256,192,4086,1,0
256,192,4169,5,2
255,192,4333,5,0
256,192,4416,1,0
256,192,4498,1,0
255,192,4663,1,0
255,192,4745,1,0
255,192,4828,5,2
255,192,4993,5,0
255,191,5158,1,0
255,191,5322,5,6
256,191,5487,1,6
256,191,5652,1,6
256,191,5817,1,6
256,192,5982,5,0
256,192,6064,1,0
256,192,6147,1,0
256,192,6311,1,0
256,192,6476,1,0
255,192,6641,1,0
255,192,6723,1,0
255,192,6806,5,2
255,192,6971,5,0
255,191,7136,1,0
255,191,7300,1,0
255,191,7383,1,0
255,191,7465,5,2
255,192,7630,5,0
255,192,7795,5,2
255,192,7960,5,0
256,192,8125,5,2
256,192,8289,5,0
256,192,8454,5,6
256,191,8784,5,0
256,191,8866,1,0
257,191,8949,1,0
256,191,9114,1,0
256,191,9196,1,0
256,191,9278,1,0
256,191,9361,1,0
256,191,9443,5,2
255,191,9608,5,0
255,192,9773,1,0
255,192,9938,1,0
255,191,10020,1,0
255,191,10103,5,2
255,191,10267,5,0
256,191,10432,1,0
256,191,10597,5,6
256,191,10762,1,6
256,192,10927,1,6
256,192,11092,1,6
255,192,11421,5,0
256,192,11751,5,6
255,191,12081,5,0
255,191,12245,5,6
256,191,12575,1,2
256,191,12740,1,2
256,191,12905,1,2
256,191,13069,1,2
256,191,13234,5,0
256,191,13317,1,0
256,191,13399,5,2
256,191,13564,5,0
256,192,13729,5,6
256,192,13894,5,0
255,192,14059,1,0
255,192,14223,1,0
255,192,14388,5,2
255,192,14553,5,0
256,192,14718,1,0
256,192,14883,1,0
256,192,15048,5,2
256,191,15212,1,2
256,191,15377,5,0
256,191,15542,5,2
255,191,15707,5,0
255,191,15872,1,0
255,191,16037,5,2
255,191,16119,1,2
255,191,16201,5,0
255,192,16366,5,2
255,192,16531,5,0
256,192,16696,1,0
256,192,16861,1,0
256,192,17026,5,2
256,192,17190,5,0
256,191,17355,1,0
256,191,17520,1,0
255,191,17685,5,2
255,192,17850,5,0
255,192,18015,1,0
255,192,18180,5,2
255,191,18509,5,0
256,192,18674,5,2
256,192,18756,1,2
256,192,18839,5,0
256,192,19004,5,6
256,192,19169,5,0
255,192,19334,1,0
255,192,19498,1,0
255,192,19663,5,2
255,192,19828,5,0
256,192,19993,1,0
256,192,20158,1,0
256,192,20323,5,2
256,191,20487,1,2
256,191,20652,5,0
256,191,20817,5,2
255,191,20982,5,0
255,191,21147,5,2
255,191,21312,1,2
255,191,21394,1,2
255,191,21476,5,0
255,192,21641,5,2
255,192,21806,5,0
256,192,21971,1,0
256,192,22136,5,2
256,192,22301,1,6
256,192,22465,5,0
256,191,22630,1,0
128,160,22795,2,0,B|416:160,1,280
257,192,23619,5,2
255,192,23949,1,6
255,192,24278,1,2
255,192,24443,1,2
256,192,24608,5,0
256,192,24773,5,2
256,192,24938,5,0
256,192,25103,1,0
255,192,25267,1,0
255,192,25432,5,2
255,191,25762,1,2
256,191,26092,1,2
256,191,26256,5,0
256,191,26339,1,0
256,191,26421,1,0
256,191,26504,1,0
256,192,26586,5,2
255,192,26916,1,2
255,192,27081,1,2
256,192,27246,5,0
256,192,27411,5,2
256,192,27576,5,0
256,192,27741,1,0
255,192,27905,1,0
255,192,28070,5,2
255,191,28400,1,2
256,191,28730,1,2
256,191,28894,5,0
256,191,29059,1,0
256,191,29223,1,0
256,191,29388,5,2
256,191,29471,5,0
256,192,29553,5,2
256,192,29718,1,2
256,192,29883,5,0
256,192,30048,1,0
256,192,30213,1,0
256,192,30378,1,0
255,192,30542,1,0
255,192,30707,5,2
255,191,31037,1,2
256,191,31367,1,2
256,191,31531,1,2
256,191,31696,5,0
256,191,31860,1,0
256,191,32025,1,0
256,191,32108,1,0
256,192,32190,1,0
256,192,32355,5,2
255,191,32520,5,4
255,192,32685,5,2
256,192,32850,5,0
256,192,33015,5,2
255,191,33180,5,0
255,192,33344,5,6
255,192,33674,1,6
255,192,34004,1,6
255,192,34333,1,6
255,192,34498,1,2
256,192,34663,5,0
256,192,34745,1,0
256,192,34828,1,0
255,191,34993,1,0
256,192,35158,5,2
256,192,35322,5,0
256,192,35487,5,2
256,192,35652,5,0
256,191,35817,1,0
255,191,35982,5,2
255,191,36311,1,2
255,192,36641,1,2
256,192,36806,5,0
256,192,36971,5,2
256,192,37136,1,2
256,191,37300,5,0
256,191,37465,1,4
256,192,37795,5,2
256,192,37959,5,0
256,192,38124,5,2
256,192,38289,5,0
256,191,38454,1,0
255,191,38619,5,2
255,191,38948,1,2
255,192,39278,1,2
256,192,39443,5,0
256,192,39608,5,2
256,192,39773,1,2
256,191,39937,5,0
256,191,40020,1,0
256,191,40102,1,0
256,192,40432,5,2
256,192,40596,5,0
256,192,40761,5,2
256,192,40926,5,0
256,191,41091,1,0
255,191,41256,5,2
255,191,41586,1,2
255,192,41915,1,2
256,192,42080,5,0
256,192,42245,5,2
255,191,42328,5,0
256,192,42410,5,2
256,191,42574,5,0
256,191,42657,1,0
256,191,42739,1,0
256,191,42905,5,2
255,191,43070,5,4
255,191,43234,5,2
255,191,43399,5,0
255,191,43563,5,2
255,191,43729,5,4
255,191,43893,5,6
255,192,44223,5,0
256,192,44388,1,0
256,192,44553,1,0
256,192,44718,1,0
256,192,44800,1,0
256,192,44883,1,0
256,192,44965,1,0
256,192,45048,5,2
256,192,45130,1,2
256,192,45213,1,2
256,192,45295,1,2
256,191,45377,5,0
256,191,45542,5,2
255,192,45872,1,2
255,191,46037,5,0
255,192,46201,5,2
255,192,46366,5,0
256,192,46531,5,2
255,191,46861,1,2
256,160,47190,1,2
256,191,47355,5,0
256,191,47520,5,2
256,191,47685,1,2
256,192,47850,5,0
256,192,48015,1,0
256,192,48180,5,2
255,192,48509,5,0
255,192,48674,1,0
255,191,48839,5,2
255,191,49004,1,2
255,191,49169,5,0
256,191,49333,1,0
256,191,49416,1,0
256,191,49498,5,2
256,191,49581,1,2
256,192,49663,5,0
255,191,49828,1,2
255,192,50158,1,0
255,192,50322,1,0
256,192,50487,5,2
256,192,50652,5,0
256,192,50817,1,0
256,192,51147,1,0
256,192,51311,1,0
256,192,51641,1,0
256,191,51806,5,2
255,191,52136,1,2
256,191,52465,1,2
255,192,52630,1,2
256,192,52795,5,0
256,192,52877,1,0
256,192,52960,1,0
256,191,53125,5,2
256,192,53289,5,0
256,192,53454,5,2
256,192,53784,5,0
256,192,53949,1,0
255,191,54114,5,2
256,192,54278,1,2
256,192,54443,5,0
255,192,54773,1,0
255,192,54938,1,0
255,192,55020,1,0
255,192,55103,1,0
256,192,55267,5,2
256,192,55350,1,2
256,191,55432,1,2
256,191,55597,5,0
256,191,55927,5,6
255,191,56147,1,6
255,191,56366,1,6
256,191,56586,5,4
255,191,56806,1,4
255,191,57025,1,0
255,192,57136,1,0
255,192,57245,1,0
256,192,57905,1,0
256,191,58234,5,2
256,192,58564,5,4
255,192,58729,5,2
255,192,58894,1,2
255,192,59059,5,0
255,192,59141,1,0
255,192,59223,1,0
255,192,59388,5,2
256,192,59553,5,0
255,191,59718,5,2
256,191,59883,5,0
256,191,59965,1,0
256,191,60048,1,0
256,191,60212,5,2
256,191,60295,5,0
256,191,60377,1,0
256,191,60460,1,0
256,192,60542,1,0
256,192,60707,1,0
255,192,60872,5,2
255,192,61037,5,0
255,192,61201,1,0
255,191,61366,5,2
255,191,61531,5,0
255,191,61696,5,2
256,191,61778,5,0
256,191,61861,1,0
256,191,62026,1,0
256,191,62190,5,2
256,191,62355,5,0
256,192,62685,1,0
256,192,62850,5,2
256,192,63015,5,0
256,192,63097,5,2
255,192,63180,5,0
255,192,63344,1,0
255,192,63509,5,2
256,192,63674,5,0
256,192,63839,1,4
255,192,64169,1,0
255,191,64333,5,2
255,191,64498,1,2
256,191,64663,1,2
256,191,64828,5,0
256,191,64993,1,0
256,191,65075,1,0
256,191,65158,1,0
255,191,65487,5,2
255,191,65652,1,2
255,192,65817,5,0
256,192,65982,5,2
255,192,66147,5,0
255,192,66311,1,0
255,192,66394,1,0
256,192,66476,5,2
256,192,66641,5,0
256,192,66806,1,0
256,192,66971,5,2
256,191,67136,1,2
256,191,67300,1,2
256,191,67465,5,0
255,191,67630,5,6
255,191,67960,1,6
255,191,68289,1,6
255,191,68619,1,6
255,192,68784,5,0
255,192,68866,1,0
255,192,68949,1,0
255,192,69031,1,0
256,192,69114,1,0
255,192,69279,5,2
255,192,69444,1,2
255,192,69609,5,0
255,192,69691,1,0
255,192,69773,5,2
255,192,69938,1,2
256,192,70103,5,0
255,191,70268,5,2
256,191,70433,5,0
256,191,70515,1,0
256,191,70598,1,0
256,191,70762,5,2
256,191,70927,5,0
256,191,71010,1,0
256,192,71092,1,0
256,192,71257,1,0
255,192,71422,5,2
255,192,71587,5,0
255,192,71751,1,0
255,191,71916,5,2
255,191,72081,5,0
255,191,72246,5,2
256,191,72328,5,0
256,191,72411,1,0
256,191,72576,1,0
256,191,72740,5,2
256,191,72905,5,0
256,192,73235,1,0
256,192,73400,5,2
256,192,73565,5,0
256,192,73729,5,2
255,192,73894,5,0
255,192,74059,5,2
256,192,74224,5,0
256,192,74389,1,4
255,192,74719,5,2
255,191,74883,5,0
255,191,75048,1,0
256,191,75213,5,2
256,191,75378,5,0
256,191,75543,1,0
256,191,75625,1,0
256,191,75708,1,0
255,191,76037,5,2
255,191,76202,5,0
255,192,76366,1,0
256,192,76532,5,2
255,192,76697,5,0
255,192,76861,1,0
255,192,76944,1,0
256,192,77026,5,2
256,192,77191,5,0
256,192,77356,5,6
256,192,77685,1,2
256,192,77850,5,0
256,192,78015,5,6
255,191,78344,5,4
256,191,78674,1,0
256,192,78784,1,0
256,192,78894,1,0
255,192,79004,5,2
255,192,79114,1,2
255,192,79223,1,2
256,191,79333,5,0
256,192,79443,1,0
256,192,79553,1,0
255,192,79663,1,0
255,191,80322,5,2
256,191,80652,5,0
256,191,80817,5,2
256,191,81147,1,6
256,191,81311,1,6
256,192,81476,1,6
256,192,81641,1,6
256,192,81806,5,0
255,192,81888,1,0
255,192,81971,5,2
256,192,82300,5,4
255,191,82629,5,2
255,191,82712,5,0
256,191,82794,1,0
256,191,82959,1,0
256,191,83041,1,0
256,192,83124,1,0
256,192,83206,1,0
256,192,83289,5,2
255,192,83453,5,0
256,192,83536,1,0
256,192,83618,1,0
255,192,83783,1,0
255,192,83865,1,0
255,192,83948,5,2
255,192,84113,5,0
255,191,84278,1,0
255,191,84442,5,6
256,191,84607,1,6
256,191,84772,1,6
256,191,84937,1,6
256,192,85103,5,0
256,192,85185,1,0
256,192,85267,1,0
256,192,85432,5,2
256,192,85597,1,6
255,192,85762,5,0
255,191,85927,1,0
255,191,86092,5,6
256,191,86421,5,0
256,191,86586,1,0
256,191,86751,1,0
256,191,86916,1,0
256,191,87081,1,0
256,191,87163,1,0
256,191,87245,5,2
255,191,87410,5,0
256,191,87575,5,6
256,191,87905,5,4
256,191,88070,5,6
