osu file format v9

[General]
AudioFilename: Yes!YuyuyuYuruyuri.mp3
AudioLeadIn: 2000
PreviewTime: 57781
Countdown: 0
SampleSet: Normal
StackLeniency: 0.7
Mode: 0
LetterboxInBreaks: 0

[Editor]
DistanceSpacing: 1.1
BeatDivisor: 2
GridSize: 32

[Metadata]
Title:Yes! YuYuYu*YuruYuri (TV Size)
Artist:Nanamori-chu * Goraku-bu
Creator:LKs
Version:Normal
Source:Yuru Yuri
Tags:opening BakaHuang fanzhen0019

[Difficulty]
HPDrainRate:2
CircleSize:3
OverallDifficulty:2
ApproachRate:4
SliderMultiplier:0.899999999999999
SliderTickRate:1

[Events]
//Background and Video events
0,0,"BG2.jpg"
//Break Periods
//Storyboard Layer 0 (Background)
//Storyboard Layer 1 (Fail)
//Storyboard Layer 2 (Pass)
//Storyboard Layer 3 (Foreground)
//Storyboard Sound Samples
//Background Colour Transformations
3,100,163,162,255

[TimingPoints]
3180,329.67032967033,4,1,1,47,1,0
13729,-100,4,1,0,47,0,0
14059,-100,4,1,1,47,0,0
35487,-100,4,1,2,47,0,0
37465,-100,4,1,1,47,0,0
37795,-100,4,1,2,47,0,0
40103,-100,4,1,1,47,0,0
40762,-100,4,1,2,47,0,0
45377,-100,4,1,1,47,0,0
53289,-100,4,1,1,36,0,0
53454,-100,4,1,1,47,0,0
58564,-100,4,1,1,50,0,1
79663,-100,4,1,1,47,0,0
84938,-100,4,1,1,41,0,0

[Colours]
Combo1 : 249,174,179
Combo2 : 255,98,98
Combo3 : 240,226,98
Combo4 : 125,73,146

[HitObjects]
256,192,542,12,8,2520
56,80,3180,6,0,B|112:64|192:72,2,135,4|0|0
24,176,4498,2,0,B|8:288|112:312,1,180
304,336,5817,6,0,B|288:240,1,89.9999999999999,4|0
376,200,6476,2,0,B|390:288,1,89.9999999999999
472,344,7136,2,0,B|528:256|464:168,1,180
272,168,8454,5,0
328,304,8949,2,0,B|248:352|136:312,1,180
48,208,10103,2,0,B|152:192,1,89.9999999999999
256,40,11092,5,4
62,75,11751,2,0,B|50:144|48:210,1,135,4|4
40,306,12575,2,0,B|104:314,3,45
172,357,13399,1,4
264,320,13729,5,0
464,344,14388,1,8
384,160,15048,1,0
264,320,15707,2,0,B|160:304,1,89.9999999999999,8|8
76,288,16366,5,0
48,88,17026,1,8
248,60,17685,2,0,B|312:96|384:72,2,135,8|4|8
176,128,19004,5,0
296,288,19663,1,8
440,152,20322,1,0
296,288,20982,2,0,B|304:184,1,89.9999999999999,8|8
248,120,21641,6,0,B|192:112,1,45,4|0
64,164,22300,2,0,B|48:236|80:300,1,135,4|4
256,192,22960,12,4,24278
440,64,24938,6,0,B|445:133|448:200,1,135
376,264,25762,2,0,B|310:261|232:256,1,135
184,176,26586,1,0
128,96,26916,2,0,B|136:48,1,45,4|0
24,152,27575,6,0,B|0:232|64:272,1,135
152,312,28399,2,0,B|296:304,1,135
488,296,29553,6,0,B|480:352,1,45,4|0
444,196,30212,2,0,B|372:164|312:208,1,135
300,308,31037,2,0,B|243:350|171:318,1,135
84,272,31861,1,0
24,192,32190,6,0,B|32:96,1,89.9999999999999,0|4
120,56,32850,2,0,B|188:24|248:64,1,135,0|4
336,112,33674,2,0,B|440:96,2,89.9999999999999,4|4|4
216,200,34828,6,0,B|188:264|200:320|275:347,1,180,4|2
376,252,35982,2,0,B|280:260,1,89.9999999999999,0|2
240,120,36806,2,0,B|144:112,1,89.9999999999999,2|0
56,152,37465,6,0,B|96:248|208:216,1,180,4|2
344,176,38619,2,0,B|336:80,1,89.9999999999999,0|2
480,40,39443,2,0,B|520:136|464:216,1,180,2|4
336,360,40762,6,0,B|272:352|192:336,1,135,2|0
104,320,41586,1,2
104,168,42081,2,0,B|147:162|200:160,1,89.9999999999999,2|0
264,88,42740,5,0
462,67,43399,1,0
500,312,44223,2,0,B|436:315|354:318,1,135
283,258,45048,1,0
208,324,45377,6,0,B|104:324|51:232|108:128,1,270,4|0
156,48,46696,2,0,B|284:96|300:0|428:48,1,270
504,96,48015,5,4
444,284,48674,1,0
312,136,49333,2,0,B|168:128,2,135
407,162,50652,6,0,B|441:272|350:314,1,180,4|0
200,328,51806,2,0,B|64:320|52:186,1,225
52,92,52960,1,0
136,40,53289,5,4
304,152,53949,2,0,B|328:88|296:16,2,135
392,200,55267,2,0,B|504:184,1,89.9999999999999
256,192,55927,12,4,57245
102,336,57905,6,0,B|192:344,1,89.9999999999999
288,312,58564,2,0,B|336:224|272:144,1,180,4|8
144,224,59718,2,0,B|80:229|8:232,1,135,0|8
24,136,60542,6,0,B|8:40,1,89.9999999999999,0|8
104,80,61201,2,0,B|192:120|288:80,1,180,0|8
416,32,62355,2,0,B|456:92|432:160,1,135,0|8
328,328,63509,1,8
424,352,63839,6,0,B|435:303|440:256|440:256,1,89.9999999999999,4|8
384,184,64498,2,0,B|338:172|288:168|288:168,1,89.9999999999999,0|8
208,216,65158,2,0,B|120:200,3,89.9999999999999,0|8|0|8
32,240,66476,6,0,B|8:352|112:376,1,180,0|8
232,288,67630,1,8
328,312,67960,1,8
424,280,68289,2,0,B|464:224|440:144,1,135,8|0
384,64,69114,6,0,B|296:32|200:64,1,180,4|8
72,112,70267,1,0
88,256,70762,2,0,B|176:288|272:256,1,180,8|8
356,219,71751,6,0,B|423:295|372:387,1,180,0|8
488,288,72905,2,0,B|480:136,1,135,0|8
439,63,73729,1,8
342,40,74059,1,8
249,71,74388,5,0
112,208,75048,1,8
24,32,75707,1,0
112,208,76366,2,0,B|120:304,1,89.9999999999999,8|0
206,344,77026,6,0,B|286:296|382:344,1,180,0|8
464,296,78015,2,0,B|480:200,1,89.9999999999999,8|4
304,112,79004,1,0
184,264,79663,6,0,B|96:304|8:272,1,180,0|4
72,32,81147,2,0,B|80:96,3,45,8|8|8|8
168,112,81971,1,0
248,56,82300,6,0,B|308:24|384:48,1,135,4|0
464,96,83125,1,0
512,184,83454,2,0,B|424:264|296:208,1,225
212,168,84608,1,0
128,224,84938,6,0,B|104:336|208:368,1,180,4|4
352,360,86092,2,0,B|336:264,1,89.9999999999999,4|0
480,296,86916,2,0,B|487:206,1,89.9999999999999,0|4
480,104,87575,2,0,B|412:120|344:120|344:120,1,135,4|4
