osu file format v9

[General]
AudioFilename: Yes!YuyuyuYuruyuri.mp3
AudioLeadIn: 2000
PreviewTime: 57781
Countdown: 0
SampleSet: Normal
StackLeniency: 0.7
Mode: 0
LetterboxInBreaks: 0

[Editor]
DistanceSpacing: 0.8
BeatDivisor: 2
GridSize: 16

[Metadata]
Title:Yes! YuYuYu*YuruYuri (TV Size)
Artist:Nanamori-chu * Goraku-bu
Creator:LKs
Version:Insane
Source:Yuru Yuri
Tags:opening BakaHuang fanzhen0019

[Difficulty]
HPDrainRate:7
CircleSize:4
OverallDifficulty:8
ApproachRate:9
SliderMultiplier:2
SliderTickRate:1

[Events]
//Background and Video events
0,0,"BG2.jpg"
//Break Periods
//Storyboard Layer 0 (Background)
//Storyboard Layer 1 (Fail)
//Storyboard Layer 2 (Pass)
//Storyboard Layer 3 (Foreground)
//Storyboard Sound Samples
//Background Colour Transformations
3,100,163,162,255

[TimingPoints]
3180,329.67032967033,4,1,1,43,1,0
11092,-133.333333333333,4,1,1,43,0,0
11751,-100,4,1,1,43,0,0
13729,-100,4,1,0,56,0,0
13894,-100,4,1,1,45,0,0
15872,-100,4,1,2,45,0,0
16037,-100,4,1,1,45,0,0
16201,-100,4,1,2,45,0,0
16366,-100,4,1,1,45,0,0
21147,-100,4,1,2,45,0,0
21311,-100,4,1,1,45,0,0
21476,-100,4,1,2,45,0,0
21641,-100,4,1,1,45,0,0
22795,-133.333333333333,4,1,0,45,0,0
23949,-80,4,1,0,45,0,0
24114,-80,4,2,0,45,0,0
24278,-100,4,1,0,42,0,0
35158,-100,4,1,2,45,0,0
37465,-100,4,1,1,45,0,0
37630,-100,4,1,2,45,0,0
40103,-100,4,1,1,45,0,0
40267,-100,4,1,2,45,0,0
43070,-100,4,1,1,45,0,0
50652,-133.333333333333,4,1,1,45,0,0
55927,-100,4,1,1,45,0,0
57245,-133.333333333333,4,1,2,45,0,0
57905,-133.333333333333,4,1,1,45,0,0
58564,-100,4,1,1,50,0,1
59059,-100,4,1,2,50,0,1
59388,-100,4,1,1,50,0,1
59883,-100,4,1,2,50,0,1
60212,-100,4,1,1,50,0,1
60377,-100,4,1,2,50,0,1
60872,-100,4,1,1,50,0,1
61696,-100,4,1,2,50,0,1
62026,-100,4,1,1,50,0,1
62355,-100,4,1,2,50,0,1
62850,-100,4,1,1,50,0,1
63015,-100,4,1,2,50,0,1
63509,-100,4,1,1,50,0,1
64498,-100,4,1,2,50,0,1
64828,-100,4,1,1,50,0,1
65817,-100,4,1,2,50,0,1
66147,-100,4,1,1,50,0,1
68454,-100,4,1,2,50,0,1
69114,-100,4,1,1,50,0,1
69608,-100,4,1,2,50,0,1
70103,-100,4,1,1,50,0,1
70267,-100,4,1,2,50,0,1
70762,-100,4,1,1,50,0,1
71092,-100,4,1,2,50,0,1
71256,-100,4,1,1,50,0,1
72245,-100,4,1,2,50,0,1
72410,-100,4,1,1,50,0,1
72905,-100,4,1,2,50,0,1
73399,-100,4,1,1,50,0,1
73564,-100,4,1,2,50,0,1
73729,-100,4,1,1,50,0,1
73894,-100,4,1,2,50,0,1
74059,-100,4,1,1,50,0,1
78344,-100,4,1,1,33,0,1
78509,-100,4,1,1,48,0,1
79663,-100,4,1,1,48,0,0
87575,-66.6666666666667,4,1,0,48,0,0
87905,-66.6666666666667,4,1,1,40,0,0
88070,-66.6666666666667,4,1,1,43,0,0

[Colours]
Combo1 : 249,174,179
Combo2 : 255,98,98
Combo3 : 240,226,98
Combo4 : 125,73,146

[HitObjects]
256,192,542,12,8,2520
193,167,3180,6,0,B|188:112|256:72|321:112|320:168,1,200,4|0
402,225,3674,1,0
324,292,3839,1,0
293,312,3921,1,0
256,320,4004,1,0
219,312,4086,1,0
188,292,4169,1,0
68,197,4333,5,0
88,228,4415,1,0
96,265,4498,1,0
88,302,4580,1,0
68,333,4663,1,0
4,264,4828,1,0
33,174,4993,1,0
102,112,5158,1,0
184,160,5322,5,4
332,80,5487,1,4
464,192,5652,1,4
408,356,5817,6,0,B|416:252,1,100,4|0
415,256,6064,1,0
415,256,6147,1,0
324,220,6311,1,0
232,248,6476,2,0,B|144:312|40:264,1,200
75,177,6971,1,0
162,138,7136,6,0,B|145:87|94:63,1,100
256,104,7465,2,0,B|256:0,1,100
350,138,7795,2,0,B|367:87|418:63,3,100
496,144,8454,6,0,B|536:204|528:288|456:320,1,200,4|0
376,352,8949,1,0
284,356,9114,1,0
292,320,9196,1,0
300,288,9278,1,0
308,252,9360,1,0
316,216,9443,1,0
400,168,9608,6,0,B|376:96|304:72|236:116,1,200
176,280,10103,2,0,B|280:264,1,100
376,320,10432,1,0
248,360,10597,5,4
140,284,10762,1,4
84,164,10927,1,4
80,32,11092,2,0,B|196:40|196:40,1,112.499996647239,4|0
228,64,11421,1,0
268,88,11504,2,0,B|372:64,1,74.9999977648259
384,84,11751,6,0,B|408:140|372:180,1,100,4|0
296,228,12081,1,0
208,252,12245,2,0,B|8:232,1,200,4|8
44,320,12740,1,8
92,164,12905,1,8
156,316,13070,1,0
208,144,13234,1,0
264,312,13399,1,4
322,124,13564,1,0
396,188,13729,6,0,B|508:172,1,100,4|0
494,173,13976,1,0
494,173,14059,1,8
388,292,14223,1,0
292,200,14388,6,0,B|268:156|284:100,1,100
172,28,14718,2,0,B|196:72|180:128,1,100,8|0
64,208,15048,6,0,B|48:261|72:305,1,100,0|0
176,376,15377,2,0,B|229:391|273:367,1,100,8|0
480,256,15707,6,0,B|472:360,1,100,0|2
328,200,16037,2,0,B|344:304,1,100,8|2
488,152,16366,5,0
308,96,16531,1,0
496,40,16696,2,0,B|376:72,1,100,8|0
216,120,17026,6,0,B|160:128|120:104,1,100
16,64,17355,2,0,B|50:108|50:155,1,100,8|0
64,264,17685,2,0,B|85:211|125:188,1,100,0|8
232,136,18015,1,8
348,116,18180,2,0,B|328:232|436:280,1,200,4|8
504,192,18674,5,8
504,192,18756,1,8
504,192,18839,1,8
504,192,18921,1,8
504,192,19004,2,0,B|400:184,1,100,0|2
304,328,19333,2,0,B|403:335,1,100,8|2
336,216,19663,6,0,B|232:208,1,100,0|2
136,352,19993,2,0,B|235:359,1,100,8|2
168,240,20322,5,0
56,264,20487,1,2
0,164,20652,1,8
72,76,20817,1,2
173,129,20982,5,0
168,240,21147,1,2
334,183,21311,1,8
314,64,21476,1,2
465,183,21641,6,0,B|458:281,2,100,4|8|8
512,76,22136,1,0
408,128,22300,5,0
331,49,22465,1,8
263,136,22630,1,8
200,64,22795,2,0,B|108:24|35:85|18:82|18:82|26:98|-12:189|58:264,1,374.999988824129,4|0
64,272,23949,38,0,B|128:288|194:261,1,124.999998137355,0|0
280,320,24278,5,4
280,320,24443,1,0
384,352,24608,2,0,B|408:304|384:256,1,100
187,167,24938,2,0,B|163:215|187:263,1,100
280,320,25267,1,0
280,320,25432,5,0
96,376,25762,1,0
8,208,26092,1,0
32,112,26256,2,0,B|72:72|128:80,1,100
176,232,26586,2,0,B|136:272|80:264,1,100
200,140,26916,5,4
200,140,27081,1,0
400,116,27245,2,0,B|360:212,1,100
256,224,27575,2,0,B|312:312,1,100
400,116,27905,1,0
300,127,28070,5,0
496,344,28399,2,0,B|400:392|304:336,1,200
240,240,28894,2,0,B|144:184|48:232,1,200
49,231,29388,1,0
240,240,29553,5,4
224,96,29718,1,0
320,44,29883,2,0,B|348:92|320:140,1,100
144,292,30212,2,0,B|116:244|144:196,1,100
224,96,30542,1,0
240,240,30707,6,0,B|284:296|368:296|416:240,2,200
144,292,31531,2,0,B|40:284,1,100
128,184,31861,2,0,B|24:176,1,100
12,72,32190,5,0
296,176,32520,1,4
394,199,32685,1,0
480,144,32850,2,0,B|520:220|480:296,1,150
483,288,33179,1,0
372,352,33344,5,4
160,296,33674,1,4
216,84,34004,1,4
428,140,34333,5,0
324,272,34498,1,0
160,296,34663,1,0
160,296,34745,1,0
160,296,34828,1,4
160,296,34993,1,0
56,164,35158,2,0,B|40:216|68:260,1,100,2|0
256,296,35487,2,0,B|272:244|244:200,1,100,2|0
154,169,35817,1,0
56,164,35982,5,0
224,32,36311,1,0
408,144,36641,1,0
504,32,36806,6,0,B|488:136,1,100,0|0
328,152,37136,2,0,B|344:256,1,100
416,320,37465,5,4
416,320,37630,1,0
328,360,37795,2,0,B|280:384|232:360,1,100,2|0
136,336,38125,2,0,B|88:312|40:336,2,100,2|0|0
176,248,38619,6,0,B|272:284|376:248,1,200
456,208,39114,1,0
472,109,39278,2,0,B|456:213,1,100
360,64,39608,2,0,B|376:168,1,100,0|0
296,208,39938,1,0
268,192,40020,1,0
240,176,40103,6,0,B|144:140|40:176,1,200,4|2
0,268,40597,1,0
64,348,40762,2,0,B|176:340,1,100,2|0
256,296,41092,1,0
348,340,41256,2,0,B|418:314|435:237|384:172,1,200
332,248,41751,5,2
487,300,41916,1,0
496,136,42081,2,0,B|504:80,2,50,2|0|0
400,88,42410,1,2
370,104,42493,1,0
336,108,42575,1,0
304,96,42658,1,0
277,77,42740,5,0
170,32,42905,1,0
104,128,43070,2,0,B|208:120,1,100,4|0
248,208,43399,5,0
248,208,43564,1,0
67,212,43729,2,0,B|169:231,1,100,4|0
416,336,44223,5,0
496,256,44388,1,0
416,176,44553,1,0
336,256,44718,1,0
224,288,44883,1,0
224,288,44965,1,0
224,288,45048,1,0
112,272,45212,1,0
88,264,45295,1,0
64,256,45377,6,0,B|-24:200|16:72,1,200,4|2
14,78,45872,1,0
109,133,46037,2,0,B|151:162|206:152,1,100,2|0
384,183,46366,2,0,B|350:221|289:233,1,100,2|0
176,272,46696,5,0
204,152,46861,1,0
298,231,47026,1,2
176,271,47190,5,0
81,185,47355,1,2
108,60,47520,1,0
230,20,47685,1,2
325,106,47850,1,0
298,231,48015,6,0,B|384:304|488:256,3,200,4|2|0|2
271,103,49333,1,0
141,87,49498,1,0
86,205,49663,1,0
181,294,49828,1,0
408,360,50158,1,2
496,320,50322,1,2
480,224,50487,1,0
472,196,50570,1,0
464,168,50652,6,0,B|388:128|320:176,1,149.999995529652,4|2
256,216,51147,2,0,B|180:256|112:208,1,149.999995529652
52,168,51641,1,2
12,100,51806,6,0,B|20:260,1,149.999995529652
64,312,52300,1,2
128,352,52465,2,0,B|204:392|272:344,1,149.999995529652,0|2
328,296,52960,1,0
364,228,53125,6,0,B|400:152|344:80,1,149.999995529652
288,136,53619,1,2
409,34,53784,2,0,B|460:100|457:181,1,149.999995529652
488,360,54443,6,0,B|336:336,1,149.999995529652,0|0
256,320,54938,1,0
248,288,55020,1,0
240,256,55103,1,0
220,176,55267,1,0
200,96,55432,1,0
352,136,55597,5,0
372,56,55762,1,0
472,216,55927,6,0,B|425:266|347:241,1,133.333333333333,4|0
256,236,56366,1,0
39,252,56586,2,0,B|86:202|164:227,1,133.333333333333,4|0
256,236,57026,1,0
256,236,57136,1,0
256,236,57245,2,0,B|256:320,1,74.9999977648259,2|2
256,152,57575,2,0,B|256:72,1,74.9999977648259,0|2
384,32,57905,5,0
488,120,58070,1,0
497,155,58152,1,0
498,191,58234,1,0
490,227,58317,1,0
471,257,58399,1,0
442,280,58481,1,0
406,294,58564,6,0,B|328:264|260:304,1,150,4|0
232,324,58894,1,8
128,284,59059,2,0,B|92:244|104:192,1,100,2|2
252,120,59388,2,0,B|288:160|276:212,2,100,0|8|0
232,96,59800,1,0
204,80,59883,6,0,B|304:44,1,100,2|0
464,124,60212,2,0,B|412:140|372:104,1,100,8|2
436,48,60542,5,0
492,200,60707,1,2
298,46,60872,1,8
354,198,61037,1,0
176,64,61201,6,0,B|88:40|32:92,1,150
12,116,61531,1,8
20,236,61696,2,0,B|72:256|116:224,1,100,2|2
216,284,62026,2,0,B|260:252|312:272,1,100,0|8
420,304,62355,2,0,B|458:214|445:106,1,200,2|2
362,33,62850,5,8
256,72,63015,1,0
256,72,63097,1,0
256,72,63180,2,0,B|260:176,1,100,0|2
200,328,63509,2,0,B|196:224,1,100,8|0
163,85,63839,6,0,B|184:153|254:182|326:136,1,200,4|8
416,76,64333,1,0
416,76,64416,1,0
416,76,64498,2,0,B|520:72,1,100,2|2
480,200,64828,2,0,B|380:203,1,100,8|0
256,252,65158,5,0
352,328,65322,1,0
380,203,65487,1,8
256,252,65652,5,0
236,280,65734,1,0
216,308,65817,2,0,B|168:328|120:308,1,100,2|2
56,192,66147,2,0,B|104:172|152:192,1,100,8|0
32,284,66476,6,0,B|-8:184|40:88,1,200,0|8
96,16,66971,1,0
180,48,67136,2,0,B|292:32,1,100,8|8
344,168,67465,2,0,B|245:182,1,100,0|8
448,80,67960,1,8
436,192,68125,1,0
424,304,68289,1,8
336,352,68454,6,0,B|280:344,3,50,2|0|0|0
208,256,68784,2,0,B|264:264,3,50,2|0|0|0
144,320,69114,5,4
144,320,69278,1,0
0,224,69443,2,0,B|0:280|56:296,1,100,8|2
240,328,69773,2,0,B|296:264|256:184,1,150,2|0
240,152,70103,1,8
280,64,70267,2,0,B|384:104|480:64,1,200,2|2
512,176,70762,6,0,B|408:160,1,100,8|0
280,64,71092,2,0,B|176:24|80:64,1,200,2|8
0,120,71586,1,0
40,212,71751,6,0,B|48:316,1,100
47,311,71998,1,0
47,311,72081,1,8
140,364,72245,1,2
244,348,72410,2,0,B|352:388|436:324,1,200,0|8
424,224,72905,2,0,B|316:184|232:248,1,200,2|2
140,364,73399,2,0,B|132:312|132:264,1,100,8|2
226,147,73729,2,0,B|235:201|234:247,1,100,0|2
28,320,74059,2,0,B|20:268|20:220,1,100,8|0
0,112,74388,6,0,B|64:24|184:64,1,200,4|8
400,112,75048,2,0,B|504:96,1,100
344,40,75377,2,0,B|296:112|320:180|400:200,1,200,8|0
488,256,75872,1,0
496,288,75954,1,0
504,320,76037,1,8
400,368,76201,1,0
400,368,76284,1,0
400,368,76366,2,0,B|280:360,1,100
232,216,76696,2,0,B|331:222,1,100,8|0
184,352,77026,5,0
96,120,77355,1,12
328,32,77685,1,0
416,264,78015,1,12
91,254,78344,1,4
216,90,78674,6,0,B|193:27,2,66.6666666666667
357,152,79004,2,0,B|420:129,2,66.6666666666667
295,293,79333,2,0,B|318:356,2,66.6666666666667
256,192,79663,5,0
256,192,80322,1,4
256,192,80817,1,0
384,64,81147,6,0,B|388:124|336:144,1,100
128,320,81476,2,0,B|124:260|176:240,1,100
337,240,81805,1,0
366,264,81888,1,0
380,299,81971,1,0
256,376,82136,1,0
128,320,82300,6,0,B|20:288|24:168,1,200,4|8
32,72,82795,1,0
128,40,82960,1,0
128,40,83042,1,0
128,40,83125,1,0
224,64,83289,1,8
255,78,83372,1,0
288,80,83454,1,0
321,70,83537,1,0
347,49,83619,6,0,B|448:64,1,100
496,176,83949,2,0,B|395:191,1,100,8|0
360,196,84196,1,0
325,200,84278,1,0
122,276,84443,5,12
130,108,84608,1,12
298,116,84773,1,12
290,284,84938,5,4
290,284,85020,1,0
290,284,85103,1,0
290,284,85185,1,0
290,284,85267,2,0,B|341:312|387:290,1,100,8|0
416,271,85515,1,0
435,240,85597,2,0,B|444:141,2,100,4|0|8
298,115,86092,2,0,B|308:211|328:327,1,200,4|0
200,373,86586,5,0
176,256,86751,1,0
96,160,86916,1,0
16,64,87081,1,0
256,32,87245,1,4
216,144,87410,1,0
324,172,87575,6,0,B|338:281|426:302|492:263|470:144,1,299.999991059304,0|4
496,244,88070,1,4
