osu file format v9

[General]
AudioFilename: Yes!YuyuyuYuruyuri.mp3
AudioLeadIn: 2000
PreviewTime: 57781
Countdown: 0
SampleSet: Normal
StackLeniency: 0.7
Mode: 0
LetterboxInBreaks: 0

[Editor]
DistanceSpacing: 1
BeatDivisor: 2
GridSize: 4

[Metadata]
Title:Yes! YuYuYu*YuruYuri (TV Size)
Artist:Nanamori-chu * Goraku-bu
Creator:LKs
Version:BakaInsane
Source:Yuru Yuri
Tags:opening BakaHuang fanzhen0019

[Difficulty]
HPDrainRate:6
CircleSize:4
OverallDifficulty:7
ApproachRate:8
SliderMultiplier:1.6
SliderTickRate:1

[Events]
//Background and Video events
0,0,"BG2.jpg"
//Break Periods
//Storyboard Layer 0 (Background)
//Storyboard Layer 1 (Fail)
//Storyboard Layer 2 (Pass)
//Storyboard Layer 3 (Foreground)
//Storyboard Sound Samples
//Background Colour Transformations
3,100,163,162,255

[TimingPoints]
3180,329.67032967033,4,1,1,42,1,0
15707,-100,4,1,2,42,0,0
16366,-100,4,1,1,42,0,0
20982,-100,4,1,2,42,0,0
21641,-100,4,1,1,42,0,0
45542,-100,4,1,2,42,0,0
55927,-100,4,1,1,42,0,0
58564,-100,4,1,1,49,0,1
69608,-100,4,1,2,49,0,1
70103,-100,4,1,1,49,0,1
72245,-100,4,1,2,49,0,1
72410,-100,4,1,1,49,0,1
79663,-100,4,1,1,43,0,0

[Colours]
Combo1 : 249,174,179
Combo2 : 255,98,98
Combo3 : 240,226,98
Combo4 : 125,73,146

[HitObjects]
256,192,542,12,8,2520
208,120,3180,6,0,B|184:152|176:192|176:192|184:232|216:264,1,160,4|0
296,264,3674,2,0,B|327:234|335:194|335:194|327:154|303:122,1,160
256,56,4169,1,0
328,24,4333,6,0,B|304:48|256:56|256:56|208:48|184:24,1,160
104,24,4828,1,0
72,96,4993,1,0
136,152,5158,1,0
208,120,5322,5,4
256,232,5487,1,4
304,120,5652,1,4
352,232,5817,5,4
430,206,5982,1,0
480,272,6147,1,0
430,339,6311,1,0
352,315,6476,2,0,B|328:363|256:379|208:347,1,160
176,200,7136,1,0
102,224,7300,1,0
40,272,7465,2,0,B|8:240|24:192,1,80
80,144,7795,5,0
168,64,7960,1,0
256,144,8125,1,0
344,64,8289,1,0
432,144,8454,6,0,B|480:168|480:256|432:280,1,160,4|0
384,216,8949,2,0,B|336:240|336:328|384:352,1,160,0|0
464,352,9443,1,0
464,352,9608,6,0,B|289:352,1,160
256,288,10103,1,0
208,352,10267,1,0
128,352,10432,1,0
64,248,10597,5,4
56,368,10762,1,4
133,277,10927,1,4
16,304,11092,5,4
256,96,11751,1,4
256,96,12245,1,4
144,216,12575,5,0
216,256,12740,1,0
296,256,12905,1,0
368,216,13070,2,0,B|392:256|368:296,1,80
141,292,13399,2,0,B|120:256|144:216,1,80,4|0
256,320,13729,5,4
184,352,13894,1,0
104,352,14059,2,0,B|59:364|27:334,1,80,8|0
56,264,14388,2,0,B|17:244|4:199,1,80
38,45,14718,2,0,B|77:65|90:110,1,80,8|0
112,184,15048,1,0
192,200,15212,1,0
168,120,15377,1,8
248,136,15541,1,0
224,56,15707,5,2
272,216,15872,1,0
376,104,16036,1,2
424,264,16201,1,0
384,192,16366,6,0,B|352:224|352:224|344:256,1,80
256,320,16696,2,0,B|224:288|224:288|192:280,1,80,8|0
128,192,17026,2,0,B|160:160|160:160|168:128,1,80
256,64,17355,2,0,B|288:96|288:96|320:104,1,80,8|0
384,192,17685,5,0
348,284,17850,1,8
256,320,18015,1,8
166,281,18180,1,4
128,192,18344,1,0
256,64,18509,6,0,B|256:8,2,40,0|0|8
208,128,18839,1,0
128,128,19004,6,0,B|40:128,1,80,0|0
88,280,19333,2,0,B|176:280,1,80,8|0
176,200,19663,2,0,B|88:200,1,80
136,352,19992,2,0,B|224:352,1,80,8|0
292,352,20322,5,0
320,279,20487,1,0
258,231,20652,1,8
195,277,20817,1,0
128,232,20982,5,2
231,156,21147,1,0
195,277,21311,1,0
152,156,21476,1,0
258,231,21641,5,0
360,160,21806,1,8
360,160,21888,1,0
360,160,21971,1,8
320,40,22136,1,0
192,40,22300,1,4
152,156,22465,1,8
258,231,22630,1,0
258,231,22795,1,8
256,192,22960,12,8,23949
256,192,24278,5,4
256,192,24443,1,4
184,152,24608,2,0,B|168:192|168:192|184:232,1,80
330,226,24938,2,0,B|344:192|344:192|328:152,1,80
184,312,25432,6,0,B|128:320|101:272|101:272|80:200,1,160
56,136,25927,1,0
104,72,26092,1,0
157,11,26256,2,0,B|184:24|208:112|136:144,1,160
256,248,26916,5,4
256,248,27081,1,4
296,320,27245,2,0,B|256:336|216:320,1,80
218,175,27575,2,0,B|256:160|296:176,1,80
368,208,27905,1,0
424,152,28070,1,0
424,152,28152,1,0
424,152,28234,5,0
384,80,28399,1,0
304,96,28564,1,0
296,175,28729,1,0
368,208,28894,2,0,B|336:272|248:264|224:208,1,160
128,104,29553,5,4
128,104,29718,1,4
80,168,29883,2,0,B|64:200|56:256,1,80
184,344,30212,2,0,B|168:312|160:256,2,80
256,376,30707,2,0,B|344:400|416:376,1,160
488,344,31201,1,0
488,344,31366,1,0
424,296,31531,2,0,B|347:332|265:299,1,160
256,144,32190,5,0
392,64,32520,1,4
424,136,32685,1,0
470,71,32850,1,0
392,64,33015,2,0,B|352:80|344:128,1,80,0|8
328,200,33344,2,0,B|288:240|224:240|176:200,1,160,4|4
120,160,33839,1,0
192,128,34004,2,0,B|168:80|104:80,1,80,4|0
56,112,34333,2,0,B|32:152|48:192,1,80,8|8
112,240,34663,2,0,B|160:240|184:200,1,80,0|4
256,64,35158,6,0,B|296:48|336:64,1,80,8|0
472,152,35487,2,0,B|432:168|392:152,1,80,0|0
416,72,35817,1,8
334,63,35982,2,0,B|281:129|310:215,1,160
376,264,36476,1,8
376,264,36641,1,0
448,304,36806,2,0,B|496:237|472:152,1,160,0|8
334,63,37465,5,4
176,40,37795,2,0,B|160:80|184:136,1,80,8|0
224,272,38125,2,0,B|240:232|216:176,1,80
144,192,38454,1,8
64,192,38619,2,0,B|24:272|56:352,1,160
136,360,39114,1,8
136,360,39278,1,0
216,352,39443,2,0,B|256:272|224:192,1,160,0|8
200,120,39938,1,0
200,120,40020,1,0
200,120,40103,5,4
256,64,40267,1,0
312,120,40432,2,0,B|400:120,1,80,8|0
464,264,40762,2,0,B|376:264,1,80
304,264,41092,1,8
344,192,41256,6,0,B|384:216|400:272|376:320|336:336,1,160
256,320,41751,1,8
256,320,41916,1,0
162,328,42081,2,0,B|136:320|112:272|128:216|168:192,1,160
256,64,42740,5,0
256,64,42905,1,0
344,192,43070,1,8
256,320,43399,5,0
256,320,43564,1,0
168,192,43729,1,8
400,248,44223,5,0
344,304,44387,1,0
288,248,44552,1,0
344,192,44717,1,0
256,64,45048,1,0
184,104,45212,1,0
184,104,45295,1,0
184,104,45377,6,0,B|224:152|288:152|328:104,2,160,4|2|0
136,40,46201,1,2
104,112,46366,1,0
56,48,46531,2,0,B|8:80|16:144|32:168|72:192,1,160,2|2
128,224,47026,1,0
128,224,47190,1,2
208,248,47355,6,0,B|256:280|248:344|232:368|192:392,2,160,0|2|4
256,96,48344,1,2
384,192,48674,1,0
256,288,49004,1,2
256,288,49333,5,2
176,192,49498,1,2
104,288,49663,1,0
24,192,49828,1,2
24,192,50158,5,0
99,163,50322,1,0
176,192,50487,2,0,B|256:176|344:192,1,160
376,264,50982,1,0
336,336,51147,2,0,B|256:352|168:336,1,160
104,304,51641,5,0
36,260,51806,2,0,B|12:228|4:188|4:188|12:148|44:116,1,160
116,88,52300,1,0
188,128,52465,2,0,B|212:160|220:200|220:200|212:240|180:272,1,160
104,304,52960,5,0
182,270,53125,2,0,B|342:270,1,160
411,229,53619,2,0,B|435:277|403:325,2,80
483,197,54114,6,0,B|515:285|475:357,2,160
416,152,54938,1,0
416,152,55020,1,0
416,152,55103,1,0
352,200,55267,2,0,B|320:288|360:360,1,160
256,232,55927,6,0,B|256:112,2,106.666666666667,4|4|4
160,264,56586,2,0,B|104:168,2,106.666666666667,4|4|4
96,344,57245,5,0
256,232,57575,1,8
328,56,57905,5,8
296,80,57987,1,8
256,88,58070,1,8
216,80,58152,1,8
184,56,58234,1,8
120,8,58399,1,0
48,48,58564,6,0,B|88:104|160:96|192:48,1,160,4|8
256,16,59059,1,0
328,56,59223,2,0,B|354:16|426:8|466:64,1,160,0|8
392,104,59718,2,0,B|435:125|450:196|399:241,1,160
360,312,60212,1,8
152,312,60542,6,0,B|88:280|96:200|96:200|72:240,1,160,0|8
360,312,61201,2,0,B|424:280|416:200|416:200|440:240,1,160,4|8
256,248,61696,1,0
336,224,61861,2,0,B|336:184|296:144|232:152|208:176,1,160,0|8
176,272,62355,2,0,B|176:312|216:352|280:344|304:320,2,160
160,192,63180,1,0
176,272,63344,1,0
97,248,63509,1,8
97,248,63839,5,4
76,112,64169,1,8
197,42,64498,1,0
301,136,64828,1,8
243,264,65158,5,0
302,137,65487,1,8
437,151,65816,1,0
466,286,66146,1,8
347,354,66476,5,4
256,128,66971,1,8
256,128,67136,1,8
256,288,67465,1,0
320,244,67630,2,0,B|304:192|208:192|192:244,1,160,8|0
216,355,68125,2,0,B|256:379|296:355,1,80,0|8
320,248,68454,5,8
296,216,68537,1,8
256,200,68619,1,8
216,216,68701,1,8
192,248,68784,1,8
144,312,68949,1,0
69,282,69114,6,0,B|5:226|27:133,1,160,4|8
88,80,69608,1,2
104,160,69773,2,0,B|96:208|136:232,2,80,2|0|8
88,80,70267,2,0,B|248:80,1,160,4|0
248,80,70762,1,8
368,192,71092,6,0,B|208:192,2,160,0|8|4
448,192,71916,1,0
448,192,71998,1,0
448,192,72081,1,8
406,118,72245,1,2
488,120,72410,6,0,B|528:152|536:192|528:232|488:264,1,160,0|8
400,256,72905,2,0,B|367:229|359:189|367:149|407:117,1,160
405,116,73399,1,8
256,64,73729,1,0
104,120,74059,1,8
184,256,74388,6,0,B|104:280|104:280|32:256,1,160,4|8
176,176,75048,2,0,B|256:152|256:152|328:176,1,160,0|8
480,256,75707,2,0,B|408:280|408:280|328:256,2,160,0|8|0
480,256,76696,1,8
344,176,77026,5,0
315,40,77355,1,12
176,24,77685,1,0
119,153,78015,1,12
225,246,78344,5,0
315,40,78674,1,0
119,153,79003,1,0
344,176,79333,1,0
176,24,79663,5,4
256,192,79745,12,0,81971
304,264,82300,6,0,B|328:232|336:192|336:192|328:152|296:120,1,160,4|8
216,120,82794,2,0,B|185:150|177:190|177:190|185:230|209:262,1,160
256,328,83289,1,8
184,360,83453,6,0,B|208:336|256:328|256:328|304:336|328:360,1,160
408,360,83948,1,8
440,288,84113,1,0
376,232,84278,1,0
304,264,84442,5,4
256,152,84607,1,4
208,264,84772,1,4
160,152,84938,5,4
176,72,85103,2,0,B|160:24,2,40,0|0|0
256,64,85432,2,0,B|256:8,2,40,0|0|4
336,72,85762,1,0
352,152,85927,1,4
352,152,86092,1,4
256,288,86421,5,8
256,288,86586,1,8
256,288,86751,1,8
216,352,86916,2,0,B|256:368|296:352,1,80,4|8
294,223,87245,2,0,B|256:208|216:224,2,80,0|8|4
256,64,87905,5,8
256,64,88070,1,4
