osu file format v12

[General]
AudioFilename: Yuruyuri - My Pace de Ikimashou ~ ED TV size ~.mp3
AudioLeadIn: 1000
PreviewTime: 58287
Countdown: 0
SampleSet: Normal
StackLeniency: 0.7
Mode: 3
LetterboxInBreaks: 1

[Editor]
DistanceSpacing: 1.5
BeatDivisor: 4
GridSize: 8

[Metadata]
Title:My Pace de Ikimashou (TV Size)
TitleUnicode:My Pace de Ikimashou (TV Size)
Artist:Nanamori-chu * Goraku-bu
ArtistUnicode:Nanamori-chu * Goraku-bu
Creator:TOKI
Version:Chinatsu
Source:Yuru Yuri
Tags:Akaza Akari Toshinou Kyouko Funami Yui Yoshikawa Chinatsu Shiori Mikami Ootsubo Yuka Tsuda Minami Okubo Rumi yryr
BeatmapID:242481
BeatmapSetID:84253

[Difficulty]
HPDrainRate:5
CircleSize:7
OverallDifficulty:6
ApproachRate:8
SliderMultiplier:2
SliderTickRate:2

[Events]
//Background and Video events
0,0,"BG.jpg",0,0
//Break Periods
//Storyboard Layer 0 (Background)
//Storyboard Layer 1 (Fail)
//Storyboard Layer 2 (Pass)
//Storyboard Layer 3 (Foreground)
//Storyboard Sound Samples
Sample,2103,0,"soft-hitfinish.wav",70
Sample,2103,0,"soft-hitfinish.wav",70
Sample,1930,0,"soft-hitfinish.wav",70
Sample,1930,0,"soft-hitfinish.wav",70
Sample,1930,0,"soft-hitfinish.wav",70
Sample,1930,0,"soft-hitfinish.wav",70
Sample,1293,0,"soft-hitfinish.wav",70
//Background Colour Transformations
3,100,163,162,255

[TimingPoints]
261,315.789473684211,4,1,1,100,1,0
60892,-100,4,1,1,100,0,1
81103,-100,4,1,1,100,0,0

[Colours]
Combo1 : 122,82,143
Combo2 : 238,213,123
Combo3 : 255,11,48
Combo4 : 255,102,228
SliderBorder : 255,255,255

[HitObjects]
36,192,2155,1,0,0:0:0:0:
36,192,2313,1,0,0:0:0:0:
36,192,2629,1,0,0:0:0:0:
36,192,2787,1,0,0:0:0:0:
36,192,2945,1,0,0:0:0:0:
36,192,3261,1,0,0:0:0:0:
36,192,4682,1,0,0:0:0:0:
36,192,4839,1,0,0:0:0:0:
36,192,5155,1,0,0:0:0:0:
36,192,5313,1,0,0:0:0:0:
36,192,5471,1,0,0:0:0:0:
36,192,5787,1,0,0:0:0:0:
36,192,7208,1,0,0:0:0:0:
36,192,7366,1,0,0:0:0:0:
36,192,8471,1,0,0:0:0:0:
36,192,8629,1,0,0:0:0:0:
36,192,9103,1,0,0:0:0:0:
36,192,9261,1,0,0:0:0:0:
36,192,9734,1,0,0:0:0:0:
36,192,9892,1,0,0:0:0:0:
36,192,10366,1,0,0:0:0:0:
36,192,10682,1,0,0:0:0:0:
36,192,10997,1,0,0:0:0:0:
36,192,11155,1,0,0:0:0:0:
36,192,11313,1,0,0:0:0:0:
36,192,11471,1,0,0:0:0:0:
475,192,12892,1,0,0:0:0:0:
329,192,13524,1,0,0:0:0:0:
182,192,13839,1,0,0:0:0:0:
402,192,14155,1,0,0:0:0:0:
256,192,14787,1,0,0:0:0:0:
109,192,15103,1,0,0:0:0:0:
256,192,15418,1,0,0:0:0:0:
256,192,15734,1,0,0:0:0:0:
256,192,16050,1,0,0:0:0:0:
256,192,16366,1,0,0:0:0:0:
36,192,16839,1,0,0:0:0:0:
36,192,16997,1,0,0:0:0:0:
329,192,17313,1,0,0:0:0:0:
182,192,17629,1,0,0:0:0:0:
475,192,17945,1,0,0:0:0:0:
329,192,18576,1,0,0:0:0:0:
182,192,18892,1,0,0:0:0:0:
402,192,19208,1,0,0:0:0:0:
256,192,19839,1,0,0:0:0:0:
109,192,20155,1,0,0:0:0:0:
256,192,20471,1,0,0:0:0:0:
256,192,20787,1,0,0:0:0:0:
256,192,21103,1,0,0:0:0:0:
256,192,21418,1,0,0:0:0:0:
36,192,21892,1,0,0:0:0:0:
36,192,22050,1,0,0:0:0:0:
475,192,22366,1,0,0:0:0:0:
329,192,22682,1,0,0:0:0:0:
256,192,22997,1,0,0:0:0:0:
109,192,23313,1,0,0:0:0:0:
475,192,23629,1,0,0:0:0:0:
402,192,23787,1,0,0:0:0:0:
329,192,23945,1,0,0:0:0:0:
256,192,24261,1,0,0:0:0:0:
109,192,24576,1,0,0:0:0:0:
475,192,24892,1,0,0:0:0:0:
402,192,25050,1,0,0:0:0:0:
329,192,25208,1,0,0:0:0:0:
256,192,25524,1,0,0:0:0:0:
36,192,25839,1,0,0:0:0:0:
256,192,26155,1,0,0:0:0:0:
182,192,26471,1,0,0:0:0:0:
36,192,26945,1,0,0:0:0:0:
36,192,27103,1,0,0:0:0:0:
36,192,27261,1,0,0:0:0:0:
36,192,27418,1,0,0:0:0:0:
256,192,28050,1,0,0:0:0:0:
109,192,28366,1,0,0:0:0:0:
475,192,28682,1,0,0:0:0:0:
402,192,28839,1,0,0:0:0:0:
329,192,28997,1,0,0:0:0:0:
256,192,29313,1,0,0:0:0:0:
109,192,29628,1,0,0:0:0:0:
475,192,29944,1,0,0:0:0:0:
402,192,30103,1,0,0:0:0:0:
329,192,30261,1,0,0:0:0:0:
256,192,30576,1,0,0:0:0:0:
36,192,30891,1,0,0:0:0:0:
256,192,31207,1,0,0:0:0:0:
182,192,31523,1,0,0:0:0:0:
36,192,31997,1,0,0:0:0:0:
36,192,32155,1,0,0:0:0:0:
36,192,32313,1,0,0:0:0:0:
36,192,32471,1,0,0:0:0:0:
475,192,33103,1,0,0:0:0:0:
329,192,33734,1,0,0:0:0:0:
182,192,34050,1,0,0:0:0:0:
402,192,34366,1,0,0:0:0:0:
256,192,34997,1,0,0:0:0:0:
109,192,35313,1,0,0:0:0:0:
256,192,35629,1,0,0:0:0:0:
256,192,35945,1,0,0:0:0:0:
256,192,36261,1,0,0:0:0:0:
256,192,36576,1,0,0:0:0:0:
36,192,36892,1,0,0:0:0:0:
36,192,37050,1,0,0:0:0:0:
109,192,37524,1,0,0:0:0:0:
109,192,37682,1,0,0:0:0:0:
329,192,38155,1,0,0:0:0:0:
109,192,38471,1,0,0:0:0:0:
475,192,39103,1,0,0:0:0:0:
329,192,39418,1,0,0:0:0:0:
109,192,39734,1,0,0:0:0:0:
475,192,40366,1,0,0:0:0:0:
256,192,40682,1,0,0:0:0:0:
36,192,40997,1,0,0:0:0:0:
402,192,41629,1,0,0:0:0:0:
256,192,42103,1,0,0:0:0:0:
256,192,42261,1,0,0:0:0:0:
256,192,42418,1,0,0:0:0:0:
256,192,42576,1,0,0:0:0:0:
329,192,43208,1,0,0:0:0:0:
109,192,43524,1,0,0:0:0:0:
475,192,44155,1,0,0:0:0:0:
329,192,44471,1,0,0:0:0:0:
109,192,44787,1,0,0:0:0:0:
475,192,45418,1,0,0:0:0:0:
256,192,45734,1,0,0:0:0:0:
36,192,46050,1,0,0:0:0:0:
402,192,46682,1,0,0:0:0:0:
256,192,47155,1,0,0:0:0:0:
256,192,47313,1,0,0:0:0:0:
256,192,47471,1,0,0:0:0:0:
256,192,47629,1,0,0:0:0:0:
182,192,48261,128,0,49524:0:0:0:0:
475,192,49524,128,0,50787:0:0:0:0:
109,192,50787,128,0,52050:0:0:0:0:
256,192,52050,128,0,53313:0:0:0:0:
402,192,53313,128,0,54576:0:0:0:0:
475,192,54576,128,0,55839:0:0:0:0:
182,192,55839,1,0,0:0:0:0:
182,192,56471,1,0,0:0:0:0:
182,192,57103,1,0,0:0:0:0:
182,192,57734,1,0,0:0:0:0:
182,192,58366,1,0,0:0:0:0:
182,192,58682,1,0,0:0:0:0:
182,192,58997,1,0,0:0:0:0:
182,192,59313,1,0,0:0:0:0:
402,192,59629,1,0,0:0:0:0:
475,192,59945,1,0,0:0:0:0:
402,192,60261,1,0,0:0:0:0:
475,192,60892,1,0,0:0:0:0:
402,192,61524,1,0,0:0:0:0:
329,192,62155,1,0,0:0:0:0:
256,192,62787,1,0,0:0:0:0:
182,192,63418,1,0,0:0:0:0:
109,192,64050,1,0,0:0:0:0:
36,192,64682,128,0,65155:0:0:0:0:
256,192,65155,1,0,0:0:0:0:
475,192,65945,1,0,0:0:0:0:
402,192,66576,1,0,0:0:0:0:
329,192,67208,1,0,0:0:0:0:
256,192,67839,1,0,0:0:0:0:
182,192,68471,1,0,0:0:0:0:
256,192,69103,1,0,0:0:0:0:
36,192,69734,1,0,0:0:0:0:
475,192,69892,1,0,0:0:0:0:
36,192,70050,1,0,0:0:0:0:
475,192,70208,1,0,0:0:0:0:
36,192,70366,1,0,0:0:0:0:
36,192,70682,1,0,0:0:0:0:
475,192,70997,1,0,0:0:0:0:
402,192,71629,1,0,0:0:0:0:
329,192,72261,1,0,0:0:0:0:
256,192,72892,1,0,0:0:0:0:
182,192,73524,1,0,0:0:0:0:
109,192,74155,1,0,0:0:0:0:
36,192,74787,128,0,75261:0:0:0:0:
256,192,75261,1,0,0:0:0:0:
475,192,76050,1,0,0:0:0:0:
402,192,76682,1,0,0:0:0:0:
329,192,77313,1,0,0:0:0:0:
256,192,77945,1,0,0:0:0:0:
182,192,78576,1,0,0:0:0:0:
256,192,79208,1,0,0:0:0:0:
475,192,79839,1,0,0:0:0:0:
36,192,79997,1,0,0:0:0:0:
475,192,80155,1,0,0:0:0:0:
36,192,80313,1,0,0:0:0:0:
475,192,80471,1,0,0:0:0:0:
475,192,81103,1,0,0:0:0:0:
329,192,81734,1,0,0:0:0:0:
182,192,82050,1,0,0:0:0:0:
475,192,82366,1,0,0:0:0:0:
256,192,82997,1,0,0:0:0:0:
109,192,83313,1,0,0:0:0:0:
256,192,83629,1,0,0:0:0:0:
256,192,83945,1,0,0:0:0:0:
256,192,84261,1,0,0:0:0:0:
256,192,84576,1,0,0:0:0:0:
36,192,85050,1,0,0:0:0:0:
36,192,85208,1,0,0:0:0:0:
182,192,85524,1,0,0:0:0:0:
182,192,85682,1,0,0:0:0:0:
329,192,85997,1,0,0:0:0:0:
329,192,86155,1,0,0:0:0:0:
475,192,86471,1,0,0:0:0:0:
475,192,86629,1,0,0:0:0:0:
36,192,86945,1,0,0:0:0:0:
256,192,87103,1,0,0:0:0:0:
475,192,87261,1,0,0:0:0:0:
