osu file format v14

[General]
AudioFilename: HAPPY TIMESSSSSS.mp3
AudioLeadIn: 0
PreviewTime: 73556
Countdown: 0
SampleSet: Soft
StackLeniency: 0.7
Mode: 0
LetterboxInBreaks: 0
WidescreenStoryboard: 0

[Editor]
DistanceSpacing: 0.8
BeatDivisor: 4
GridSize: 4
TimelineZoom: 1

[Metadata]
Title:Happy Time wa Owaranai
TitleUnicode:ハッピータイムは終わらない
Artist:Nanamori-chu * Goraku-bu
ArtistUnicode:Nanamori-chu * Goraku-bu
Creator:Setz
Version:Eternal Happiness
Source:ゆるゆり
Tags:三上枝織 大坪由佳 津田美波 大久保瑠美 mikami shiori otsubo yuka tsuda minami okubo rumi 赤座あかり akaza akari 歳納京子 toshino kyoko 船見結衣 funami yui 吉川ちなつ yoshikawa chinatsu yryr A_Mystery yuru yuri Karia Gaia
BeatmapID:713594
BeatmapSetID:320717

[Difficulty]
HPDrainRate:7
CircleSize:4
OverallDifficulty:8.5
ApproachRate:9.3
SliderMultiplier:1.8
SliderTickRate:1

[Events]
//Background and Video events
0,0,"YRBG.png",0,0
//Break Periods
//Storyboard Layer 0 (Background)
//Storyboard Layer 1 (Fail)
//Storyboard Layer 2 (Pass)
//Storyboard Layer 3 (Foreground)
//Storyboard Sound Samples

[TimingPoints]
1635,315.789473684211,4,2,2,80,1,0
5424,-100,4,2,2,15,0,0
6056,-100,4,2,2,20,0,0
6687,-100,4,2,2,25,0,0
7319,-100,4,2,2,30,0,0
7950,-100,4,2,2,35,0,0
8582,-100,4,2,2,40,0,0
9213,-100,4,2,2,45,0,0
9687,-100,4,2,2,60,0,0
10003,-125,4,2,2,80,0,0
20582,-100,4,2,2,80,0,1
30687,-111.111111111111,4,2,2,80,0,0
38266,-111.111111111111,4,2,2,65,0,0
40792,-117.647058823529,4,2,2,80,0,0
50582,-71.4285714285714,4,2,2,80,0,0
50819,-66.6666666666667,4,2,2,5,0,0
50898,-111.111111111111,4,2,2,80,0,0
61003,-117.647058823529,4,2,2,80,0,0
75135,-117.647058823529,4,2,2,20,0,0
75213,-100,4,2,2,80,0,0
76161,-100,4,2,2,80,0,1
86187,-100,4,2,2,80,0,0
86266,-100,4,2,2,80,0,1
96371,-100,4,2,2,80,0,0
116582,-111.111111111111,4,2,2,80,0,0
126687,-133.333333333333,4,2,2,55,0,0
129213,-133.333333333333,4,2,2,25,0,0

[Colours]
Combo1 : 128,128,192
Combo2 : 255,159,207
Combo3 : 255,255,128
Combo4 : 255,128,128

[HitObjects]
256,192,5424,12,0,9687,0:0:0:0:
142,75,10003,5,2,0:0:0:0:
154,93,10161,1,2,0:0:0:0:
166,111,10319,1,2,0:0:0:0:
180,130,10477,6,0,P|252:136|311:194,1,144,4|0,0:0|0:0,0:0:0:0:
210,245,10950,1,0,0:0:0:0:
258,349,11108,2,0,P|291:370|341:372,1,72
436,348,11424,2,0,P|445:316|442:273,1,72
386,128,11740,5,0,0:0:0:0:
346,253,11898,1,0,0:0:0:0:
449,207,12056,1,0,0:0:0:0:
294,140,12213,2,0,P|314:68|375:35,1,144
386,128,12687,1,0,0:0:0:0:
264,232,12845,1,0,0:0:0:0:
171,79,13003,6,0,L|164:7,1,72,4|0,0:0|0:0,0:0:0:0:
118,172,13319,2,0,L|111:243,1,72
222,211,13635,1,0,0:0:0:0:
99,70,13792,2,0,P|134:72|181:81,1,72
308,167,14108,1,0,0:0:0:0:
94,317,14266,6,0,P|152:273|237:300,1,144,4|0,0:0|0:0,0:0:0:0:
365,335,14740,2,0,P|375:298|369:255,1,72
315,96,15056,2,0,P|305:133|311:176,1,72
418,133,15371,1,0,0:0:0:0:
254,29,15529,5,4,0:0:0:0:
274,206,15687,1,0,0:0:0:0:
389,67,15845,2,0,P|469:83|486:150,1,144
346,171,16319,1,0,0:0:0:0:
233,22,16477,2,0,L|220:93,1,72
325,269,16792,6,0,L|474:282,1,144,4|0,0:0|0:0,0:0:0:0:
238,285,17266,2,0,P|260:209|319:180,1,144
468,281,17740,2,0,L|464:357,1,72
346,171,18056,6,0,L|356:19,1,144,4|0,0:0|0:0,0:0:0:0:
456,104,18529,1,0,0:0:0:0:
369,272,18687,2,0,L|286:264,1,72,4|0,0:0|0:0,0:0:0:0:
184,179,19003,2,0,P|179:141|195:98,1,72
329,268,19319,6,0,P|334:306|318:349,1,72,4|0,0:0|0:0,0:0:0:0:
413,194,19635,1,4,0:0:0:0:
216,354,19792,1,0,0:0:0:0:
77,256,20108,5,2,0:0:0:0:
90,278,20266,1,2,0:0:0:0:
102,298,20424,1,2,0:0:0:0:
144,148,20582,6,0,P|183:117|243:112,1,90,4|0,0:0|0:0,0:0:0:0:
367,153,20898,2,0,L|391:257,1,90,8|0,0:0|0:0,0:0:0:0:
432,77,21213,1,0,0:0:0:0:
277,167,21371,1,0,0:0:0:0:
422,271,21529,1,8,0:0:0:0:
318,84,21687,1,0,0:0:0:0:
223,275,21845,6,0,P|176:273|132:241,1,90,2|0,0:0|0:0,0:0:0:0:
79,102,22161,1,8,0:0:0:0:
267,196,22319,2,0,P|252:278|219:387,1,180
60,380,22792,1,10,0:0:0:0:
70,254,22950,1,0,0:0:0:0:
226,370,23108,5,2,0:0:0:0:
29,314,23266,1,0,0:0:0:0:
171,202,23424,2,0,P|169:154|155:112,1,90,8|0,0:0|0:0,0:0:0:0:
64,167,23740,1,0,0:0:0:0:
187,38,23898,2,0,P|236:28|290:38,1,90,0|8,0:0|0:0,0:0:0:0:
390,84,24213,1,0,0:0:0:0:
171,202,24371,6,0,P|247:154|345:180,1,180,2|8,0:0|0:0,0:0:0:0:
506,272,24845,2,0,P|459:278|410:256,1,90
315,87,25161,1,2,0:0:0:0:
315,87,25240,1,2,0:0:0:0:
315,87,25319,1,10,0:0:0:0:
181,236,25477,1,0,0:0:0:0:
103,56,25635,6,0,P|56:127|79:222,1,180,4|8,0:0|0:0,0:0:0:0:
203,279,26108,2,0,L|293:290,1,90
124,340,26424,1,0,0:0:0:0:
210,169,26582,1,8,0:0:0:0:
321,294,26740,1,0,0:0:0:0:
113,183,26898,6,0,P|136:100|224:70,2,180,2|8|0,0:0|0:0|0:0,0:0:0:0:
328,143,27687,1,0,0:0:0:0:
203,279,27845,1,8,0:0:0:0:
146,88,28003,1,0,0:0:0:0:
305,172,28161,6,0,L|407:180,1,90,2|0,0:0|0:0,0:0:0:0:
227,252,28477,2,0,L|47:237,1,180,8|0,0:0|0:0,0:0:0:0:
124,113,28950,1,0,0:0:0:0:
266,214,29108,2,0,P|268:257|253:319,1,90,8|0,0:0|0:0,0:0:0:0:
366,102,29424,5,2,0:0:0:0:
162,246,29582,1,2,0:0:0:0:
291,31,29740,5,10,0:0:0:0:
83,180,29898,1,2,0:0:0:0:
328,283,30056,5,2,0:0:0:0:
379,90,30213,1,2,0:0:0:0:
379,90,30292,1,2,0:0:0:0:
379,90,30371,1,10,0:0:0:0:
235,283,30529,1,2,0:0:0:0:
173,50,30687,6,0,B|120:20|62:51|62:51|41:37|31:16,1,161.999995056153,4|8,0:0|0:0,0:0:0:0:
117,158,31161,1,2,0:0:0:0:
264,74,31319,1,0,0:0:0:0:
273,245,31477,2,0,L|286:333,1,80.9999975280763,2|8,0:0|0:0,0:0:0:0:
215,167,31792,1,2,0:0:0:0:
368,55,31950,6,0,P|404:37|456:34,1,80.9999975280763,2|0,0:0|0:0,0:0:0:0:
313,229,32266,2,0,P|277:247|225:250,1,80.9999975280763,10|0,0:0|0:0,0:0:0:0:
374,141,32582,1,2,0:0:0:0:
302,366,32740,1,2,0:0:0:0:
215,167,32898,1,2,0:0:0:0:
424,282,33056,1,2,0:0:0:0:
278,112,33213,6,0,P|205:83|136:140,1,161.999995056153,2|10,0:0|0:0,0:0:0:0:
184,283,33687,1,2,0:0:0:0:
313,229,33845,1,2,0:0:0:0:
118,201,34003,2,0,L|27:186,1,80.9999975280763,2|8,0:0|0:0,0:0:0:0:
184,283,34319,1,2,0:0:0:0:
278,112,34477,6,0,P|280:72|260:22,1,80.9999975280763,2|0,0:0|0:0,0:0:0:0:
160,88,34792,1,8,0:0:0:0:
134,252,34950,1,2,0:0:0:0:
81,59,35108,1,2,0:0:0:0:
247,245,35266,1,2,0:0:0:0:
247,245,35345,1,2,0:0:0:0:
247,245,35424,1,10,0:0:0:0:
291,10,35582,1,2,0:0:0:0:
365,281,35740,6,0,B|430:285|483:241|483:241|467:200,1,161.999995056153,4|10,0:0|0:0,0:0:0:0:
355,62,36213,1,2,0:0:0:0:
303,202,36371,1,2,0:0:0:0:
192,56,36529,2,0,P|155:39|104:46,1,80.9999975280763,2|8,0:0|0:0,0:0:0:0:
157,213,36845,1,2,0:0:0:0:
318,27,37003,6,0,L|298:121,1,80.9999975280763,2|0,0:0|0:0,0:0:0:0:
173,292,37319,2,0,L|153:198,1,80.9999975280763,10|2,0:0|0:0,0:0:0:0:
319,345,37635,1,2,0:0:0:0:
165,252,37792,1,2,0:0:0:0:
346,137,37950,1,2,0:0:0:0:
401,382,38108,1,2,0:0:0:0:
508,186,38266,5,2,0:0:0:0:
483,200,38345,1,0,0:0:0:0:
456,210,38424,1,0,0:0:0:0:
426,212,38503,1,0,0:0:0:0:
398,205,38582,2,0,L|372:151,1,40.4999987640381,10|0,0:0|0:0,0:0:0:0:
282,264,38740,2,0,L|273:321,1,40.4999987640381,2|0,0:0|0:0,0:0:0:0:
210,166,38898,1,2,0:0:0:0:
202,138,38977,1,0,0:0:0:0:
196,110,39056,1,2,0:0:0:0:
190,82,39135,1,0,0:0:0:0:
182,54,39213,2,0,L|133:65,1,40.4999987640381,10|0,0:0|0:0,0:0:0:0:
44,150,39371,2,0,L|-5:161,1,40.4999987640381,2|0,0:0|0:0,0:0:0:0:
136,202,39529,5,2,0:0:0:0:
152,224,39608,1,0,0:0:0:0:
175,239,39687,1,2,0:0:0:0:
201,249,39766,1,0,0:0:0:0:
228,252,39845,2,0,L|293:250,1,40.4999987640381,10|0,0:0|0:0,0:0:0:0:
363,165,40003,2,0,L|428:167,1,40.4999987640381,2|0,0:0|0:0,0:0:0:0:
276,88,40161,1,2,0:0:0:0:
248,80,40240,1,0,0:0:0:0:
219,76,40319,1,2,0:0:0:0:
190,82,40398,1,0,0:0:0:0:
163,91,40477,1,10,0:0:0:0:
349,10,40635,1,2,0:0:0:0:
469,136,40792,6,0,P|480:173|476:215,1,76.5000014591217,2|0,0:0|0:0,0:0:0:0:
356,275,41108,1,0,0:0:0:0:
489,353,41266,1,0,0:0:0:0:
398,214,41424,2,0,P|360:202|316:213,1,76.5000014591217
185,251,41740,1,0,0:0:0:0:
284,354,41898,1,0,0:0:0:0:
232,159,42056,6,0,B|219:138|208:118|208:118|144:149|91:111,1,153.000002918243,2|0,0:0|0:0,0:0:0:0:
153,24,42529,1,0,0:0:0:0:
74,196,42687,1,0,0:0:0:0:
76,222,42766,1,0,0:0:0:0:
81,248,42845,1,0,0:0:0:0:
85,274,42924,1,0,0:0:0:0:
89,300,43003,1,0,0:0:0:0:
232,159,43161,1,0,0:0:0:0:
312,341,43319,6,0,P|352:346|397:320,1,76.5000014591217,2|0,0:0|0:0,0:0:0:0:
270,251,43635,1,0,0:0:0:0:
331,105,43792,1,0,0:0:0:0:
395,217,43950,1,0,0:0:0:0:
206,147,44108,2,0,L|112:154,1,76.5000014591217
180,277,44424,1,0,0:0:0:0:
247,69,44582,6,0,L|258:233,1,153.000002918243,2|0,0:0|0:0,0:0:0:0:
399,300,45056,1,0,0:0:0:0:
208,355,45213,1,0,0:0:0:0:
181,360,45292,1,0,0:0:0:0:
155,352,45371,1,0,0:0:0:0:
131,338,45450,1,0,0:0:0:0:
115,316,45529,1,0,0:0:0:0:
100,293,45608,1,0,0:0:0:0:
95,266,45687,1,0,0:0:0:0:
182,92,45845,6,0,L|198:178,1,76.5000014591217,2|0,0:0|0:0,0:0:0:0:
60,156,46161,1,0,0:0:0:0:
226,265,46319,1,0,0:0:0:0:
296,90,46477,2,0,P|361:53|435:63,1,153.000002918243
305,240,46950,1,0,0:0:0:0:
155,60,47108,6,0,B|126:97|157:161|157:161|137:172|116:185,1,153.000002918243,2|0,0:0|0:0,0:0:0:0:
258,110,47582,1,0,0:0:0:0:
93,198,47740,1,0,0:0:0:0:
249,309,47898,1,0,0:0:0:0:
404,181,48056,1,0,0:0:0:0:
409,154,48135,1,0,0:0:0:0:
412,127,48213,1,0,0:0:0:0:
417,100,48292,1,0,0:0:0:0:
421,73,48371,5,2,0:0:0:0:
258,110,48529,1,0,0:0:0:0:
398,207,48687,1,0,0:0:0:0:
226,310,48845,2,0,L|61:321,2,153.000002918243
395,229,49635,5,0,0:0:0:0:
231,177,49792,1,0,0:0:0:0:
231,177,49871,1,0,0:0:0:0:
231,177,49950,1,0,0:0:0:0:
331,345,50108,1,0,0:0:0:0:
387,110,50266,1,0,0:0:0:0:
73,335,50582,6,0,B|117:332|138:306|138:306|206:356|257:305,1,188.999994232178,10|0,0:0|0:0,0:0:0:0:
316,235,50898,6,0,L|312:152,1,80.9999975280763,4|0,0:0|0:0,0:0:0:0:
198,75,51213,1,8,0:0:0:0:
378,21,51371,1,0,0:0:0:0:
354,219,51529,2,0,P|318:234|273:221,1,80.9999975280763
180,110,51845,1,8,0:0:0:0:
225,278,52003,1,0,0:0:0:0:
346,86,52161,6,0,P|381:70|426:83,1,80.9999975280763,2|0,0:0|0:0,0:0:0:0:
290,198,52477,1,8,0:0:0:0:
317,16,52635,1,0,0:0:0:0:
428,159,52792,1,0,0:0:0:0:
235,104,52950,2,0,P|192:97|147:94,1,80.9999975280763,0|8,0:0|0:0,0:0:0:0:
53,192,53266,1,0,0:0:0:0:
165,19,53424,6,0,P|205:22|245:28,1,80.9999975280763,2|0,0:0|0:0,0:0:0:0:
290,198,53740,1,8,0:0:0:0:
415,52,53898,1,0,0:0:0:0:
376,264,54056,2,0,P|299:304|226:285,1,161.999995056153,0|8,0:0|0:0,0:0:0:0:
87,212,54529,1,0,0:0:0:0:
290,198,54687,6,0,P|301:287|304:361,1,161.999995056153,2|8,0:0|0:0,0:0:0:0:
162,258,55161,2,0,L|156:158,1,80.9999975280763
398,72,55477,2,0,L|402:152,1,80.9999975280763,0|8,0:0|0:0,0:0:0:0:
303,359,55792,1,0,0:0:0:0:
276,369,55871,1,0,0:0:0:0:
247,372,55950,6,0,P|202:372|166:362,1,80.9999975280763,4|0,0:0|0:0,0:0:0:0:
87,212,56266,1,8,0:0:0:0:
91,384,56424,1,0,0:0:0:0:
212,290,56582,1,0,0:0:0:0:
16,243,56740,2,0,P|11:198|40:150,1,80.9999975280763,0|8,0:0|0:0,0:0:0:0:
122,60,57056,1,0,0:0:0:0:
187,214,57213,5,2,0:0:0:0:
267,45,57371,1,0,0:0:0:0:
269,241,57529,1,8,0:0:0:0:
195,7,57687,1,0,0:0:0:0:
109,265,57845,2,0,P|48:258|1:173,1,161.999995056153,0|8,0:0|0:0,0:0:0:0:
204,97,58319,1,0,0:0:0:0:
298,309,58477,5,2,0:0:0:0:
324,318,58555,1,0,0:0:0:0:
352,320,58634,1,0,0:0:0:0:
380,314,58713,1,0,0:0:0:0:
405,301,58792,1,8,0:0:0:0:
425,281,58871,1,0,0:0:0:0:
439,257,58950,1,0,0:0:0:0:
445,229,59029,1,0,0:0:0:0:
444,201,59108,1,0,0:0:0:0:
335,36,59266,2,0,L|315:120,1,80.9999975280763,0|8,0:0|0:0,0:0:0:0:
457,97,59582,1,0,0:0:0:0:
307,226,59740,5,2,0:0:0:0:
235,63,59898,1,0,0:0:0:0:
319,261,60056,1,8,0:0:0:0:
398,68,60213,1,0,0:0:0:0:
185,167,60371,1,0,0:0:0:0:
414,231,60529,1,0,0:0:0:0:
269,136,60687,1,8,0:0:0:0:
159,317,60845,1,0,0:0:0:0:
58,144,61003,6,0,P|61:106|70:66,1,76.5000014591217,4|0,0:0|0:0,0:0:0:0:
164,191,61319,1,8,0:0:0:0:
235,63,61477,1,0,0:0:0:0:
259,225,61635,1,2,0:0:0:0:
144,85,61792,2,0,P|108:74|69:69,1,76.5000014591217,0|8,0:0|0:0,0:0:0:0:
164,191,62108,1,0,0:0:0:0:
245,34,62266,6,0,P|280:23|319:18,1,76.5000014591217,2|0,0:0|0:0,0:0:0:0:
441,71,62582,1,10,0:0:0:0:
334,210,62740,2,0,L|344:368,1,153.000002918243
474,275,63213,1,8,0:0:0:0:
378,137,63371,1,0,0:0:0:0:
339,286,63529,5,2,0:0:0:0:
465,182,63687,1,0,0:0:0:0:
297,135,63845,1,8,0:0:0:0:
406,250,64003,1,0,0:0:0:0:
379,98,64161,1,2,0:0:0:0:
263,229,64319,1,0,0:0:0:0:
196,79,64477,1,10,0:0:0:0:
271,251,64635,1,0,0:0:0:0:
339,34,64792,6,0,P|418:33|453:95,1,153.000002918243,2|10,0:0|0:0,0:0:0:0:
456,239,65266,1,0,0:0:0:0:
379,98,65424,1,2,0:0:0:0:
340,292,65582,1,0,0:0:0:0:
342,318,65661,1,0,0:0:0:0:
345,344,65740,2,0,P|309:358|264:354,1,76.5000014591217,8|0,0:0|0:0,0:0:0:0:
136,186,66056,6,0,P|124:149|128:102,1,76.5000014591217,4|0,0:0|0:0,0:0:0:0:
91,263,66371,1,8,0:0:0:0:
209,151,66529,1,0,0:0:0:0:
248,301,66687,1,2,0:0:0:0:
339,120,66845,2,0,P|376:119|413:137,1,76.5000014591217,0|8,0:0|0:0,0:0:0:0:
466,245,67161,1,0,0:0:0:0:
462,81,67319,5,2,0:0:0:0:
361,192,67477,1,0,0:0:0:0:
325,27,67635,2,0,P|282:18|243:25,1,76.5000014591217,8|0,0:0|0:0,0:0:0:0:
78,110,67950,1,2,0:0:0:0:
78,110,68029,1,0,0:0:0:0:
78,110,68108,1,0,0:0:0:0:
218,230,68266,1,8,0:0:0:0:
325,27,68424,1,0,0:0:0:0:
383,242,68582,6,0,B|446:251|489:213|489:213|487:167,1,153.000002918243,2|8,0:0|0:0,0:0:0:0:
307,119,69056,1,0,0:0:0:0:
253,302,69213,1,2,0:0:0:0:
136,162,69371,2,0,L|127:71,1,76.5000014591217,0|8,0:0|0:0,0:0:0:0:
290,9,69687,1,0,0:0:0:0:
22,23,69845,6,0,L|37:181,1,153.000002918243,2|10,0:0|0:0,0:0:0:0:
142,296,70319,1,0,0:0:0:0:
302,203,70477,1,2,0:0:0:0:
168,130,70635,1,0,0:0:0:0:
168,130,70713,1,0,0:0:0:0:
168,130,70792,1,8,0:0:0:0:
260,363,70950,1,0,0:0:0:0:
456,174,71108,6,0,L|443:95,1,76.5000014591217,6|0,0:0|0:0,0:0:0:0:
332,56,71424,1,0,0:0:0:0:
497,0,71582,1,0,0:0:0:0:
400,244,71740,6,0,P|432:262|473:264,1,76.5000014591217,10|0,0:0|0:0,0:0:0:0:
356,146,72056,1,0,0:0:0:0:
389,331,72213,1,0,0:0:0:0:
194,169,72371,6,0,L|207:90,1,76.5000014591217,6|0,0:0|0:0,0:0:0:0:
332,56,72687,1,0,0:0:0:0:
155,11,72845,1,0,0:0:0:0:
214,276,73003,6,0,P|176:279|142:262,1,76.5000014591217,6|0,0:0|0:0,0:0:0:0:
276,187,73319,1,0,0:0:0:0:
33,207,73477,1,0,0:0:0:0:
173,67,73635,6,0,L|164:151,1,76.5000014591217,4|0,0:0|0:0,0:0:0:0:
214,276,73950,1,0,0:0:0:0:
33,207,74108,1,0,0:0:0:0:
247,143,74266,1,10,0:0:0:0:
108,267,74424,1,0,0:0:0:0:
44,109,74582,2,0,L|53:25,1,76.5000014591217
108,267,74898,2,0,P|159:290|228:266,1,114.750002188683,10|0,0:0|0:0,0:0:0:0:
276,228,75213,6,0,L|318:43,1,180,10|10,0:0|0:0,0:0:0:0:
326,67,75687,5,2,0:0:0:0:
335,82,75845,1,2,0:0:0:0:
344,97,76003,1,2,0:0:0:0:
215,277,76161,6,0,P|266:307|355:235,1,180,4|8,0:0|0:0,0:0:0:0:
195,142,76635,1,0,0:0:0:0:
406,56,76792,1,0,0:0:0:0:
276,228,76950,1,0,0:0:0:0:
239,49,77108,1,8,0:0:0:0:
85,204,77266,1,0,0:0:0:0:
362,170,77424,6,0,P|282:130|195:142,1,180,2|8,0:0|0:0,0:0:0:0:
85,204,77898,2,0,L|74:297,1,90,0|2,0:0|0:0,0:0:0:0:
177,346,78213,1,0,0:0:0:0:
158,167,78371,1,10,0:0:0:0:
101,373,78529,1,0,0:0:0:0:
288,208,78687,5,2,0:0:0:0:
142,268,78845,1,0,0:0:0:0:
101,106,79003,1,8,0:0:0:0:
160,306,79161,1,0,0:0:0:0:
268,130,79319,1,0,0:0:0:0:
223,261,79477,1,0,0:0:0:0:
196,33,79635,1,8,0:0:0:0:
294,343,79792,1,0,0:0:0:0:
429,45,79950,6,0,P|350:9|276:53,1,180,2|10,0:0|0:0,0:0:0:0:
361,194,80424,2,0,L|355:105,1,90,0|2,0:0|0:0,0:0:0:0:
142,36,80740,1,0,0:0:0:0:
142,36,80819,1,0,0:0:0:0:
142,36,80898,2,0,P|85:28|53:42,1,90,8|0,0:0|0:0,0:0:0:0:
6,209,81213,5,4,0:0:0:0:
34,28,81371,1,0,0:0:0:0:
165,149,81529,2,0,P|168:194|160:245,1,90,8|0,0:0|0:0,0:0:0:0:
51,114,81845,1,2,0:0:0:0:
128,300,82003,1,0,0:0:0:0:
273,136,82161,1,10,0:0:0:0:
49,219,82319,1,0,0:0:0:0:
215,55,82477,6,0,P|302:40|367:101,1,180,2|8,0:0|0:0,0:0:0:0:
255,314,82950,2,0,P|257:226|273:134,1,180
438,50,83424,1,10,0:0:0:0:
382,257,83582,1,0,0:0:0:0:
295,55,83740,6,0,P|209:39|144:97,1,180,2|8,0:0|0:0,0:0:0:0:
6,313,84213,2,0,L|24:225,1,90
209,9,84529,2,0,L|227:97,1,90,0|8,0:0|0:0,0:0:0:0:
116,223,84845,1,0,0:0:0:0:
334,128,85003,6,0,P|378:125|418:145,1,90,2|0,0:0|0:0,0:0:0:0:
287,353,85319,2,0,P|242:355|202:335,1,90,10|0,0:0|0:0,0:0:0:0:
102,132,85635,1,10,0:0:0:0:
292,237,85792,5,2,0:0:0:0:
301,252,85950,1,2,0:0:0:0:
310,267,86108,1,2,0:0:0:0:
191,10,86266,6,0,L|204:105,1,90,4|0,0:0|0:0,0:0:0:0:
292,237,86582,1,8,0:0:0:0:
388,122,86740,1,0,0:0:0:0:
203,99,86898,1,0,0:0:0:0:
338,302,87056,1,0,0:0:0:0:
463,165,87213,1,8,0:0:0:0:
319,321,87371,1,0,0:0:0:0:
503,285,87529,5,2,0:0:0:0:
355,102,87687,1,0,0:0:0:0:
392,360,87845,1,8,0:0:0:0:
210,144,88003,2,0,L|227:52,1,90,0|2,0:0|0:0,0:0:0:0:
313,252,88319,2,0,L|296:344,1,90,0|10,0:0|0:0,0:0:0:0:
426,342,88635,1,0,0:0:0:0:
405,133,88792,5,2,0:0:0:0:
266,290,88950,1,0,0:0:0:0:
305,87,89108,1,8,0:0:0:0:
436,219,89266,1,0,0:0:0:0:
295,68,89424,1,0,0:0:0:0:
512,54,89582,1,0,0:0:0:0:
378,284,89740,1,8,0:0:0:0:
287,50,89898,1,0,0:0:0:0:
178,308,90056,6,0,P|245:372|350:335,1,180,2|10,0:0|0:0,0:0:0:0:
492,247,90529,2,0,L|511:160,1,90,0|2,0:0|0:0,0:0:0:0:
321,20,90845,1,0,0:0:0:0:
284,22,90924,1,0,0:0:0:0:
254,35,91003,2,0,L|234:123,1,90,8|0,0:0|0:0,0:0:0:0:
378,284,91319,5,4,0:0:0:0:
242,203,91477,1,0,0:0:0:0:
242,203,91556,1,0,0:0:0:0:
242,203,91635,1,8,0:0:0:0:
381,77,91792,1,0,0:0:0:0:
330,213,91950,1,0,0:0:0:0:
153,108,92108,1,0,0:0:0:0:
197,303,92266,1,8,0:0:0:0:
245,57,92424,1,0,0:0:0:0:
294,326,92582,6,0,P|366:375|454:349,2,180,2|8|0,0:0|0:0|0:0,0:0:0:0:
186,173,93371,2,0,P|178:130|183:82,1,90,0|8,0:0|0:0,0:0:0:0:
127,247,93687,1,0,0:0:0:0:
294,22,93845,5,0,0:0:0:0:
329,14,93923,1,0,0:0:0:0:
365,16,94002,1,0,0:0:0:0:
399,29,94081,1,0,0:0:0:0:
427,51,94160,1,8,0:0:0:0:
447,80,94239,1,0,0:0:0:0:
458,115,94318,1,0,0:0:0:0:
464,150,94397,1,0,0:0:0:0:
463,187,94477,2,0,P|462:236|451:296,1,90
222,374,94792,2,0,P|223:325|234:265,1,90,8|0,0:0|0:0,0:0:0:0:
366,168,95108,5,2,0:0:0:0:
141,300,95266,1,2,0:0:0:0:
256,84,95424,5,10,0:0:0:0:
306,335,95582,1,2,0:0:0:0:
434,131,95740,5,2,0:0:0:0:
234,245,95897,1,2,0:0:0:0:
234,245,95976,1,2,0:0:0:0:
234,245,96055,1,10,0:0:0:0:
298,13,96213,1,2,0:0:0:0:
432,291,96371,6,0,P|439:246|426:189,1,90,4|0,0:0|0:0,0:0:0:0:
302,87,96687,2,0,P|255:75|197:83,1,90,8|0,0:0|0:0,0:0:0:0:
319,221,97003,1,0,0:0:0:0:
184,164,97161,1,0,0:0:0:0:
302,87,97319,1,8,0:0:0:0:
302,87,97477,1,0,0:0:0:0:
92,229,97635,6,0,P|83:182|82:139,1,90,2|0,0:0|0:0,0:0:0:0:
215,294,97950,2,0,P|224:341|225:384,1,90,8|0,0:0|0:0,0:0:0:0:
71,319,98266,1,0,0:0:0:0:
264,190,98424,2,0,P|307:181|364:175,1,90,0|8,0:0|0:0,0:0:0:0:
448,251,98740,1,0,0:0:0:0:
215,125,98898,6,0,P|182:218|257:271,2,180,2|8|0,0:0|0:0|0:0,0:0:0:0:
352,205,99687,1,0,0:0:0:0:
439,50,99845,2,0,L|461:148,1,90,8|0,0:0|0:0,0:0:0:0:
294,330,100161,6,0,P|249:342|204:340,1,90,2|0,0:0|0:0,0:0:0:0:
0,258,100477,2,0,P|45:246|90:248,1,90,8|0,0:0|0:0,0:0:0:0:
205,340,100792,1,2,0:0:0:0:
205,340,100950,1,2,0:0:0:0:
154,167,101108,1,10,0:0:0:0:
85,375,101266,1,0,0:0:0:0:
101,101,101424,6,0,P|144:85|202:92,1,90,4|0,0:0|0:0,0:0:0:0:
434,191,101740,2,0,B|344:202|344:202|314:192|314:192|254:199,1,180,8|0,0:0|0:0,0:0:0:0:
149,260,102213,1,0,0:0:0:0:
361,126,102371,2,0,L|451:115,1,90,8|0,0:0|0:0,0:0:0:0:
262,272,102687,6,0,L|76:290,1,180,2|8,0:0|0:0,0:0:0:0:
0,167,103161,1,0,0:0:0:0:
153,43,103319,2,0,L|173:141,1,90,2|0,0:0|0:0,0:0:0:0:
345,218,103635,1,8,0:0:0:0:
183,255,103792,1,0,0:0:0:0:
364,384,103950,5,2,0:0:0:0:
262,272,104108,1,0,0:0:0:0:
403,147,104266,2,0,P|360:127|305:135,1,90,8|0,0:0|0:0,0:0:0:0:
148,168,104582,2,0,P|123:246|137:358,1,180,0|8,0:0|0:0,0:0:0:0:
307,245,105056,1,0,0:0:0:0:
241,53,105213,6,0,P|220:94|225:147,1,90,2|0,0:0|0:0,0:0:0:0:
376,172,105529,2,0,P|352:134|313:113,1,90,10|0,0:0|0:0,0:0:0:0:
202,241,105845,1,2,0:0:0:0:
315,12,106003,1,2,0:0:0:0:
315,12,106082,1,2,0:0:0:0:
315,12,106161,1,10,0:0:0:0:
376,172,106319,1,0,0:0:0:0:
119,114,106477,6,0,L|27:104,1,90,4|0,0:0|0:0,0:0:0:0:
158,272,106792,2,0,L|250:282,1,90,8|0,0:0|0:0,0:0:0:0:
308,131,107108,1,0,0:0:0:0:
349,249,107266,1,0,0:0:0:0:
190,174,107424,1,8,0:0:0:0:
270,314,107582,1,0,0:0:0:0:
238,106,107740,6,0,P|196:91|152:101,1,90,2|0,0:0|0:0,0:0:0:0:
22,176,108056,2,0,L|28:286,1,90,8|0,0:0|0:0,0:0:0:0:
139,348,108371,1,0,0:0:0:0:
281,192,108529,2,0,P|237:201|195:186,1,90,0|8,0:0|0:0,0:0:0:0:
329,78,108845,1,0,0:0:0:0:
498,286,109003,6,0,P|414:303|342:233,2,180,2|8|0,0:0|0:0|0:0,0:0:0:0:
391,133,109792,1,0,0:0:0:0:
402,333,109950,1,8,0:0:0:0:
471,212,110108,1,0,0:0:0:0:
256,247,110266,6,0,P|208:245|162:236,1,90,2|0,0:0|0:0,0:0:0:0:
6,124,110582,2,0,P|50:115|95:114,1,90,8|0,0:0|0:0,0:0:0:0:
231,144,110898,1,2,0:0:0:0:
99,340,111056,1,2,0:0:0:0:
99,340,111135,1,2,0:0:0:0:
99,340,111213,2,0,L|116:224,1,90,10|0,0:0|0:0,0:0:0:0:
195,73,111529,5,4,0:0:0:0:
257,217,111687,1,0,0:0:0:0:
112,250,111845,1,8,0:0:0:0:
295,86,112003,1,0,0:0:0:0:
315,272,112161,2,0,L|301:383,1,90
171,166,112477,2,0,L|185:277,1,90,8|0,0:0|0:0,0:0:0:0:
23,101,112792,6,0,B|68:77|118:86|118:86|154:59|201:75,1,180,2|8,0:0|0:0,0:0:0:0:
324,179,113266,1,0,0:0:0:0:
240,13,113424,1,0,0:0:0:0:
272,257,113582,2,0,P|311:278|375:257,1,90,0|8,0:0|0:0,0:0:0:0:
208,110,113898,1,0,0:0:0:0:
430,65,114056,5,2,0:0:0:0:
324,179,114213,1,0,0:0:0:0:
169,41,114371,5,8,0:0:0:0:
478,0,114529,1,0,0:0:0:0:
189,126,114687,5,0,0:0:0:0:
468,127,114845,1,0,0:0:0:0:
198,215,115003,5,8,0:0:0:0:
459,252,115161,1,0,0:0:0:0:
197,308,115319,5,6,0:0:0:0:
437,376,115477,1,2,0:0:0:0:
329,155,115634,1,10,0:0:0:0:
262,375,115792,1,2,0:0:0:0:
342,120,115950,1,2,0:0:0:0:
365,351,116108,1,2,0:0:0:0:
365,351,116187,1,2,0:0:0:0:
365,351,116266,1,10,0:0:0:0:
242,86,116424,1,2,0:0:0:0:
438,305,116582,6,0,P|365:334|296:277,1,161.999995056153,4|10,0:0|0:0,0:0:0:0:
277,67,117056,1,2,0:0:0:0:
473,188,117214,1,2,0:0:0:0:
278,216,117372,2,0,L|187:231,1,80.9999975280763,2|8,0:0|0:0,0:0:0:0:
301,100,117688,1,2,0:0:0:0:
438,305,117846,6,0,L|427:385,1,80.9999975280763,2|0,0:0|0:0,0:0:0:0:
282,187,118161,2,0,L|271:267,1,80.9999975280763,10|0,0:0|0:0,0:0:0:0:
173,117,118477,1,2,0:0:0:0:
398,189,118635,1,2,0:0:0:0:
199,276,118793,1,2,0:0:0:0:
337,81,118951,1,2,0:0:0:0:
144,213,119108,6,0,P|115:286|172:355,1,161.999995056153,2|10,0:0|0:0,0:0:0:0:
280,249,119582,1,2,0:0:0:0:
416,278,119740,1,2,0:0:0:0:
254,117,119898,2,0,P|215:98|160:103,1,80.9999975280763,2|8,0:0|0:0,0:0:0:0:
280,249,120214,1,2,0:0:0:0:
455,162,120372,6,0,P|479:130|491:77,1,80.9999975280763,2|0,0:0|0:0,0:0:0:0:
372,75,120687,1,8,0:0:0:0:
222,200,120845,1,2,0:0:0:0:
324,6,121003,1,2,0:0:0:0:
353,254,121161,1,2,0:0:0:0:
353,254,121240,1,2,0:0:0:0:
353,254,121319,1,10,0:0:0:0:
461,68,121477,1,2,0:0:0:0:
453,329,121635,6,0,B|414:348|387:332|387:332|326:349|292:302,1,161.999995056153,4|8,0:0|0:0,0:0:0:0:
359,219,122108,1,2,0:0:0:0:
212,334,122266,1,0,0:0:0:0:
203,132,122424,2,0,L|190:44,1,80.9999975280763,2|8,0:0|0:0,0:0:0:0:
261,210,122739,1,2,0:0:0:0:
108,322,122898,6,0,P|72:340|20:343,1,80.9999975280763,2|0,0:0|0:0,0:0:0:0:
163,148,123213,2,0,P|199:130|251:127,1,80.9999975280763,10|0,0:0|0:0,0:0:0:0:
102,236,123529,1,2,0:0:0:0:
174,11,123687,1,2,0:0:0:0:
261,210,123845,1,2,0:0:0:0:
38,94,124003,1,2,0:0:0:0:
296,225,124161,6,0,L|389:207,1,80.9999975280763,2|0,0:0|0:0,0:0:0:0:
303,100,124477,1,10,0:0:0:0:
416,117,124635,1,2,0:0:0:0:
296,225,124792,1,2,0:0:0:0:
506,179,124950,1,2,0:0:0:0:
367,40,125108,1,10,0:0:0:0:
386,251,125266,1,2,0:0:0:0:
347,15,125424,5,2,0:0:0:0:
371,227,125582,1,2,0:0:0:0:
149,132,125740,1,10,0:0:0:0:
439,92,125898,1,2,0:0:0:0:
316,348,126056,1,2,0:0:0:0:
246,69,126213,1,2,0:0:0:0:
246,69,126292,1,2,0:0:0:0:
246,69,126371,1,10,0:0:0:0:
65,300,126529,1,2,0:0:0:0:
65,300,126687,6,0,L|48:209,1,67.5000025749208,2|2,0:0|0:0,0:0:0:0:
142,111,127003,2,0,P|176:103|222:105,1,67.5000025749208,2|2,0:0|0:0,0:0:0:0:
327,202,127319,1,2,0:0:0:0:
244,16,127477,1,2,0:0:0:0:
5,81,127792,6,0,P|87:146|174:117,1,202.500007724762,2|2,0:0|0:0,0:0:0:0:
375,9,128582,2,0,L|389:82,1,67.5000025749208,2|8,0:0|0:0,0:0:0:0:
286,142,128898,1,10,0:0:0:0:
471,223,129056,1,4,0:0:0:0:
256,192,129213,12,0,130477,0:0:0:0:
