osu file format v14

[General]
AudioFilename: HAPPY TIMESSSSSS.mp3
AudioLeadIn: 0
PreviewTime: 73556
Countdown: 0
SampleSet: Soft
StackLeniency: 0.7
Mode: 0
LetterboxInBreaks: 0
WidescreenStoryboard: 0

[Editor]
DistanceSpacing: 0.9
BeatDivisor: 2
GridSize: 4
TimelineZoom: 1

[Metadata]
Title:Happy Time wa Owaranai
TitleUnicode:ハッピータイムは終わらない
Artist:Nanamori-chu * Goraku-bu
ArtistUnicode:Nanamori-chu * Goraku-bu
Creator:Setz
Version:Easy
Source:ゆるゆり
Tags:三上枝織 大坪由佳 津田美波 大久保瑠美 mikami shiori otsubo yuka tsuda minami okubo rumi 赤座あかり akaza akari 歳納京子 toshino kyoko 船見結衣 funami yui 吉川ちなつ yoshikawa chinatsu yryr A_Mystery yuru yuri Karia Gaia
BeatmapID:865639
BeatmapSetID:320717

[Difficulty]
HPDrainRate:3
CircleSize:3
OverallDifficulty:3
ApproachRate:3
SliderMultiplier:0.899999999999999
SliderTickRate:1

[Events]
//Background and Video events
0,0,"YRBG.png",0,0
//Break Periods
//Storyboard Layer 0 (Background)
//Storyboard Layer 1 (Fail)
//Storyboard Layer 2 (Pass)
//Storyboard Layer 3 (Foreground)
//Storyboard Sound Samples

[TimingPoints]
1635,315.789473684211,4,2,2,80,1,0
5424,-100,4,2,2,15,0,0
6056,-100,4,2,2,20,0,0
6687,-100,4,2,2,25,0,0
7319,-100,4,2,2,30,0,0
7950,-100,4,2,2,35,0,0
8582,-100,4,2,2,40,0,0
9213,-100,4,2,2,45,0,0
9687,-100,4,2,2,60,0,0
10003,-100,4,2,2,80,0,0
20582,-100,4,2,2,80,0,1
30687,-100,4,2,2,80,0,0
40792,-100,4,2,2,80,0,0
50582,-100,4,2,2,80,0,0
50819,-100,4,2,2,5,0,0
50898,-100,4,2,2,80,0,0
61003,-100,4,2,2,80,0,0
75213,-100,4,2,2,80,0,0
76161,-100,4,2,2,80,0,1
86187,-100,4,2,2,80,0,0
86266,-100,4,2,2,80,0,1
96371,-100,4,2,2,80,0,0
116582,-100,4,2,2,80,0,0
126687,-100,4,2,2,55,0,0
129213,-100,4,2,2,25,0,0

[Colours]
Combo1 : 128,128,192
Combo2 : 255,159,207
Combo3 : 255,255,128
Combo4 : 255,128,128

[HitObjects]
256,192,5424,12,0,9213,0:0:0:0:
20,123,10477,6,0,B|156:155|256:59|256:59|340:227|340:227|128:275,1,629.999999999999,4|0,0:0|0:0,0:0:0:0:
98,214,13003,6,0,B|46:295|138:353|138:353|246:328,1,270,4|0,0:0|0:0,0:0:0:0:
317,311,14266,6,0,B|403:264|403:264|317:204|406:93,1,270,4|0,0:0|0:0,0:0:0:0:
455,66,15529,6,0,B|405:15|342:49|342:49|328:88|252:16|204:86,1,270,4|0,0:0|0:0,0:0:0:0:
156,140,16792,6,0,B|142:316|142:316|235:358,1,270,4|0,0:0|0:0,0:0:0:0:
308,362,18056,5,4,0:0:0:0:
382,218,18687,1,4,0:0:0:0:
238,142,19319,6,0,P|240:95|246:39,1,89.9999999999999,4|4,0:0|0:0,0:0:0:0:
108,250,20582,5,4,0:0:0:0:
33,280,20897,2,0,P|109:331|183:280,1,180,8|8,0:0|0:0,0:0:0:0:
246,247,21845,2,0,P|319:259|395:265,2,135,2|0|10,0:0|0:0|0:0,0:0:0:0:
195,183,23108,6,0,P|199:135|204:90,1,89.9999999999999,2|8,0:0|0:0,0:0:0:0:
284,69,23740,2,0,P|279:113|275:158,1,89.9999999999999,0|8,0:0|0:0,0:0:0:0:
318,227,24371,1,2,0:0:0:0:
269,292,24687,2,0,B|210:337|210:337|106:297,1,180,8|10,0:0|0:0,0:0:0:0:
36,267,25635,5,4,0:0:0:0:
97,214,25950,1,8,0:0:0:0:
31,165,26266,2,0,P|68:138|126:138,1,89.9999999999999,0|8,0:0|0:0,0:0:0:0:
186,164,26898,2,0,P|226:169|288:169,1,89.9999999999999,2|8,0:0|0:0,0:0:0:0:
348,133,27529,1,0,0:0:0:0:
385,204,27845,1,8,0:0:0:0:
442,146,28161,6,0,L|427:54,1,89.9999999999999,2|8,0:0|0:0,0:0:0:0:
352,27,28792,2,0,P|304:19|259:31,1,89.9999999999999,0|8,0:0|0:0,0:0:0:0:
202,81,29424,1,2,0:0:0:0:
148,20,29740,1,10,0:0:0:0:
117,94,30056,2,0,L|109:196,1,89.9999999999999,2|10,0:0|0:0,0:0:0:0:
170,238,30687,5,4,0:0:0:0:
109,291,31003,2,0,P|191:316|249:243,1,180,8|8,0:0|0:0,0:0:0:0:
307,198,31950,2,0,L|401:186,1,89.9999999999999,2|10,0:0|0:0,0:0:0:0:
466,227,32582,1,2,0:0:0:0:
495,151,32898,1,2,0:0:0:0:
425,109,33213,5,2,0:0:0:0:
494,66,33529,2,0,B|464:12|464:12|336:28,1,180,10|8,0:0|0:0,0:0:0:0:
272,59,34477,2,0,L|263:164,1,89.9999999999999,2|8,0:0|0:0,0:0:0:0:
329,197,35108,2,0,L|338:302,1,89.9999999999999,2|10,0:0|0:0,0:0:0:0:
303,360,35740,5,4,0:0:0:0:
383,354,36056,2,0,B|422:326|422:326|411:183,1,180,10|8,0:0|0:0,0:0:0:0:
374,122,37003,2,0,P|326:111|280:125,1,89.9999999999999,2|10,0:0|0:0,0:0:0:0:
217,162,37635,1,2,0:0:0:0:
141,191,37950,1,2,0:0:0:0:
72,147,38266,6,0,L|58:37,2,89.9999999999999,2|10|2,0:0|0:0|0:0,0:0:0:0:
42,222,39213,1,10,0:0:0:0:
117,251,39529,2,0,L|103:361,2,89.9999999999999,2|10|2,0:0|0:0|0:0,0:0:0:0:
157,180,40477,1,10,0:0:0:0:
93,130,40792,6,0,P|153:98|217:126,2,135,2|0|0,0:0|0:0|0:0,0:0:0:0:
36,188,42056,2,0,L|11:322,1,135,2|0,0:0|0:0,0:0:0:0:
74,371,42845,1,0,0:0:0:0:
125,308,43161,1,0,0:0:0:0:
195,348,43477,6,0,B|284:348|284:348|343:321,1,135,2|0,0:0|0:0,0:0:0:0:
377,266,44266,1,0,0:0:0:0:
327,202,44582,2,0,P|390:186|445:223,1,135,2|0,0:0|0:0,0:0:0:0:
441,303,45371,1,2,0:0:0:0:
387,363,45687,1,0,0:0:0:0:
311,336,46003,6,0,L|327:198,1,135,2|0,0:0|0:0,0:0:0:0:
283,133,46792,1,0,0:0:0:0:
203,146,47108,2,0,L|216:46,1,89.9999999999999,2|0,0:0|0:0,0:0:0:0:
139,26,47740,2,0,L|127:115,1,89.9999999999999,0|0,0:0|0:0,0:0:0:0:
132,196,48371,6,0,P|183:232|261:211,1,135,2|2,0:0|0:0,0:0:0:0:
316,171,49161,1,2,0:0:0:0:
328,251,49477,1,2,0:0:0:0:
392,203,49792,2,0,B|432:235|432:235|415:329,1,135,2|2,0:0|0:0,0:0:0:0:
346,358,50582,1,10,0:0:0:0:
276,316,50898,6,0,P|231:317|174:323,2,89.9999999999999,4|8|0,0:0|0:0|0:0,0:0:0:0:
335,260,51845,1,8,0:0:0:0:
265,219,52161,2,0,P|309:181|400:212,2,135,2|0|8,0:0|0:0|0:0,0:0:0:0:
231,292,53424,5,2,0:0:0:0:
158,256,53740,2,0,L|150:152,1,89.9999999999999,8|0,0:0|0:0,0:0:0:0:
202,103,54371,1,8,0:0:0:0:
141,48,54687,2,0,P|177:24|249:36,1,89.9999999999999,2|8,0:0|0:0,0:0:0:0:
295,58,55319,2,0,P|339:61|391:54,1,89.9999999999999,0|8,0:0|0:0,0:0:0:0:
461,31,55950,6,0,B|521:82|521:82|500:192,1,180,4|0,0:0|0:0,0:0:0:0:
455,248,56898,1,8,0:0:0:0:
384,209,57213,2,0,P|337:209|294:220,1,89.9999999999999,2|8,0:0|0:0,0:0:0:0:
223,258,57845,1,0,0:0:0:0:
174,193,58161,1,8,0:0:0:0:
216,123,58477,6,0,L|201:27,1,89.9999999999999,2|8,0:0|0:0,0:0:0:0:
121,32,59108,2,0,L|134:120,1,89.9999999999999,0|8,0:0|0:0,0:0:0:0:
174,193,59740,2,0,P|134:204|88:186,2,89.9999999999999,2|8|0,0:0|0:0|0:0,0:0:0:0:
244,152,60687,1,8,0:0:0:0:
293,216,61003,6,0,L|280:318,1,89.9999999999999,4|8,0:0|0:0,0:0:0:0:
334,367,61635,2,0,P|377:369|437:336,1,89.9999999999999,2|8,0:0|0:0,0:0:0:0:
481,298,62266,1,2,0:0:0:0:
426,237,62582,1,10,0:0:0:0:
486,183,62898,2,0,L|466:86,1,89.9999999999999,0|8,0:0|0:0,0:0:0:0:
486,15,63529,6,0,B|438:3|402:42|402:42|370:22|318:27,1,180,2|2,0:0|0:0,0:0:0:0:
239,47,64477,1,10,0:0:0:0:
290,109,64792,1,2,0:0:0:0:
212,133,65108,1,10,0:0:0:0:
272,187,65424,2,0,L|262:291,1,89.9999999999999,2|8,0:0|0:0,0:0:0:0:
209,337,66056,6,0,P|247:359|314:339,1,89.9999999999999,4|8,0:0|0:0,0:0:0:0:
367,327,66687,2,0,L|460:334,1,89.9999999999999,2|8,0:0|0:0,0:0:0:0:
476,254,67319,2,0,B|347:244|347:244|310:263|278:237,1,180,2|2,0:0|0:0,0:0:0:0:
234,198,68266,1,8,0:0:0:0:
311,172,68582,6,0,P|286:135|242:117,1,89.9999999999999,2|8,0:0|0:0,0:0:0:0:
167,138,69213,2,0,P|118:139|75:132,1,89.9999999999999,2|8,0:0|0:0,0:0:0:0:
7,92,69845,1,2,0:0:0:0:
8,173,70161,1,10,0:0:0:0:
70,224,70477,2,0,L|48:329,1,89.9999999999999,2|8,0:0|0:0,0:0:0:0:
113,363,71108,5,6,0:0:0:0:
195,223,71740,1,10,0:0:0:0:
95,95,72371,5,6,0:0:0:0:
254,68,73003,1,6,0:0:0:0:
195,223,73635,5,4,0:0:0:0:
328,314,74266,1,10,0:0:0:0:
395,166,74898,5,10,0:0:0:0:
345,104,75213,2,0,P|388:87|435:96,1,89.9999999999999,10|10,0:0|0:0,0:0:0:0:
394,252,76161,5,4,0:0:0:0:
325,208,76477,2,0,P|251:195|193:278,1,180,8|8,0:0|0:0,0:0:0:0:
274,272,77424,2,0,L|237:114,2,135,2|0|10,0:0|0:0|0:0,0:0:0:0:
325,334,78687,6,0,P|364:345|413:343,1,89.9999999999999,2|8,0:0|0:0,0:0:0:0:
489,314,79319,1,0,0:0:0:0:
439,249,79635,1,8,0:0:0:0:
501,197,79950,2,0,L|487:96,1,89.9999999999999,2|10,0:0|0:0,0:0:0:0:
413,77,80582,1,2,0:0:0:0:
368,144,80898,1,8,0:0:0:0:
306,91,81213,6,0,L|300:0,2,89.9999999999999,4|8|2,0:0|0:0|0:0,0:0:0:0:
249,148,82161,1,10,0:0:0:0:
178,188,82477,1,2,0:0:0:0:
140,116,82792,2,0,B|97:136|95:201|95:201|20:227,1,180,8|10,0:0|0:0,0:0:0:0:
23,309,83740,6,0,L|150:264,1,135,2|0,0:0|0:0,0:0:0:0:
178,188,84529,2,0,P|227:240|221:303,1,135,0|2,0:0|0:0,0:0:0:0:
156,346,85319,1,10,0:0:0:0:
230,378,85635,1,10,0:0:0:0:
377,310,86266,5,4,0:0:0:0:
315,256,86582,2,0,B|290:153|290:153|346:105,1,180,8|8,0:0|0:0,0:0:0:0:
293,43,87529,2,0,P|358:24|424:81,2,135,2|0|10,0:0|0:0|0:0,0:0:0:0:
223,84,88792,6,0,L|131:73,1,89.9999999999999,2|8,0:0|0:0,0:0:0:0:
110,151,89424,2,0,L|199:161,1,89.9999999999999,0|8,0:0|0:0,0:0:0:0:
279,147,90056,1,2,0:0:0:0:
338,201,90371,2,0,P|384:274|334:351,1,180,10|8,0:0|0:0,0:0:0:0:
264,373,91319,5,4,0:0:0:0:
195,329,91635,1,8,0:0:0:0:
255,274,91950,2,0,L|239:179,1,89.9999999999999,0|8,0:0|0:0,0:0:0:0:
170,143,92582,2,0,L|186:48,1,89.9999999999999,2|8,0:0|0:0,0:0:0:0:
261,28,93213,1,0,0:0:0:0:
315,88,93529,1,8,0:0:0:0:
362,21,93845,6,0,B|430:28|430:28|452:45,1,89.9999999999999,0|8,0:0|0:0,0:0:0:0:
494,107,94477,2,0,P|495:152|486:206,1,89.9999999999999,0|8,0:0|0:0,0:0:0:0:
422,243,95108,1,2,0:0:0:0:
374,177,95424,1,10,0:0:0:0:
334,247,95740,2,0,L|325:356,1,89.9999999999999,2|10,0:0|0:0,0:0:0:0:
246,346,96371,6,0,L|253:256,1,89.9999999999999,4|8,0:0|0:0,0:0:0:0:
202,192,97003,2,0,P|243:174|300:189,1,89.9999999999999,0|8,0:0|0:0,0:0:0:0:
334,247,97635,1,2,0:0:0:0:
398,198,97950,1,8,0:0:0:0:
361,125,98266,2,0,L|371:35,1,89.9999999999999,0|8,0:0|0:0,0:0:0:0:
294,6,98898,6,0,L|284:96,1,89.9999999999999,2|8,0:0|0:0,0:0:0:0:
230,156,99529,2,0,L|220:246,1,89.9999999999999,0|8,0:0|0:0,0:0:0:0:
264,313,100161,1,2,0:0:0:0:
186,338,100477,1,8,0:0:0:0:
130,279,100792,2,0,L|142:185,1,89.9999999999999,2|10,0:0|0:0,0:0:0:0:
90,126,101424,6,0,L|78:36,2,89.9999999999999,4|8|0,0:0|0:0|0:0,0:0:0:0:
49,195,102371,1,8,0:0:0:0:
103,254,102687,2,0,B|152:291|152:291|276:281,1,180,2|2,0:0|0:0,0:0:0:0:
344,248,103635,1,8,0:0:0:0:
280,198,103950,6,0,L|183:206,1,89.9999999999999,2|8,0:0|0:0,0:0:0:0:
117,169,104582,2,0,P|107:125|111:63,1,89.9999999999999,0|8,0:0|0:0,0:0:0:0:
165,24,105213,1,2,0:0:0:0:
235,63,105529,1,10,0:0:0:0:
308,28,105845,2,0,P|354:24|406:47,1,89.9999999999999,2|10,0:0|0:0,0:0:0:0:
447,100,106477,6,0,L|468:206,1,89.9999999999999,4|8,0:0|0:0,0:0:0:0:
393,227,107108,2,0,L|414:333,1,89.9999999999999,0|8,0:0|0:0,0:0:0:0:
349,369,107740,1,2,0:0:0:0:
277,330,108056,1,8,0:0:0:0:
311,256,108371,2,0,P|269:249|223:268,1,89.9999999999999,0|8,0:0|0:0,0:0:0:0:
152,301,109003,6,0,L|137:192,1,89.9999999999999,2|8,0:0|0:0,0:0:0:0:
70,169,109635,2,0,L|85:60,1,89.9999999999999,0|8,0:0|0:0,0:0:0:0:
150,36,110266,1,2,0:0:0:0:
225,66,110582,1,8,0:0:0:0:
297,30,110898,2,0,P|305:79|279:126,1,89.9999999999999,2|10,0:0|0:0,0:0:0:0:
242,180,111529,6,0,P|198:180|137:173,2,89.9999999999999,4|8|0,0:0|0:0|0:0,0:0:0:0:
312,220,112477,1,8,0:0:0:0:
390,239,112792,2,0,B|402:191|363:155|363:155|383:122|378:71,1,180,2|0,0:0|0:0,0:0:0:0:
303,38,113740,1,8,0:0:0:0:
224,58,114056,5,0,0:0:0:0:
174,121,114371,2,0,L|67:105,2,89.9999999999999,8|0|8,0:0|0:0|0:0,0:0:0:0:
245,159,115319,2,0,L|352:143,2,89.9999999999999,0|8|2,0:0|0:0|0:0,0:0:0:0:
176,201,116266,1,10,0:0:0:0:
240,249,116582,5,4,0:0:0:0:
320,237,116898,2,0,B|398:224|398:224|436:125,1,180,10|8,0:0|0:0,0:0:0:0:
372,76,117845,2,0,L|276:90,1,89.9999999999999,2|10,0:0|0:0,0:0:0:0:
213,47,118477,1,2,0:0:0:0:
184,123,118793,1,2,0:0:0:0:
119,74,119108,5,2,0:0:0:0:
103,153,119424,2,0,P|176:210|256:173,1,180,10|8,0:0|0:0,0:0:0:0:
317,137,120372,2,0,L|420:152,1,89.9999999999999,2|8,0:0|0:0,0:0:0:0:
411,230,121003,2,0,L|321:217,1,89.9999999999999,2|10,0:0|0:0,0:0:0:0:
249,180,121635,5,4,0:0:0:0:
216,106,121950,2,0,P|168:185|221:258,1,180,8|8,0:0|0:0,0:0:0:0:
277,296,122898,2,0,P|320:304|369:310,1,89.9999999999999,2|10,0:0|0:0,0:0:0:0:
443,286,123530,1,2,0:0:0:0:
473,211,123845,1,2,0:0:0:0:
410,158,124161,6,0,L|424:48,2,89.9999999999999,2|10|2,0:0|0:0|0:0,0:0:0:0:
351,214,125108,1,10,0:0:0:0:
288,265,125424,2,0,L|302:375,2,89.9999999999999,2|10|2,0:0|0:0|0:0,0:0:0:0:
231,206,126372,1,10,0:0:0:0:
288,148,126687,5,2,0:0:0:0:
220,103,127003,2,0,P|274:67|350:96,1,135,2|2,0:0|0:0,0:0:0:0:
402,132,127792,2,0,L|419:270,1,135,2|2,0:0|0:0,0:0:0:0:
377,336,128582,2,0,P|323:372|247:343,1,135,2|4,0:0|0:0,0:0:0:0:
