osu file format v14

[General]
AudioFilename: After School Days.mp3
AudioLeadIn: 1500
PreviewTime: 66935
Countdown: 0
SampleSet: Soft
StackLeniency: 0.4
Mode: 0
LetterboxInBreaks: 0
WidescreenStoryboard: 0

[Editor]
DistanceSpacing: 1.2
BeatDivisor: 4
GridSize: 4
TimelineZoom: 2.4

[Metadata]
Title:After School Days
TitleUnicode:アフタースクールデイズ
Artist:Nanamori-chu * Goraku-bu
ArtistUnicode:七森中☆ごらく部
Creator:Setz
Version:Fycho's Hard
Source:ゆるゆり なちゅやちゅみ!
Tags:Yuru Yuri OVA ED ending 津田美波 Nachuyachumi! Yuruyuri No_Dap Dap A_Mystery Fycho mikami shiori ootsubo yuka ookubo rumi tsuda minami YrYr 三上枝織 大坪由佳 大久保瑠美
BeatmapID:552287
BeatmapSetID:235229

[Difficulty]
HPDrainRate:6
CircleSize:4
OverallDifficulty:6
ApproachRate:8
SliderMultiplier:1.5
SliderTickRate:1

[Events]
//Background and Video events
0,0,"BG.png",0,0
//Break Periods
//Storyboard Layer 0 (Background)
//Storyboard Layer 1 (Fail)
//Storyboard Layer 2 (Pass)
//Storyboard Layer 3 (Foreground)
//Storyboard Sound Samples

[TimingPoints]
530,324.324324324324,4,2,1,50,1,0
530,-117.647058823529,4,2,1,50,0,0
10908,-100,4,2,1,70,0,0
21286,-111.111111111111,4,2,1,60,0,0
31665,-100,4,2,1,65,0,0
42043,-133.333333333333,4,2,1,65,0,0
52421,-100,4,2,1,65,0,0
62800,-100,4,2,1,75,0,0
64259,-100,4,2,1,20,0,0
65394,-100,4,2,1,70,0,0
67016,-133.333333333333,4,2,1,70,0,0
67989,-100,4,2,1,80,0,1
78286,-100,4,2,1,80,0,0
78367,-100,4,2,1,80,0,1
88665,-100,4,2,1,80,0,0
88746,-100,4,2,1,80,0,1
96692,-100,4,2,1,70,0,0
98800,-100,4,2,1,70,0,0

[Colours]
Combo1 : 0,128,192
Combo2 : 128,64,64
Combo3 : 255,128,255
Combo4 : 255,255,128
Combo5 : 255,128,128
Combo6 : 128,128,192

[HitObjects]
59,84,530,6,0,P|45:118|45:193,2,95.6250018239022,4|0|0,0:0|0:0|0:0,0:0:0:0:
138,57,1178,1,0,0:0:0:0:
193,118,1340,2,0,L|325:101,1,127.50000243187
397,131,1827,6,0,P|422:90|424:43,2,95.6250018239022,2|0|0,0:0|0:0|0:0,0:0:0:0:
340,191,2475,1,0,0:0:0:0:
358,272,2638,2,0,L|363:347,2,63.7500012159348,0|0|0,0:0|0:0|0:0,0:0:0:0:
275,261,3124,6,0,P|223:260|159:280,2,95.6250018239022,4|0|0,0:0|0:0|0:0,0:0:0:0:
340,191,3773,1,0,0:0:0:0:
340,191,3935,2,0,L|345:108,1,63.7500012159348
418,91,4259,1,0,0:0:0:0:
466,157,4421,6,0,P|475:228|450:263,2,95.6250018239022,2|0|0,0:0|0:0|0:0,0:0:0:0:
418,91,5070,2,0,L|355:107,1,63.7500012159348
276,129,5394,2,0,L|203:118,1,63.7500012159348
129,118,5719,6,0,P|37:128|0:102,1,127.50000243187,4|0,0:0|0:0,0:0:0:0:
123,233,6367,2,0,L|108:310,1,63.7500012159348
255,214,6854,1,0,0:0:0:0:
321,165,7016,6,0,P|413:175|450:149,1,127.50000243187,4|0,0:0|0:0,0:0:0:0:
327,280,7664,2,0,L|342:357,1,63.7500012159348
422,340,7989,2,0,L|409:277,1,63.7500012159348
428,196,8313,6,0,P|435:120|377:80,1,127.50000243187,4|0,0:0|0:0,0:0:0:0:
330,129,8800,1,0,0:0:0:0:
252,157,8962,1,4,0:0:0:0:
179,116,9124,2,0,P|140:164|153:224,1,127.50000243187,0|0,0:0|0:0,0:0:0:0:
183,302,9611,6,0,P|123:317|102:317,1,63.7500012159348,4|0,0:0|0:0,0:0:0:0:
199,202,9935,2,0,P|139:184|121:174,1,63.7500012159348,4|0,0:0|0:0,0:0:0:0:
313,202,10259,2,0,P|372:184|390:174,1,63.7500012159348,4|0,0:0|0:0,0:0:0:0:
329,302,10584,2,0,P|389:317|410:317,1,63.7500012159348,4|0,0:0|0:0,0:0:0:0:
256,320,10908,6,0,L|256:160,2,150,4|8|0,0:0|0:0|0:0,0:0:0:0:
330,370,11719,1,0,0:0:0:0:
415,341,11881,2,0,P|427:290|414:251,1,75,8|0,0:0|0:0,0:0:0:0:
368,197,12205,6,0,L|443:169,1,75,2|0,0:0|0:0,0:0:0:0:
438,170,12448,1,0,0:0:0:0:
438,170,12529,1,8,0:0:0:0:
444,80,12692,1,0,0:0:0:0:
357,54,12854,2,0,L|353:0,2,37.5,0|0|0,0:0|0:0|0:0,0:0:0:0:
306,128,13178,1,8,0:0:0:0:
306,128,13340,1,8,0:0:0:0:
230,176,13502,6,0,L|76:163,1,150,4|8,0:0|0:0,0:0:0:0:
22,91,13989,2,0,P|27:55|46:23,2,75
111,89,14475,1,8,0:0:0:0:
68,168,14638,1,0,0:0:0:0:
64,257,14800,5,2,0:0:0:0:
153,267,14962,2,0,L|147:306,2,37.5,0|0|8,0:0|0:0|0:0,0:0:0:0:
206,194,15286,1,0,0:0:0:0:
278,247,15448,2,0,P|339:244|369:236,1,75
352,240,15692,1,0,0:0:0:0:
352,240,15773,1,8,0:0:0:0:
420,299,15935,1,8,0:0:0:0:
483,234,16097,6,0,P|494:189|479:78,1,150,4|8,0:0|0:0,0:0:0:0:
408,34,16584,2,0,P|365:49|346:73,2,75,0|0|0,0:0|0:0|0:0,0:0:0:0:
410,123,17070,1,8,0:0:0:0:
325,153,17232,1,0,0:0:0:0:
237,132,17394,6,0,P|233:65|246:44,1,75,2|0,0:0|0:0,0:0:0:0:
235,59,17638,1,0,0:0:0:0:
235,59,17719,1,8,0:0:0:0:
157,104,17881,1,0,0:0:0:0:
70,78,18043,2,0,L|87:28,2,37.5,0|0|0,0:0|0:0|0:0,0:0:0:0:
41,163,18367,1,8,0:0:0:0:
41,163,18529,1,8,0:0:0:0:
103,228,18692,6,0,P|165:217|259:202,1,150,4|8,0:0|0:0,0:0:0:0:
340,203,19178,1,0,0:0:0:0:
426,177,19340,1,0,0:0:0:0:
426,177,19502,2,0,P|445:126|441:78,1,75,0|8,0:0|0:0,0:0:0:0:
376,48,19827,1,0,0:0:0:0:
287,66,19989,6,0,L|175:82,2,112.5,12|8|12,0:0|0:0|0:0,0:0:0:0:
128,162,20638,1,4,0:0:0:0:
128,162,20962,1,0,0:0:0:0:
59,343,21286,6,0,P|126:311|194:326,1,134.999995880127,4|8,0:0|0:0,0:0:0:0:
263,335,21773,2,0,P|333:342|398:288,1,134.999995880127,8|8,0:0|0:0,0:0:0:0:
450,260,22259,2,0,P|459:227|456:194,1,67.4999979400635,8|0,0:0|0:0,0:0:0:0:
398,137,22584,6,0,L|330:157,2,67.4999979400635,8|8|0,0:0|0:0|0:0,0:0:0:0:
370,60,23070,2,0,B|284:85|284:85|261:101|252:141,1,134.999995880127,8|8,0:0|0:0,0:0:0:0:
204,183,23557,1,8,0:0:0:0:
232,258,23719,1,0,0:0:0:0:
187,325,23881,6,0,P|121:336|60:308,1,134.999995880127,8|8,0:0|0:0,0:0:0:0:
21,238,24367,2,0,P|13:135|35:99,1,134.999995880127,8|8,0:0|0:0,0:0:0:0:
92,62,24854,1,8,0:0:0:0:
166,93,25016,1,0,0:0:0:0:
169,173,25178,5,8,0:0:0:0:
249,178,25340,2,0,L|240:244,1,67.4999979400635,8|0,0:0|0:0,0:0:0:0:
300,114,25665,2,0,P|375:95|451:108,1,134.999995880127,8|8,0:0|0:0,0:0:0:0:
431,101,26070,1,8,0:0:0:0:
431,101,26151,1,8,0:0:0:0:
461,176,26313,1,0,0:0:0:0:
405,234,26475,6,0,L|417:314,1,67.4999979400635,8|0,0:0|0:0,0:0:0:0:
334,309,26800,1,8,0:0:0:0:
253,317,26962,2,0,P|206:335|126:316,1,134.999995880127,8|8,0:0|0:0,0:0:0:0:
56,274,27448,2,0,P|64:213|55:189,1,67.4999979400635,8|0,0:0|0:0,0:0:0:0:
4,119,27773,6,0,P|35:129|69:128,1,67.4999979400635,8|8,0:0|0:0,0:0:0:0:
138,174,28097,1,0,0:0:0:0:
204,128,28259,2,0,P|261:95|326:109,1,134.999995880127,8|8,0:0|0:0,0:0:0:0:
373,175,28746,2,0,P|405:182|439:180,1,67.4999979400635,8|0,0:0|0:0,0:0:0:0:
467,255,29070,6,0,L|476:99,1,134.999995880127,8|8,0:0|0:0,0:0:0:0:
403,55,29557,1,8,0:0:0:0:
403,55,29638,1,0,0:0:0:0:
403,55,29719,2,0,P|345:62|325:72,1,67.4999979400635,0|8,0:0|0:0,0:0:0:0:
255,139,30043,2,0,P|294:157|327:161,1,67.4999979400635,8|0,0:0|0:0,0:0:0:0:
217,49,30367,5,8,0:0:0:0:
217,49,30529,1,8,0:0:0:0:
128,76,30692,2,0,L|132:151,1,67.4999979400635
180,220,31016,1,8,0:0:0:0:
56,188,31178,1,8,0:0:0:0:
56,188,31259,1,8,0:0:0:0:
56,188,31341,2,8,L|60:263,1,67.4999979400635,8|0,0:0|0:0,0:0:0:0:
132,333,31665,6,0,P|217:306|275:315,1,150,4|8,0:0|0:0,0:0:0:0:
356,355,32151,2,0,P|401:295|395:222,1,150,0|0,0:0|0:0,0:0:0:0:
331,159,32638,2,0,P|343:101|341:69,1,75,8|0,0:0|0:0,0:0:0:0:
173,113,32962,6,0,L|271:104,2,75,0|0|8,0:0|0:0|0:0,0:0:0:0:
115,182,33448,1,0,0:0:0:0:
26,163,33611,2,0,P|4:108|8:80,1,75
79,43,33935,2,0,P|124:80|134:106,1,75,8|8,0:0|0:0,0:0:0:0:
115,182,34259,6,0,L|94:355,1,150,0|8,0:0|0:0,0:0:0:0:
187,337,34746,2,0,P|234:350|319:290,1,150
386,254,35232,1,8,0:0:0:0:
392,344,35394,1,0,0:0:0:0:
473,276,35557,6,0,P|477:215|481:189,1,75
497,100,35881,2,0,P|438:119|400:130,1,75,8|0,0:0|0:0,0:0:0:0:
323,165,36205,2,0,P|332:122|336:88,1,75
251,57,36529,1,8,0:0:0:0:
201,127,36692,1,8,0:0:0:0:
113,107,36854,6,0,P|80:151|86:251,1,150,0|8,0:0|0:0,0:0:0:0:
120,323,37340,2,0,L|195:315,1,75
273,271,37665,1,0,0:0:0:0:
339,330,37827,2,0,P|359:299|362:262,1,75,8|0,0:0|0:0,0:0:0:0:
308,188,38151,6,0,P|340:139|433:125,1,150,0|8,0:0|0:0,0:0:0:0:
400,212,38638,1,0,0:0:0:0:
487,235,38800,2,0,P|455:284|362:298,1,150,0|8,0:0|0:0,0:0:0:0:
268,342,39286,1,8,0:0:0:0:
268,342,39448,6,0,L|274:252,1,75
301,161,39773,1,8,0:0:0:0:
188,226,39935,2,0,P|140:240|112:240,1,75
45,182,40259,1,0,0:0:0:0:
68,95,40421,1,8,0:0:0:0:
135,154,40584,1,8,0:0:0:0:
211,106,40746,6,0,L|216:23,1,75
362,45,41070,1,8,0:0:0:0:
294,109,41232,2,0,L|285:267,1,150,0|0,0:0|0:0,0:0:0:0:
334,326,41719,1,8,0:0:0:0:
334,326,41881,1,0,0:0:0:0:
424,304,42043,6,0,P|462:255|448:200,1,112.500004291535,4|0,0:0|0:0,0:0:0:0:
384,168,42529,1,8,0:0:0:0:
377,88,42692,2,0,L|253:79,1,112.500004291535,8|8,0:0|0:0,0:0:0:0:
109,51,43340,5,8,0:0:0:0:
109,51,43502,2,0,P|76:97|86:164,1,112.500004291535,8|8,0:0|0:0,0:0:0:0:
153,178,43989,2,0,L|157:246,1,56.2500021457673,8|0,0:0|0:0,0:0:0:0:
160,312,44313,1,8,0:0:0:0:
160,312,44638,6,0,L|283:287,1,112.500004291535,8|0,0:0|0:0,0:0:0:0:
328,342,45124,1,8,0:0:0:0:
328,342,45286,2,8,P|335:279|384:237,1,112.500004291535,8|8,0:0|0:0,0:0:0:0:
493,149,45935,5,8,0:0:0:0:
493,149,46097,2,0,P|412:112|395:77,1,112.500004291535,8|8,0:0|0:0,0:0:0:0:
324,76,46584,1,8,0:0:0:0:
266,129,46746,2,0,L|254:200,2,56.2500021457673,0|8|0,0:0|0:0|0:0,0:0:0:0:
327,230,47232,6,0,P|278:267|205:257,1,112.500004291535,4|0,0:0|0:0,0:0:0:0:
158,230,47719,1,8,0:0:0:0:
158,230,47881,2,0,P|131:237|102:250,1,56.2500021457673,8|0,0:0|0:0,0:0:0:0:
58,311,48205,1,8,0:0:0:0:
15,250,48367,1,0,0:0:0:0:
49,180,48529,5,8,0:0:0:0:
26,105,48692,2,0,P|98:83|137:65,1,112.500004291535,8|8,0:0|0:0,0:0:0:0:
198,22,49178,1,8,0:0:0:0:
386,48,49502,2,0,L|372:108,1,56.2500021457673,8|0,0:0|0:0,0:0:0:0:
292,116,49827,6,0,L|307:241,1,112.500004291535,4|0,0:0|0:0,0:0:0:0:
225,330,50313,1,8,0:0:0:0:
225,330,50475,2,0,L|231:258,1,56.2500021457673,8|0,0:0|0:0,0:0:0:0:
125,208,50800,2,0,L|201:201,1,56.2500021457673,8|0,0:0|0:0,0:0:0:0:
232,134,51124,6,0,L|352:165,1,112.500004291535,8|0,0:0|0:0,0:0:0:0:
389,224,51611,1,8,0:0:0:0:
463,198,51773,2,0,P|468:170|467:142,1,56.2500021457673,8|0,0:0|0:0,0:0:0:0:
445,67,52097,2,0,P|403:83|384:99,1,56.2500021457673,8|0,0:0|0:0,0:0:0:0:
307,67,52421,6,0,P|270:74|232:75,1,75,4|0,0:0|0:0,0:0:0:0:
134,36,52746,2,0,P|128:72|133:109,1,75,8|0,0:0|0:0,0:0:0:0:
94,209,53070,2,0,P|149:203|181:191,1,75,0|0,0:0|0:0,0:0:0:0:
273,174,53394,1,8,0:0:0:0:
242,262,53557,1,0,0:0:0:0:
317,319,53719,6,0,P|389:315|455:257,1,150,0|8,0:0|0:0,0:0:0:0:
427,172,54205,2,0,L|521:184,2,75,0|0|0,0:0|0:0|0:0,0:0:0:0:
454,29,54692,2,0,L|397:78,1,75,8|8,0:0|0:0,0:0:0:0:
304,108,55016,6,0,P|277:174|319:255,1,150,0|8,0:0|0:0,0:0:0:0:
400,265,55502,1,0,0:0:0:0:
400,363,55665,2,0,L|313:359,1,75
249,297,55989,1,8,0:0:0:0:
169,351,56151,1,0,0:0:0:0:
203,206,56313,6,0,P|69:197|35:196,1,150,0|8,0:0|0:0,0:0:0:0:
0,271,56800,1,0,0:0:0:0:
0,128,56962,2,0,P|0:82|17:44,1,75,0|0,0:0|0:0,0:0:0:0:
53,196,57286,1,8,0:0:0:0:
100,129,57448,1,8,0:0:0:0:
194,143,57611,6,0,P|240:136|291:117,1,75,4|2,0:0|0:0,0:0:0:0:
375,75,57935,2,0,P|358:118|349:172,1,75,8|2,0:0|0:0,0:0:0:0:
346,265,58259,2,0,P|316:228|274:193,1,75,0|2,0:0|0:0,0:0:0:0:
426,203,58584,1,8,0:0:0:0:
426,203,58746,1,2,0:0:0:0:
398,338,58908,6,0,P|362:348|324:353,1,75,4|2,0:0|0:0,0:0:0:0:
290,185,59232,2,0,P|317:210|339:240,1,75,8|2,0:0|0:0,0:0:0:0:
214,364,59557,2,0,P|222:327|237:292,1,75,0|2,0:0|0:0,0:0:0:0:
119,301,59881,1,8,0:0:0:0:
119,301,60043,1,8,0:0:0:0:
117,168,60205,6,0,P|139:197|166:223,1,75,4|2,0:0|0:0,0:0:0:0:
132,68,60529,2,0,P|94:72|58:83,1,75,8|2,0:0|0:0,0:0:0:0:
214,130,60854,2,0,P|228:95|237:58,1,75,0|2,0:0|0:0,0:0:0:0:
327,100,61178,1,8,0:0:0:0:
327,100,61340,1,2,0:0:0:0:
426,156,61502,6,0,L|417:59,1,75,8|2,0:0|0:0,0:0:0:0:
333,181,61827,2,0,L|339:255,1,75,8|2,0:0|0:0,0:0:0:0:
453,241,62151,2,0,L|444:144,1,75,8|2,0:0|0:0,0:0:0:0:
360,266,62476,2,8,L|366:340,1,75,8|2,0:0|0:0,0:0:0:0:
464,187,62800,5,4,0:0:0:0:
48,187,63448,1,4,0:0:0:0:
256,67,64097,5,4,0:0:0:0:
256,192,64178,12,0,65070,0:0:0:0:
256,192,65394,5,4,0:0:0:0:
256,192,65557,1,8,0:0:0:0:
148,88,65881,1,8,0:0:0:0:
364,88,66205,1,8,0:0:0:0:
256,276,66529,5,8,0:0:0:0:
256,276,66692,1,8,0:0:0:0:
108,340,67016,6,0,L|96:216,2,112.500004291535,0|0|4,0:0|0:0|0:0,0:0:0:0:
83,114,67989,6,0,L|168:121,1,75,4|2,0:0|0:0,0:0:0:0:
207,194,68313,2,0,L|290:187,1,75,8|2,0:0|0:0,0:0:0:0:
357,138,68638,1,0,0:0:0:0:
357,138,68719,1,8,0:0:0:0:
357,138,68800,1,0,0:0:0:0:
443,161,68962,2,0,P|452:195|444:236,1,75,8|2,0:0|0:0,0:0:0:0:
485,342,69286,6,0,P|399:301|332:310,1,150,0|8,0:0|0:0,0:0:0:0:
265,349,69773,1,2,0:0:0:0:
185,318,69935,2,0,L|188:266,2,37.5,0|8|0,0:0|0:0|0:0,0:0:0:0:
102,354,70259,2,0,L|97:272,1,75,8|8,0:0|0:0,0:0:0:0:
36,173,70584,6,0,P|77:212|183:193,1,150,4|8,0:0|0:0,0:0:0:0:
252,147,71070,2,0,P|262:110|265:73,1,75,2|0,0:0|0:0,0:0:0:0:
176,94,71394,1,2,0:0:0:0:
252,236,71557,2,0,P|262:273|265:310,1,75,8|2,0:0|0:0,0:0:0:0:
348,246,71881,6,0,P|390:215|505:220,1,150,4|8,0:0|0:0,0:0:0:0:
474,295,72367,2,0,L|494:146,1,150,2|2,0:0|0:0,0:0:0:0:
506,38,72854,2,0,P|455:58|428:62,1,75,8|8,0:0|0:0,0:0:0:0:
344,112,73178,6,0,L|247:105,1,75,4|2,0:0|0:0,0:0:0:0:
184,136,73502,1,8,0:0:0:0:
103,95,73665,1,2,0:0:0:0:
48,166,73827,2,0,L|39:210,2,37.5,0|8|0,0:0|0:0|0:0,0:0:0:0:
132,196,74151,2,0,L|138:288,1,75,8|2,0:0|0:0,0:0:0:0:
70,331,74475,6,0,P|138:361|213:323,1,150,0|8,0:0|0:0,0:0:0:0:
279,283,74962,1,2,0:0:0:0:
235,204,75124,2,0,L|239:164,2,37.5,0|8|0,0:0|0:0|0:0,0:0:0:0:
324,208,75448,2,0,L|404:203,1,75,8|8,0:0|0:0,0:0:0:0:
488,194,75773,6,0,P|524:108|492:53,2,150,4|8|0,0:0|0:0|0:0,0:0:0:0:
399,212,76584,1,2,0:0:0:0:
314,243,76746,2,0,L|308:336,1,75,8|0,0:0|0:0,0:0:0:0:
248,186,77070,6,0,L|88:169,1,150,4|8,0:0|0:0,0:0:0:0:
10,188,77557,1,2,0:0:0:0:
33,101,77719,2,0,L|52:48,1,37.5,2|8,0:0|0:0,0:0:0:0:
181,26,77962,2,0,L|168:61,1,37.5,2|8,0:0|0:0,0:0:0:0:
215,137,78205,1,8,0:0:0:0:
304,109,78367,6,0,P|334:173|284:258,1,150,4|8,0:0|0:0,0:0:0:0:
215,237,78854,1,2,0:0:0:0:
156,305,79016,2,0,L|95:292,2,37.5,0|8|0,0:0|0:0|0:0,0:0:0:0:
228,358,79340,2,0,L|310:350,1,75,8|2,0:0|0:0,0:0:0:0:
363,283,79665,6,0,P|449:324|516:315,1,150,0|8,0:0|0:0,0:0:0:0:
492,229,80152,1,2,0:0:0:0:
447,153,80314,2,0,L|396:164,2,37.5,0|8|0,0:0|0:0|0:0,0:0:0:0:
494,54,80638,2,0,L|405:75,1,75,8|8,0:0|0:0,0:0:0:0:
335,101,80963,6,0,P|294:62|188:81,1,150,4|8,0:0|0:0,0:0:0:0:
140,127,81449,2,0,P|130:164|127:201,1,75,2|0,0:0|0:0,0:0:0:0:
217,191,81773,1,2,0:0:0:0:
306,179,81936,2,0,P|303:216|293:252,1,75,8|2,0:0|0:0,0:0:0:0:
335,331,82260,6,0,P|293:362|178:357,1,150,4|8,0:0|0:0,0:0:0:0:
112,339,82746,2,0,L|132:190,1,150,2|2,0:0|0:0,0:0:0:0:
74,121,83233,2,0,P|125:101|152:97,1,75,8|8,0:0|0:0,0:0:0:0:
195,23,83557,6,0,L|292:30,1,75,4|2,0:0|0:0,0:0:0:0:
317,104,83881,1,8,0:0:0:0:
263,176,84044,1,2,0:0:0:0:
329,240,84206,2,0,L|338:196,2,37.5,0|8|0,0:0|0:0|0:0,0:0:0:0:
419,221,84530,2,0,L|423:295,1,75,8|2,0:0|0:0,0:0:0:0:
483,155,84854,6,0,P|415:125|340:163,1,150,0|8,0:0|0:0,0:0:0:0:
314,237,85341,1,2,0:0:0:0:
234,194,85503,1,0,0:0:0:0:
234,194,85584,1,8,0:0:0:0:
234,194,85665,1,0,0:0:0:0:
183,268,85827,2,0,L|100:263,1,75,8|8,0:0|0:0,0:0:0:0:
51,193,86152,6,0,P|15:279|47:334,2,150,4|8|0,0:0|0:0|0:0,0:0:0:0:
70,104,86963,1,2,0:0:0:0:
142,48,87125,2,0,L|211:88,1,75,8|2,0:0|0:0,0:0:0:0:
286,125,87448,6,0,P|349:104|436:122,1,150,4|8,0:0|0:0,0:0:0:0:
452,206,87935,1,2,0:0:0:0:
371,245,88097,1,0,0:0:0:0:
371,245,88178,1,8,0:0:0:0:
282,217,88340,1,8,0:0:0:0:
282,217,88421,2,0,P|282:301|276:337,1,112.5,8|0,0:0|0:0,0:0:0:0:
277,328,88746,6,0,P|228:338|176:327,1,75,4|2,0:0|0:0,0:0:0:0:
144,268,89070,1,8,0:0:0:0:
67,315,89232,1,2,0:0:0:0:
7,247,89394,2,0,L|8:168,1,75,0|2,0:0|0:0,0:0:0:0:
2,81,89719,1,8,0:0:0:0:
74,28,89881,1,2,0:0:0:0:
157,60,90043,6,0,P|185:116|143:190,1,150,4|8,0:0|0:0,0:0:0:0:
158,276,90529,2,0,L|163:353,1,75,2|0,0:0|0:0,0:0:0:0:
243,214,90854,1,2,0:0:0:0:
243,214,91016,2,0,L|244:290,1,75,8|10,0:0|0:0,0:0:0:0:
294,363,91340,6,0,P|375:347|454:338,1,150,4|8,0:0|0:0,0:0:0:0:
472,253,91827,1,2,0:0:0:0:
439,169,91989,1,0,0:0:0:0:
349,170,92151,2,0,L|352:81,2,75,2|8|2,0:0|0:0|0:0,0:0:0:0:
263,141,92638,5,4,0:0:0:0:
179,108,92800,1,2,0:0:0:0:
100,151,92962,1,8,0:0:0:0:
58,230,93124,2,0,P|66:296|138:328,1,150,2|0,0:0|0:0,0:0:0:0:
216,287,93611,2,0,L|221:376,1,75,8|8,0:0|0:0,0:0:0:0:
433,317,93935,6,0,P|363:282|282:322,1,150,4|8,0:0|0:0,0:0:0:0:
298,303,94421,1,2,0:0:0:0:
250,212,94584,1,0,0:0:0:0:
250,212,94665,2,0,L|258:98,1,112.5,8|8,0:0|0:0,0:0:0:0:
189,44,95070,1,0,0:0:0:0:
189,44,95232,6,0,L|114:52,1,75,8|2,0:0|0:0,0:0:0:0:
323,44,95557,2,0,L|397:52,1,75,8|2,0:0|0:0,0:0:0:0:
466,123,95881,1,8,0:0:0:0:
466,123,95962,2,0,L|477:203,1,75,8|0,0:0|0:0,0:0:0:0:
476,197,96205,2,0,L|463:287,1,75,8|8,0:0|0:0,0:0:0:0:
164,328,96692,5,12,0:0:0:0:
164,328,96854,1,8,0:0:0:0:
256,200,97178,1,8,0:0:0:0:
348,328,97502,1,8,0:0:0:0:
348,328,97664,1,8,0:0:0:0:
256,200,97989,1,8,0:0:0:0:
312,44,98313,5,8,0:0:0:0:
312,44,98475,1,8,0:0:0:0:
200,44,98638,1,8,0:0:0:0:
200,44,98800,1,8,0:0:0:0:
256,128,98962,1,8,0:0:0:0:
256,264,99286,5,12,0:0:0:0:
256,264,99448,1,8,0:0:0:0:
200,340,99773,5,8,0:0:0:0:
200,340,99935,1,8,0:0:0:0:
312,340,100098,1,8,0:0:0:0:
312,340,100260,1,12,0:0:0:0:
