osu file format v14

[General]
AudioFilename: After School Days.mp3
AudioLeadIn: 1500
PreviewTime: 66935
Countdown: 0
SampleSet: Soft
StackLeniency: 0.7
Mode: 0
LetterboxInBreaks: 0
WidescreenStoryboard: 0

[Editor]
DistanceSpacing: 1.3
BeatDivisor: 4
GridSize: 4
TimelineZoom: 1

[Metadata]
Title:After School Days
TitleUnicode:アフタースクールデイズ
Artist:Nanamori-chu * Goraku-bu
ArtistUnicode:七森中☆ごらく部
Creator:Setz
Version:A Mystery's Normal
Source:ゆるゆり なちゅやちゅみ!
Tags:Yuru Yuri OVA ED ending 津田美波 Nachuyachumi! Yuruyuri No_Dap Dap A_Mystery Fycho mikami shiori ootsubo yuka ookubo rumi tsuda minami YrYr 三上枝織 大坪由佳 大久保瑠美
BeatmapID:545226
BeatmapSetID:235229

[Difficulty]
HPDrainRate:4
CircleSize:3.5
OverallDifficulty:4
ApproachRate:5.5
SliderMultiplier:0.899999999999999
SliderTickRate:1

[Events]
//Background and Video events
0,0,"BG.png",0,0
//Break Periods
//Storyboard Layer 0 (Background)
//Storyboard Layer 1 (Fail)
//Storyboard Layer 2 (Pass)
//Storyboard Layer 3 (Foreground)
//Storyboard Sound Samples

[TimingPoints]
530,324.324324324324,4,2,1,70,1,0
530,-111.111111111111,4,2,1,70,0,0
10908,-100,4,2,1,70,0,0
13827,-100,4,2,2,60,0,0
13989,-100,4,2,1,70,0,0
19016,-100,4,2,2,60,0,0
19178,-100,4,2,1,70,0,0
24205,-100,4,2,2,60,0,0
24367,-100,4,2,1,70,0,0
34584,-100,4,2,2,60,0,0
34746,-100,4,2,1,70,0,0
37178,-100,4,2,2,60,0,0
37340,-100,4,2,1,70,0,0
39773,-100,4,2,2,60,0,0
39935,-100,4,2,1,70,0,0
42043,-111.111111111111,4,2,1,70,0,0
50800,-111.111111111111,4,2,2,60,0,0
50962,-111.111111111111,4,2,1,70,0,0
52421,-100,4,2,1,70,0,0
67989,-100,4,2,1,70,0,1
73502,-100,4,2,2,60,0,1
73665,-100,4,2,1,70,0,1
76097,-100,4,2,2,60,0,1
76259,-100,4,2,1,70,0,1
77394,-100,4,2,2,60,0,1
77557,-100,4,2,1,70,0,1
78286,-100,4,2,1,70,0,0
78367,-100,4,2,1,70,0,1
79340,-100,4,2,2,60,0,1
79502,-100,4,2,1,70,0,1
81286,-100,4,2,2,60,0,1
81448,-100,4,2,1,70,0,1
86475,-100,4,2,2,60,0,1
86638,-100,4,2,1,70,0,1
87773,-100,4,2,2,60,0,1
87935,-100,4,2,1,70,0,1
88665,-100,4,2,1,70,0,0
88746,-100,4,2,1,70,0,1
90367,-100,4,2,2,60,0,1
90529,-100,4,2,1,70,0,1
96529,-100,4,2,1,70,0,1
100259,-100,4,2,1,70,0,0

[Colours]
Combo1 : 0,128,192
Combo2 : 128,64,64
Combo3 : 255,128,255
Combo4 : 255,255,128
Combo5 : 255,128,128
Combo6 : 128,128,192

[HitObjects]
128,108,530,6,0,P|209:127|294:120,1,161.999995056152,4|0,0:0|0:0,0:0:0:0:
324,158,1340,1,2,0:0:0:0:
295,259,1665,1,2,0:0:0:0:
295,259,1827,2,0,L|196:272,1,80.9999975280762,2|0,0:0|0:0,0:0:0:0:
142,193,2475,2,0,L|58:181,1,80.9999975280762
122,268,3124,6,0,P|206:236|213:161,1,161.999995056152,4|0,0:0|0:0,0:0:0:0:
247,129,3935,2,0,L|338:121,1,80.9999975280762,2|2,0:0|0:0,0:0:0:0:
380,120,4421,1,2,0:0:0:0:
391,224,4746,1,0,0:0:0:0:
321,303,5070,1,0,0:0:0:0:
379,384,5395,1,0,0:0:0:0:
454,310,5719,6,0,P|497:240|474:159,1,161.999995056152,4|0,0:0|0:0,0:0:0:0:
445,126,6529,1,2,0:0:0:0:
362,60,6854,1,2,0:0:0:0:
362,60,7016,2,0,P|302:71|273:66,1,80.9999975280762,4|0,0:0|0:0,0:0:0:0:
181,97,7665,2,0,P|172:147|176:189,1,80.9999975280762
206,276,8313,5,4,0:0:0:0:
206,276,8962,1,4,0:0:0:0:
206,276,9611,5,2,0:0:0:0:
307,295,9935,1,2,0:0:0:0:
326,194,10259,1,2,0:0:0:0:
225,175,10584,1,2,0:0:0:0:
206,276,10908,6,0,P|145:293|96:279,1,89.9999999999999,4|8,0:0|0:0,0:0:0:0:
53,192,11557,2,0,L|37:134,1,45,0|2,0:0|0:0,0:0:0:0:
82,107,11881,2,0,L|66:49,1,45,8|2,0:0|0:0,0:0:0:0:
112,23,12205,2,0,L|231:10,1,89.9999999999999,2|8,0:0|0:0,0:0:0:0:
289,89,12854,2,0,P|290:133|312:171,1,89.9999999999999,0|8,0:0|0:0,0:0:0:0:
410,235,13502,6,0,P|365:276|236:256,1,180,2|0,0:0|0:0,0:0:0:0:
200,241,14313,2,0,P|152:223|99:238,1,89.9999999999999,2|2,0:0|0:0,0:0:0:0:
65,196,14800,1,2,0:0:0:0:
51,79,15124,1,8,0:0:0:0:
152,19,15448,1,0,0:0:0:0:
256,72,15773,2,0,L|268:128,1,45,8|0,0:0|0:0,0:0:0:0:
317,142,16097,6,0,P|386:121|402:89,1,89.9999999999999,6|8,0:0|0:0,0:0:0:0:
428,220,16746,2,0,L|418:281,1,45,0|2,0:0|0:0,0:0:0:0:
369,292,17070,2,0,L|359:353,1,45,8|2,0:0|0:0,0:0:0:0:
314,371,17394,2,0,P|254:356|214:359,1,89.9999999999999,2|8,0:0|0:0,0:0:0:0:
127,293,18043,1,0,0:0:0:0:
149,178,18367,1,8,0:0:0:0:
262,150,18692,6,0,P|334:174|439:136,1,180,2|0,0:0|0:0,0:0:0:0:
480,173,19502,2,0,P|494:237|475:278,1,89.9999999999999,2|2,0:0|0:0,0:0:0:0:
443,298,19989,6,0,L|429:371,2,67.4999999999999,4|4|4,0:0|0:0|0:0,0:0:0:0:
392,268,20638,1,4,0:0:0:0:
281,61,21286,6,0,P|238:74|182:67,1,89.9999999999999,4|8,0:0|0:0,0:0:0:0:
156,115,21773,2,0,B|137:203|137:203|154:264,1,135,0|8,0:0|0:0,0:0:0:0:
258,203,22584,2,0,L|361:199,1,89.9999999999999,0|8,0:0|0:0,0:0:0:0:
396,231,23070,2,0,B|377:284|404:320|404:320|375:358,1,135,0|8,0:0|0:0,0:0:0:0:
274,298,23881,6,0,L|138:269,2,135,2|0|8,0:0|0:0|0:0,0:0:0:0:
373,235,25178,1,0,0:0:0:0:
373,235,25340,2,0,P|398:185|394:131,1,89.9999999999999
316,67,25989,2,0,P|292:40|268:32,1,45,0|8,0:0|0:0,0:0:0:0:
220,136,26475,6,0,P|162:138|120:156,1,89.9999999999999,2|8,0:0|0:0,0:0:0:0:
92,192,26962,2,0,P|111:251|79:338,1,135,0|8,0:0|0:0,0:0:0:0:
205,349,27773,2,0,P|291:351|321:339,1,89.9999999999999,0|8,0:0|0:0,0:0:0:0:
340,315,28259,2,0,B|363:228|363:228|404:204,1,135,0|8,0:0|0:0,0:0:0:0:
378,90,29070,6,0,L|291:139,1,89.9999999999999,2|8,0:0|0:0,0:0:0:0:
251,168,29557,1,0,0:0:0:0:
153,232,29881,2,0,P|85:246|48:234,1,89.9999999999999
99,129,30529,2,0,P|152:89|181:86,1,89.9999999999999
230,99,31016,2,0,P|287:125|325:117,1,89.9999999999999,0|8,0:0|0:0,0:0:0:0:
425,154,31665,6,0,P|435:198|438:245,1,89.9999999999999,4|8,0:0|0:0,0:0:0:0:
346,315,32313,2,0,P|269:319|218:328,1,89.9999999999999,0|8,0:0|0:0,0:0:0:0:
200,216,32962,1,0,0:0:0:0:
88,180,33286,1,8,0:0:0:0:
88,63,33611,1,0,0:0:0:0:
200,27,33935,1,8,0:0:0:0:
268,122,34259,6,0,P|360:146|422:120,2,135,2|0|8,0:0|0:0|0:0,0:0:0:0:
164,177,35557,2,0,L|146:282,1,89.9999999999999,0|8,0:0|0:0,0:0:0:0:
229,350,36205,1,0,0:0:0:0:
341,319,36529,1,8,0:0:0:0:
366,204,36854,6,0,P|343:137|374:58,2,135,2|0|8,0:0|0:0|0:0,0:0:0:0:
445,290,38151,2,0,P|379:321|343:317,1,89.9999999999999,0|8,0:0|0:0,0:0:0:0:
264,257,38800,2,0,P|220:245|159:247,1,89.9999999999999,0|8,0:0|0:0,0:0:0:0:
102,153,39448,6,0,B|84:131|78:112|78:112|98:66|67:18,2,135,2|0|8,0:0|0:0|0:0,0:0:0:0:
192,228,40746,2,0,P|267:246|286:241,1,89.9999999999999,0|8,0:0|0:0,0:0:0:0:
335,234,41232,2,0,P|392:246|446:325,1,135,0|8,0:0|0:0,0:0:0:0:
341,339,42043,6,0,L|197:353,1,121.499996292114,4|0,0:0|0:0,0:0:0:0:
167,356,42692,1,2,0:0:0:0:
99,275,43016,1,8,0:0:0:0:
147,181,43340,2,0,P|228:141|242:93,1,121.499996292114,2|0,0:0|0:0,0:0:0:0:
266,71,43989,2,0,L|354:62,1,80.9999975280762,2|8,0:0|0:0,0:0:0:0:
424,134,44638,6,0,L|436:270,1,121.499996292114,2|0,0:0|0:0,0:0:0:0:
440,307,45286,1,2,0:0:0:0:
351,364,45611,1,8,0:0:0:0:
273,292,45935,2,0,P|198:272|139:292,1,121.499996292114,2|0,0:0|0:0,0:0:0:0:
104,276,46584,2,0,P|74:222|78:183,1,80.9999975280762,2|8,0:0|0:0,0:0:0:0:
149,131,47232,6,0,B|241:128|241:128|277:91,2,121.499996292114,4|0|8,0:0|0:0|0:0,0:0:0:0:
201,222,48529,2,0,L|296:219,1,80.9999975280762,2|0,0:0|0:0,0:0:0:0:
340,307,49178,2,0,L|435:310,1,80.9999975280762,2|8,0:0|0:0,0:0:0:0:
488,228,49827,6,0,P|506:152|488:87,1,121.499996292114,2|0,0:0|0:0,0:0:0:0:
451,85,50475,2,0,B|384:81|384:81|320:51,1,121.499996292114,2|0,0:0|0:0,0:0:0:0:
286,80,51124,2,0,P|262:144|268:172,1,80.9999975280762,2|0,0:0|0:0,0:0:0:0:
280,204,51611,2,0,P|293:262|268:325,1,121.499996292114,2|8,0:0|0:0,0:0:0:0:
156,333,52421,6,0,P|83:346|48:335,1,89.9999999999999,4|8,0:0|0:0,0:0:0:0:
16,238,53070,2,0,P|89:225|124:236,1,89.9999999999999,0|8,0:0|0:0,0:0:0:0:
185,144,53719,1,2,0:0:0:0:
300,164,54043,1,8,0:0:0:0:
336,275,54367,2,0,L|401:287,1,45
419,239,54692,2,0,L|488:252,1,45,8|0,0:0|0:0,0:0:0:0:
498,200,55016,6,0,P|515:152|503:93,1,89.9999999999999,2|8,0:0|0:0,0:0:0:0:
403,68,55665,2,0,L|288:78,1,89.9999999999999,0|8,0:0|0:0,0:0:0:0:
196,84,56313,1,2,0:0:0:0:
83,49,56638,1,8,0:0:0:0:
19,146,56962,2,0,L|4:217,1,45
33,243,57286,2,0,L|20:313,1,45,8|0,0:0|0:0,0:0:0:0:
56,336,57611,6,0,P|122:335|172:362,1,89.9999999999999,4|8,0:0|0:0,0:0:0:0:
254,306,58259,2,0,P|301:317|356:313,1,89.9999999999999,0|8,0:0|0:0,0:0:0:0:
423,230,58908,2,0,L|436:182,1,45,4|0,0:0|0:0,0:0:0:0:
403,137,59232,2,0,L|414:92,1,45,8|0,0:0|0:0,0:0:0:0:
378,46,59557,2,0,P|339:27|280:31,1,89.9999999999999,0|8,0:0|0:0,0:0:0:0:
201,99,60205,5,4,0:0:0:0:
162,209,60529,1,8,0:0:0:0:
253,282,60854,2,0,P|273:329|265:383,1,89.9999999999999,2|8,0:0|0:0,0:0:0:0:
326,383,61340,2,0,L|436:368,1,89.9999999999999
473,361,61827,1,8,0:0:0:0:
399,269,62151,2,0,L|354:276,1,45
308,239,62475,2,0,L|263:247,1,45,8|0,0:0|0:0,0:0:0:0:
217,209,62800,5,4,0:0:0:0:
388,59,63448,1,4,0:0:0:0:
436,289,64097,1,4,0:0:0:0:
256,192,64259,12,4,66692,0:0:0:0:
152,106,67989,6,0,L|261:111,1,89.9999999999999,4|8,0:0|0:0,0:0:0:0:
337,178,68638,2,0,L|329:232,1,45
364,270,68962,2,0,L|356:324,1,45,8|0,0:0|0:0,0:0:0:0:
388,363,69286,1,2,0:0:0:0:
473,282,69611,1,10,0:0:0:0:
424,175,69935,1,2,0:0:0:0:
509,94,70260,1,10,0:0:0:0:
395,67,70584,6,0,P|336:107|320:143,1,89.9999999999999,2|8,0:0|0:0,0:0:0:0:
283,160,71070,2,0,P|220:185|136:143,1,135,0|8,0:0|0:0,0:0:0:0:
77,250,71881,2,0,L|86:343,1,89.9999999999999,0|8,0:0|0:0,0:0:0:0:
140,360,72367,2,0,B|172:372|200:360|203:349|236:336|272:352,1,135,0|8,0:0|0:0,0:0:0:0:
380,310,73178,6,0,P|420:244|388:135,1,180,4|0,0:0|0:0,0:0:0:0:
306,219,74151,1,8,0:0:0:0:
265,328,74475,2,0,L|159:340,1,89.9999999999999,2|8,0:0|0:0,0:0:0:0:
128,230,75124,2,0,L|22:218,1,89.9999999999999,0|8,0:0|0:0,0:0:0:0:
135,153,75773,6,0,P|194:190|175:291,1,180,2|0,0:0|0:0,0:0:0:0:
295,283,76746,2,0,L|358:298,1,45,8|0,0:0|0:0,0:0:0:0:
392,271,77070,2,0,P|432:223|420:127,1,135,2|0,0:0|0:0,0:0:0:0:
405,101,77719,1,0,0:0:0:0:
298,148,78043,1,8,0:0:0:0:
219,60,78367,6,0,L|163:51,1,45,4|0,0:0|0:0,0:0:0:0:
125,85,78692,2,0,L|69:76,1,45,8|0,0:0|0:0,0:0:0:0:
32,110,79016,2,0,P|8:177|52:256,1,135
82,257,79665,2,0,L|197:269,1,89.9999999999999,2|8,0:0|0:0,0:0:0:0:
255,347,80313,2,0,L|370:335,1,89.9999999999999,0|8,0:0|0:0,0:0:0:0:
442,274,80962,6,0,B|430:242|430:242|463:197|440:145,2,135,2|0|8,0:0|0:0|0:0,0:0:0:0:
363,186,82259,2,0,L|312:208,2,45,2|0|8,0:0|0:0|0:0,0:0:0:0:
363,127,82746,2,0,P|377:60|341:-13,1,135,0|8,0:0|0:0,0:0:0:0:
260,71,83557,6,0,L|161:84,1,89.9999999999999,4|8,0:0|0:0,0:0:0:0:
158,198,84205,2,0,L|247:186,1,89.9999999999999,0|8,0:0|0:0,0:0:0:0:
363,172,84854,1,2,0:0:0:0:
474,209,85178,1,10,0:0:0:0:
474,326,85502,1,2,0:0:0:0:
363,362,85827,1,10,0:0:0:0:
294,267,86151,6,0,P|187:273|141:225,1,180,2|0,0:0|0:0,0:0:0:0:
164,110,87124,2,0,L|157:48,1,45,8|0,0:0|0:0,0:0:0:0:
204,28,87448,2,0,P|269:14|349:66,1,135,2|0,0:0|0:0,0:0:0:0:
351,95,88097,1,0,0:0:0:0:
332,210,88421,1,8,0:0:0:0:
225,257,88746,6,0,L|112:239,1,89.9999999999999,4|8,0:0|0:0,0:0:0:0:
62,152,89394,2,0,P|57:77|67:43,1,89.9999999999999,0|8,0:0|0:0,0:0:0:0:
174,36,90043,2,0,B|204:61|204:61|258:47|296:93,2,135,2|0|8,0:0|0:0|0:0,0:0:0:0:
229,139,91340,6,0,P|291:168|332:155,1,89.9999999999999,2|8,0:0|0:0,0:0:0:0:
404,234,91989,2,0,L|387:333,1,89.9999999999999,0|8,0:0|0:0,0:0:0:0:
276,287,92638,2,0,L|283:242,2,45,2|0|8,0:0|0:0|0:0,0:0:0:0:
231,324,93124,2,0,P|168:342|87:302,1,135,0|8,0:0|0:0,0:0:0:0:
172,223,93935,5,4,0:0:0:0:
150,108,94259,1,10,0:0:0:0:
265,86,94584,1,2,0:0:0:0:
287,201,94908,1,10,0:0:0:0:
399,168,95232,2,0,P|397:240|371:278,1,89.9999999999999,2|8,0:0|0:0,0:0:0:0:
284,306,95881,2,0,P|212:293|184:298,1,89.9999999999999,2|8,0:0|0:0,0:0:0:0:
256,192,96529,12,4,100259,0:0:0:0:
