osu file format v14

[General]
AudioFilename: After School Days.mp3
AudioLeadIn: 1500
PreviewTime: 66935
Countdown: 0
SampleSet: Soft
StackLeniency: 0.7
Mode: 0
LetterboxInBreaks: 0
WidescreenStoryboard: 0

[Editor]
DistanceSpacing: 1.8
BeatDivisor: 4
GridSize: 4
TimelineZoom: 1.8

[Metadata]
Title:After School Days
TitleUnicode:アフタースクールデイズ
Artist:Nanamori-chu * Goraku-bu
ArtistUnicode:七森中☆ごらく部
Creator:Setz
Version:Memory
Source:ゆるゆり なちゅやちゅみ!
Tags:Yuru Yuri OVA ED ending 津田美波 Nachuyachumi! Yuruyuri No_Dap Dap A_Mystery Fycho mikami shiori ootsubo yuka ookubo rumi tsuda minami YrYr 三上枝織 大坪由佳 大久保瑠美
BeatmapID:545228
BeatmapSetID:235229

[Difficulty]
HPDrainRate:6.5
CircleSize:4
OverallDifficulty:8
ApproachRate:9
SliderMultiplier:1.8
SliderTickRate:1

[Events]
//Background and Video events
0,0,"BG.png",0,0
//Break Periods
//Storyboard Layer 0 (Background)
//Storyboard Layer 1 (Fail)
//Storyboard Layer 2 (Pass)
//Storyboard Layer 3 (Foreground)
//Storyboard Sound Samples

[TimingPoints]
530,324.324324324324,4,2,1,70,1,0
530,-117.647058823529,4,2,1,70,0,0
10908,-100,4,2,1,70,0,0
20800,-100,4,2,1,35,0,0
21286,-111.111111111111,4,2,1,60,0,0
31665,-100,4,2,1,65,0,0
42043,-153.846153846154,4,2,1,65,0,0
52421,-117.647058823529,4,2,1,65,0,0
57611,-111.111111111111,4,2,1,65,0,0
58908,-105.263157894737,4,2,1,65,0,0
60205,-100,4,2,1,65,0,0
62800,-100,4,2,1,75,0,0
64259,-100,4,2,1,20,0,0
65394,-100,4,2,1,70,0,0
67340,-117.647058823529,4,2,1,70,0,0
67665,-142.857142857143,4,2,1,70,0,0
67989,-97.0873786407767,4,2,1,70,0,1
78286,-94.3396226415094,4,2,1,70,0,0
78367,-94.3396226415094,4,2,1,70,0,1
88665,-94.3396226415094,4,2,1,70,0,0
88746,-94.3396226415094,4,2,1,70,0,1
96692,-94.3396226415094,4,2,1,75,0,1
100259,-94.3396226415094,4,2,1,70,0,0

[Colours]
Combo1 : 0,128,192
Combo2 : 128,64,64
Combo3 : 255,128,255
Combo4 : 255,255,128
Combo5 : 255,128,128
Combo6 : 128,128,192

[HitObjects]
97,104,530,21,4,0:0:0:0:
158,191,692,1,0,0:0:0:0:
158,191,773,1,0,0:0:0:0:
158,191,854,1,2,0:0:0:0:
250,138,1016,1,2,0:0:0:0:
371,248,1178,2,0,P|376:285|372:338,1,76.5000014591217,2|2,0:0|0:0,0:0:0:0:
374,324,1665,1,2,0:0:0:0:
348,155,1827,5,4,0:0:0:0:
424,247,1989,1,0,0:0:0:0:
424,247,2070,1,0,0:0:0:0:
424,247,2151,1,2,0:0:0:0:
494,155,2313,1,2,0:0:0:0:
487,310,2475,1,2,0:0:0:0:
464,330,2557,1,2,0:0:0:0:
434,337,2638,1,2,0:0:0:0:
405,334,2719,1,2,0:0:0:0:
375,324,2800,1,2,0:0:0:0:
345,317,2881,1,2,0:0:0:0:
314,318,2962,1,2,0:0:0:0:
284,326,3043,1,2,0:0:0:0:
255,336,3124,5,4,0:0:0:0:
151,362,3286,1,0,0:0:0:0:
151,362,3367,1,0,0:0:0:0:
151,362,3448,1,2,0:0:0:0:
122,258,3611,1,2,0:0:0:0:
257,151,3773,2,0,L|257:240,1,76.5000014591217,2|2,0:0|0:0,0:0:0:0:
257,228,4259,1,2,0:0:0:0:
348,58,4421,5,4,0:0:0:0:
438,178,4584,1,0,0:0:0:0:
426,206,4665,1,0,0:0:0:0:
412,233,4746,2,0,P|373:230|331:235,1,76.5000014591217,2|2,0:0|0:0,0:0:0:0:
230,279,5070,2,0,L|219:324,1,38.2500007295609,2|2,0:0|0:0,0:0:0:0:
171,181,5232,2,0,L|181:130,1,38.2500007295609,2|2,0:0|0:0,0:0:0:0:
61,213,5394,2,0,L|54:251,1,38.2500007295609,2|2,0:0|0:0,0:0:0:0:
90,109,5557,2,0,L|86:71,1,38.2500007295609,2|2,0:0|0:0,0:0:0:0:
252,12,5719,6,0,P|263:51|263:90,1,76.5000014591217,4|0,0:0|0:0,0:0:0:0:
260,117,5962,1,0,0:0:0:0:
252,146,6043,1,2,0:0:0:0:
187,229,6205,1,2,0:0:0:0:
86,71,6367,2,0,P|81:113|87:153,1,76.5000014591217,2|2,0:0|0:0,0:0:0:0:
85,146,6854,1,2,0:0:0:0:
164,329,7016,5,4,0:0:0:0:
262,369,7178,1,0,0:0:0:0:
262,369,7259,1,0,0:0:0:0:
262,369,7340,1,2,0:0:0:0:
327,284,7502,1,2,0:0:0:0:
404,126,7665,2,0,P|366:120|328:126,1,76.5000014591217,2|2,0:0|0:0,0:0:0:0:
298,135,7908,1,2,0:0:0:0:
269,146,7989,1,2,0:0:0:0:
239,152,8070,1,2,0:0:0:0:
208,153,8151,1,2,0:0:0:0:
179,143,8232,1,2,0:0:0:0:
155,130,8313,5,4,0:0:0:0:
66,69,8475,1,0,0:0:0:0:
66,69,8557,1,0,0:0:0:0:
66,69,8638,1,2,0:0:0:0:
42,197,8800,1,2,0:0:0:0:
231,35,8962,2,0,P|268:29|306:35,1,76.5000014591217,6|2,0:0|0:0,0:0:0:0:
306,35,9448,1,2,0:0:0:0:
225,264,9611,5,4,0:0:0:0:
303,191,9773,1,0,0:0:0:0:
303,191,9854,1,0,0:0:0:0:
303,191,9935,1,2,0:0:0:0:
201,156,10097,1,0,0:0:0:0:
91,298,10259,2,0,L|89:218,1,76.5000014591217,2|2,0:0|0:0,0:0:0:0:
254,32,10584,2,0,L|256:119,1,76.5000014591217,2|0,0:0|0:0,0:0:0:0:
399,305,10908,6,0,P|416:261|412:211,1,90,4|0,0:0|0:0,0:0:0:0:
409,187,11151,1,0,0:0:0:0:
399,157,11232,1,10,0:0:0:0:
329,62,11394,1,2,0:0:0:0:
189,228,11557,2,0,P|177:186|189:138,1,90,2|2,0:0|0:0,0:0:0:0:
272,61,11881,1,8,0:0:0:0:
303,173,12043,1,2,0:0:0:0:
187,359,12205,5,4,0:0:0:0:
92,290,12367,1,0,0:0:0:0:
87,258,12448,1,0,0:0:0:0:
93,227,12529,1,10,0:0:0:0:
148,123,12692,1,2,0:0:0:0:
199,227,12854,1,2,0:0:0:0:
203,258,12935,1,2,0:0:0:0:
218,285,13016,1,2,0:0:0:0:
238,308,13097,1,2,0:0:0:0:
264,325,13178,1,10,0:0:0:0:
291,340,13259,1,2,0:0:0:0:
321,348,13340,1,10,0:0:0:0:
352,348,13421,1,2,0:0:0:0:
383,343,13502,6,0,P|428:331|464:308,1,90,4|0,0:0|0:0,0:0:0:0:
484,283,13746,1,0,0:0:0:0:
499,255,13827,1,10,0:0:0:0:
475,140,13989,1,2,0:0:0:0:
268,188,14151,2,0,P|258:142|270:93,1,90,2|2,0:0|0:0,0:0:0:0:
384,52,14475,1,8,0:0:0:0:
475,140,14638,1,2,0:0:0:0:
384,343,14800,5,6,0:0:0:0:
250,363,14962,1,0,0:0:0:0:
219,368,15043,1,0,0:0:0:0:
188,359,15124,1,10,0:0:0:0:
115,267,15286,1,2,0:0:0:0:
119,93,15448,2,0,L|117:139,1,45,2|2,0:0|0:0,0:0:0:0:
193,266,15611,2,0,L|196:218,1,45,2|2,0:0|0:0,0:0:0:0:
235,80,15773,2,0,L|233:142,1,45,10|2,0:0|0:0,0:0:0:0:
315,249,15935,2,0,L|318:196,1,45,10|2,0:0|0:0,0:0:0:0:
348,51,16097,6,0,P|396:47|445:62,1,90,4|0,0:0|0:0,0:0:0:0:
463,72,16340,1,0,0:0:0:0:
488,90,16421,1,10,0:0:0:0:
394,161,16584,1,2,0:0:0:0:
449,340,16746,2,0,P|404:344|360:335,1,90,2|2,0:0|0:0,0:0:0:0:
255,283,17070,1,8,0:0:0:0:
153,340,17232,1,2,0:0:0:0:
205,125,17394,5,4,0:0:0:0:
291,45,17557,1,0,0:0:0:0:
319,31,17638,1,0,0:0:0:0:
349,22,17719,2,0,P|393:15|454:23,1,90,10|2,0:0|0:0,0:0:0:0:
488,134,18043,1,2,0:0:0:0:
435,248,18205,1,2,0:0:0:0:
410,267,18286,1,2,0:0:0:0:
379,274,18367,1,10,0:0:0:0:
347,271,18448,1,2,0:0:0:0:
317,259,18529,1,10,0:0:0:0:
289,242,18611,1,2,0:0:0:0:
268,218,18692,6,0,P|234:187|183:177,1,90,6|2,0:0|0:0,0:0:0:0:
160,176,18935,1,0,0:0:0:0:
128,179,19016,1,10,0:0:0:0:
167,287,19178,1,2,0:0:0:0:
308,81,19340,2,0,P|342:50|393:40,1,90,2|2,0:0|0:0,0:0:0:0:
491,83,19665,1,8,0:0:0:0:
389,141,19827,1,2,0:0:0:0:
174,51,19989,5,4,0:0:0:0:
389,141,20232,1,4,0:0:0:0:
187,275,20475,1,4,0:0:0:0:
268,133,20638,1,4,0:0:0:0:
304,325,21286,6,0,P|315:285|304:232,1,80.9999975280763,4|0,0:0|0:0,0:0:0:0:
179,138,21611,2,0,P|168:176|172:216,1,80.9999975280763,8|2,0:0|0:0,0:0:0:0:
303,119,21935,2,0,P|343:109|397:116,1,80.9999975280763
489,149,22259,1,8,0:0:0:0:
407,227,22421,1,0,0:0:0:0:
223,74,22584,6,0,P|183:64|129:71,1,80.9999975280763,2|0,0:0|0:0,0:0:0:0:
50,130,22908,1,8,0:0:0:0:
151,303,23070,2,0,P|236:333|316:322,1,161.999995056153,2|0,0:0|0:0,0:0:0:0:
333,319,23475,1,0,0:0:0:0:
359,308,23557,1,8,0:0:0:0:
463,264,23719,1,0,0:0:0:0:
327,75,23881,6,0,P|317:117|327:172,1,80.9999975280763,2|0,0:0|0:0,0:0:0:0:
389,244,24205,1,8,0:0:0:0:
241,106,24367,2,0,P|207:96|160:99,1,80.9999975280763,2|0,0:0|0:0,0:0:0:0:
190,208,24692,1,0,0:0:0:0:
393,51,24854,2,0,P|427:41|473:49,1,80.9999975280763,8|0,0:0|0:0,0:0:0:0:
435,150,25178,5,2,0:0:0:0:
354,313,25340,1,0,0:0:0:0:
271,106,25502,1,8,0:0:0:0:
174,311,25665,2,0,P|140:321|92:316,1,80.9999975280763,2|0,0:0|0:0,0:0:0:0:
127,210,25989,1,0,0:0:0:0:
154,203,26070,1,0,0:0:0:0:
182,204,26151,1,8,0:0:0:0:
293,226,26313,1,0,0:0:0:0:
431,73,26475,6,0,P|443:120|422:168,1,80.9999975280763,2|0,0:0|0:0,0:0:0:0:
336,265,26800,1,8,0:0:0:0:
248,60,26962,2,0,P|162:36|95:69,1,161.999995056153,2|0,0:0|0:0,0:0:0:0:
177,158,27448,1,8,0:0:0:0:
122,258,27611,1,0,0:0:0:0:
274,354,27773,6,0,P|310:353|365:326,1,80.9999975280763,2|0,0:0|0:0,0:0:0:0:
442,269,28097,1,8,0:0:0:0:
287,155,28259,2,0,P|282:113|300:69,1,80.9999975280763,2|0,0:0|0:0,0:0:0:0:
397,28,28584,1,0,0:0:0:0:
413,50,28665,1,0,0:0:0:0:
418,77,28746,1,8,0:0:0:0:
362,211,28908,1,0,0:0:0:0:
260,28,29070,6,0,P|213:22|160:36,1,80.9999975280763,2|0,0:0|0:0,0:0:0:0:
73,66,29394,1,8,0:0:0:0:
124,251,29557,2,0,P|201:279|285:242,1,161.999995056153,2|0,0:0|0:0,0:0:0:0:
366,177,30043,5,8,0:0:0:0:
275,96,30205,1,0,0:0:0:0:
371,35,30367,2,0,P|416:40|455:63,1,80.9999975280763,2|0,0:0|0:0,0:0:0:0:
429,271,30692,2,0,P|384:266|345:243,1,80.9999975280763,8|0,0:0|0:0,0:0:0:0:
275,167,31016,1,2,0:0:0:0:
228,63,31178,1,2,0:0:0:0:
201,53,31259,1,2,0:0:0:0:
172,56,31340,1,8,0:0:0:0:
77,142,31502,1,2,0:0:0:0:
159,356,31665,6,0,P|205:368|264:358,1,90,4|0,0:0|0:0,0:0:0:0:
354,317,31989,1,8,0:0:0:0:
273,231,32151,2,0,L|275:139,1,90,2|0,0:0|0:0,0:0:0:0:
327,36,32475,1,0,0:0:0:0:
410,119,32638,1,8,0:0:0:0:
206,231,32800,1,0,0:0:0:0:
358,361,32962,6,0,P|409:369|459:355,1,90,2|0,0:0|0:0,0:0:0:0:
479,210,33286,2,0,P|428:202|378:216,1,90,8|2,0:0|0:0,0:0:0:0:
297,281,33611,1,0,0:0:0:0:
266,288,33692,1,0,0:0:0:0:
235,282,33773,1,0,0:0:0:0:
144,207,33935,2,0,L|146:107,1,90,8|0,0:0|0:0,0:0:0:0:
91,314,34259,6,0,P|134:325|183:319,1,90,2|0,0:0|0:0,0:0:0:0:
297,281,34584,1,8,0:0:0:0:
90,169,34746,1,2,0:0:0:0:
266,71,34908,2,0,P|223:60|174:66,1,90,2|0,0:0|0:0,0:0:0:0:
58,105,35232,1,8,0:0:0:0:
154,185,35394,1,0,0:0:0:0:
340,25,35557,6,0,P|384:114|353:200,1,180,2|8,0:0|0:0,0:0:0:0:
265,119,36043,1,0,0:0:0:0:
154,185,36205,1,2,0:0:0:0:
168,213,36286,1,0,0:0:0:0:
190,235,36367,1,0,0:0:0:0:
334,237,36529,2,0,P|346:194|332:140,1,90,8|0,0:0|0:0,0:0:0:0:
281,332,36854,6,0,P|329:344|393:329,1,90,2|0,0:0|0:0,0:0:0:0:
465,273,37178,1,8,0:0:0:0:
372,201,37340,2,0,L|368:99,1,90,2|0,0:0|0:0,0:0:0:0:
258,253,37665,1,0,0:0:0:0:
155,308,37827,1,8,0:0:0:0:
59,159,37989,1,0,0:0:0:0:
249,27,38151,6,0,P|294:20|351:33,1,90,2|0,0:0|0:0,0:0:0:0:
408,253,38475,2,0,P|363:260|319:253,1,90,8|0,0:0|0:0,0:0:0:0:
220,190,38800,1,2,0:0:0:0:
193,172,38881,1,0,0:0:0:0:
162,166,38962,1,0,0:0:0:0:
157,308,39124,2,0,P|191:344|239:365,1,90,8|0,0:0|0:0,0:0:0:0:
341,165,39448,6,0,P|353:210|340:257,1,90,2|0,0:0|0:0,0:0:0:0:
263,337,39773,1,8,0:0:0:0:
94,178,39935,2,0,P|84:134|96:91,1,90,2|0,0:0|0:0,0:0:0:0:
182,13,40259,1,0,0:0:0:0:
268,92,40421,1,8,0:0:0:0:
189,179,40584,1,0,0:0:0:0:
322,16,40746,6,0,P|365:8|409:19,1,90,2|0,0:0|0:0,0:0:0:0:
365,127,41070,1,8,0:0:0:0:
260,179,41232,1,2,0:0:0:0:
297,289,41394,1,2,0:0:0:0:
175,120,41557,1,2,0:0:0:0:
372,184,41719,1,10,0:0:0:0:
175,249,41881,1,2,0:0:0:0:
297,80,42043,6,0,P|357:73|416:82,1,116.999994644165,4|0,0:0|0:0,0:0:0:0:
464,185,42529,1,0,0:0:0:0:
375,284,42692,2,0,L|320:265,1,58.4999973220826
153,244,43016,2,0,L|208:225,1,58.4999973220826,8|0,0:0|0:0,0:0:0:0:
395,138,43340,6,0,P|407:83|394:21,1,116.999994644165,0|2,0:0|0:0,0:0:0:0:
292,80,43827,1,0,0:0:0:0:
241,185,43989,2,0,P|211:198|175:197,1,58.4999973220826,2|2,0:0|0:0,0:0:0:0:
91,128,44313,1,8,0:0:0:0:
91,128,44638,6,0,P|79:184|91:241,1,116.999994644165
191,302,45124,1,0,0:0:0:0:
243,185,45286,2,0,L|267:119,1,58.4999973220826
300,274,45611,2,0,L|324:340,1,58.4999973220826,8|0,0:0|0:0,0:0:0:0:
345,103,45935,6,0,P|407:84|460:94,1,116.999994644165,0|2,0:0|0:0,0:0:0:0:
411,200,46421,1,0,0:0:0:0:
462,310,46584,2,0,P|436:320|398:320,1,58.4999973220826,2|2,0:0|0:0,0:0:0:0:
299,274,46908,1,8,0:0:0:0:
299,274,47232,6,0,P|236:307|185:303,1,116.999994644165,4|0,0:0|0:0,0:0:0:0:
81,264,47719,1,0,0:0:0:0:
129,157,47881,2,0,L|157:93,1,58.4999973220826
166,252,48205,2,0,L|194:309,1,58.4999973220826,8|0,0:0|0:0,0:0:0:0:
267,92,48529,6,0,L|387:78,1,116.999994644165,2|0,0:0|0:0,0:0:0:0:
438,182,49016,1,0,0:0:0:0:
395,290,49178,2,0,L|258:305,1,116.999994644165,0|8,0:0|0:0,0:0:0:0:
54,235,49827,6,0,P|64:176|46:112,1,116.999994644165,2|0,0:0|0:0,0:0:0:0:
128,33,50313,1,0,0:0:0:0:
230,89,50475,2,0,P|286:77|350:74,1,116.999994644165,2|8,0:0|0:0,0:0:0:0:
413,350,51124,6,0,P|357:362|293:365,1,116.999994644165,2|0,0:0|0:0,0:0:0:0:
181,343,51611,1,2,0:0:0:0:
103,254,51773,2,0,P|71:300|65:360,1,116.999994644165,2|8,0:0|0:0,0:0:0:0:
364,353,52421,6,0,P|405:352|454:330,1,76.5000014591217,4|0,0:0|0:0,0:0:0:0:
485,243,52746,1,8,0:0:0:0:
420,157,52908,2,0,L|416:69,1,76.5000014591217,0|0,0:0|0:0,0:0:0:0:
330,215,53232,1,0,0:0:0:0:
276,88,53394,1,8,0:0:0:0:
180,187,53557,1,0,0:0:0:0:
72,30,53719,6,0,P|34:93|45:176,1,153.000002918243,0|10,0:0|0:0,0:0:0:0:
98,259,54205,1,0,0:0:0:0:
178,329,54367,1,2,0:0:0:0:
208,326,54448,1,0,0:0:0:0:
236,337,54529,1,2,0:0:0:0:
340,361,54692,2,0,P|381:367|429:350,1,76.5000014591217,8|0,0:0|0:0,0:0:0:0:
464,138,55016,6,0,P|427:129|389:135,1,76.5000014591217,2|0,0:0|0:0,0:0:0:0:
301,195,55340,1,8,0:0:0:0:
237,109,55502,1,0,0:0:0:0:
161,265,55665,1,0,0:0:0:0:
96,179,55827,1,0,0:0:0:0:
325,174,55989,1,8,0:0:0:0:
74,201,56151,1,0,0:0:0:0:
270,222,56313,6,0,P|313:225|349:240,1,76.5000014591217,2|0,0:0|0:0,0:0:0:0:
426,305,56638,2,0,P|451:271|455:229,1,76.5000014591217,10|0,0:0|0:0,0:0:0:0:
433,133,56962,1,2,0:0:0:0:
416,107,57043,1,0,0:0:0:0:
389,90,57124,1,2,0:0:0:0:
288,53,57286,1,8,0:0:0:0:
182,71,57448,1,0,0:0:0:0:
129,225,57611,6,0,L|217:225,1,80.9999975280763,4|0,0:0|0:0,0:0:0:0:
362,105,57935,2,0,P|402:100|442:107,1,80.9999975280763,8|0,0:0|0:0,0:0:0:0:
367,357,58259,2,0,P|327:362|288:356,1,80.9999975280763,2|0,0:0|0:0,0:0:0:0:
268,153,58584,1,8,0:0:0:0:
258,258,58746,1,0,0:0:0:0:
161,203,58908,5,4,0:0:0:0:
362,210,59070,1,0,0:0:0:0:
146,311,59232,1,8,0:0:0:0:
173,89,59394,1,0,0:0:0:0:
343,343,59557,2,0,P|385:334|422:305,1,85.4999977169037,2|0,0:0|0:0,0:0:0:0:
469,210,59881,1,8,0:0:0:0:
421,109,60043,1,0,0:0:0:0:
221,370,60205,6,0,P|126:349|76:280,1,180,4|8,0:0|0:0,0:0:0:0:
45,174,60692,1,0,0:0:0:0:
143,69,60854,2,0,P|182:54|241:69,1,90,2|0,0:0|0:0,0:0:0:0:
197,174,61178,1,8,0:0:0:0:
327,338,61340,2,0,P|419:368|486:322,1,180,2|0,0:0|0:0,0:0:0:0:
404,177,61827,6,0,P|411:223|400:267,1,90,8|0,0:0|0:0,0:0:0:0:
316,348,62151,1,0,0:0:0:0:
285,356,62232,1,0,0:0:0:0:
253,352,62313,1,0,0:0:0:0:
146,303,62475,2,0,P|136:258|163:202,1,90,8|0,0:0|0:0,0:0:0:0:
299,82,62800,5,4,0:0:0:0:
354,36,63448,1,4,0:0:0:0:
409,82,64097,1,4,0:0:0:0:
256,192,64259,12,0,65232,0:0:0:0:
159,100,65394,5,6,0:0:0:0:
255,308,65557,1,2,0:0:0:0:
255,308,65881,5,2,0:0:0:0:
255,308,66205,1,2,0:0:0:0:
255,308,66529,5,2,0:0:0:0:
363,99,66692,1,2,0:0:0:0:
126,83,67016,6,0,P|190:106|261:102,1,135,2|0,0:0|0:0,0:0:0:0:
333,180,67340,6,0,P|269:203|207:197,1,114.750002188683,2|0,0:0|0:0,0:0:0:0:
125,274,67665,6,0,P|189:297|227:301,1,94.499997116089,8|0,0:0|0:0,0:0:0:0:
380,298,67989,6,0,P|423:280|460:242,1,92.6999992220307,4|0,0:0|0:0,0:0:0:0:
409,61,68313,2,0,P|366:79|329:117,1,92.6999992220307,8|0,0:0|0:0,0:0:0:0:
294,235,68638,1,2,0:0:0:0:
269,256,68719,1,0,0:0:0:0:
237,265,68800,1,2,0:0:0:0:
209,138,68962,1,8,0:0:0:0:
339,355,69124,1,0,0:0:0:0:
498,205,69286,6,0,P|507:158|498:104,1,92.6999992220307,2|0,0:0|0:0,0:0:0:0:
329,28,69611,2,0,P|323:73|332:119,1,92.6999992220307,8|0,0:0|0:0,0:0:0:0:
381,239,69935,1,2,0:0:0:0:
367,268,70016,1,0,0:0:0:0:
339,285,70097,1,0,0:0:0:0:
212,228,70259,2,0,P|203:182|208:136,1,92.6999992220307,8|0,0:0|0:0,0:0:0:0:
272,328,70584,6,0,P|214:344|105:270,1,185.399998444061,2|8,0:0|0:0,0:0:0:0:
64,163,71070,1,2,0:0:0:0:
142,59,71232,1,0,0:0:0:0:
170,43,71313,1,0,0:0:0:0:
202,39,71394,1,0,0:0:0:0:
330,61,71557,2,0,L|330:161,1,92.6999992220307,8|0,0:0|0:0,0:0:0:0:
197,125,71881,5,2,0:0:0:0:
403,243,72043,1,2,0:0:0:0:
251,312,72205,1,8,0:0:0:0:
330,61,72367,1,2,0:0:0:0:
473,126,72529,2,0,P|483:175|468:224,1,92.6999992220307
382,312,72854,1,8,0:0:0:0:
382,312,73016,1,8,0:0:0:0:
242,60,73178,6,0,P|209:27|164:14,1,92.6999992220307,4|0,0:0|0:0,0:0:0:0:
54,146,73502,2,0,P|86:178|131:191,1,92.6999992220307,8|0,0:0|0:0,0:0:0:0:
270,176,73827,1,2,0:0:0:0:
301,167,73908,1,0,0:0:0:0:
332,174,73989,1,0,0:0:0:0:
433,271,74151,2,0,P|446:319|423:371,1,92.6999992220307,8|0,0:0|0:0,0:0:0:0:
239,113,74475,6,0,P|226:65|249:13,1,92.6999992220307,2|2,0:0|0:0,0:0:0:0:
282,210,74800,2,0,P|234:223|182:200,1,92.6999992220307,8|0,0:0|0:0,0:0:0:0:
107,114,75124,1,2,0:0:0:0:
79,96,75205,1,0,0:0:0:0:
45,93,75286,1,0,0:0:0:0:
31,221,75448,2,0,P|18:269|41:321,1,92.6999992220307,8|0,0:0|0:0,0:0:0:0:
220,113,75773,6,0,P|233:69|219:25,1,92.6999992220307,2|0,0:0|0:0,0:0:0:0:
99,73,76097,1,10,0:0:0:0:
331,191,76259,1,0,0:0:0:0:
128,282,76421,1,2,0:0:0:0:
243,341,76584,1,0,0:0:0:0:
362,160,76746,1,8,0:0:0:0:
395,303,76908,1,0,0:0:0:0:
190,60,77070,6,0,P|102:71|39:152,1,185.399998444061,2|8,0:0|0:0,0:0:0:0:
42,271,77557,1,0,0:0:0:0:
151,340,77719,1,2,0:0:0:0:
182,347,77800,1,2,0:0:0:0:
213,340,77881,1,2,0:0:0:0:
324,273,78043,1,10,0:0:0:0:
324,273,78124,1,2,0:0:0:0:
324,273,78205,1,10,0:0:0:0:
445,30,78367,6,0,P|461:80|435:136,1,95.4000001455689,4|0,0:0|0:0,0:0:0:0:
267,225,78692,2,0,P|254:179|270:135,1,95.4000001455689,8|0,0:0|0:0,0:0:0:0:
394,185,79016,1,2,0:0:0:0:
402,217,79097,1,0,0:0:0:0:
394,249,79178,1,2,0:0:0:0:
314,356,79340,1,8,0:0:0:0:
188,135,79502,1,0,0:0:0:0:
100,335,79665,6,0,P|149:350|206:348,1,95.4000001455689,2|0,0:0|0:0,0:0:0:0:
280,150,79989,2,0,P|231:135|174:137,1,95.4000001455689,8|0,0:0|0:0,0:0:0:0:
82,217,80313,1,2,0:0:0:0:
82,217,80394,1,0,0:0:0:0:
82,217,80475,1,0,0:0:0:0:
195,289,80638,2,0,P|193:336|172:378,1,95.4000001455689,8|0,0:0|0:0,0:0:0:0:
128,179,80962,6,0,P|210:160|300:216,1,190.800000291138,2|8,0:0|0:0,0:0:0:0:
352,333,81448,1,2,0:0:0:0:
462,257,81611,1,0,0:0:0:0:
470,224,81692,1,0,0:0:0:0:
464,191,81773,1,0,0:0:0:0:
363,102,81935,2,0,P|311:96|264:103,1,95.4000001455689,8|0,0:0|0:0,0:0:0:0:
134,166,82259,5,2,0:0:0:0:
340,284,82421,1,2,0:0:0:0:
188,353,82583,1,8,0:0:0:0:
315,101,82746,2,0,P|413:122|468:202,1,190.800000291138,2|0,0:0|0:0,0:0:0:0:
447,323,83232,1,8,0:0:0:0:
447,323,83394,1,8,0:0:0:0:
183,198,83557,6,0,L|176:99,1,95.4000001455689,4|0,0:0|0:0,0:0:0:0:
310,6,83881,2,0,L|316:101,1,95.4000001455689,8|0,0:0|0:0,0:0:0:0:
327,234,84205,1,2,0:0:0:0:
323,267,84286,1,0,0:0:0:0:
308,296,84367,1,0,0:0:0:0:
195,367,84529,2,0,P|147:380|93:356,1,95.4000001455689,8|0,0:0|0:0,0:0:0:0:
353,173,84853,6,0,P|401:160|453:181,1,95.4000001455689,2|2,0:0|0:0,0:0:0:0:
256,216,85178,2,0,P|243:168|269:108,1,95.4000001455689,8|0,0:0|0:0,0:0:0:0:
359,37,85502,1,2,0:0:0:0:
392,35,85584,1,0,0:0:0:0:
423,46,85665,1,0,0:0:0:0:
492,160,85827,2,0,P|501:201|486:260,1,95.4000001455689,8|0,0:0|0:0,0:0:0:0:
255,128,86151,6,0,P|243:81|252:35,1,95.4000001455689,2|0,0:0|0:0,0:0:0:0:
378,81,86475,1,10,0:0:0:0:
146,199,86637,1,0,0:0:0:0:
349,290,86799,1,2,0:0:0:0:
234,349,86962,1,0,0:0:0:0:
115,168,87124,1,8,0:0:0:0:
99,317,87286,1,0,0:0:0:0:
287,68,87448,6,0,P|375:79|441:166,1,190.800000291138,2|8,0:0|0:0,0:0:0:0:
468,287,87935,1,0,0:0:0:0:
350,350,88097,1,2,0:0:0:0:
317,357,88178,1,2,0:0:0:0:
284,351,88259,1,2,0:0:0:0:
158,306,88421,1,8,0:0:0:0:
158,306,88584,1,8,0:0:0:0:
53,55,88746,6,0,P|25:96|17:160,1,95.4000001455689,4|0,0:0|0:0,0:0:0:0:
126,245,89070,2,0,P|154:204|162:140,1,95.4000001455689,8|0,0:0|0:0,0:0:0:0:
246,55,89394,1,2,0:0:0:0:
409,178,89557,1,0,0:0:0:0:
249,306,89719,1,10,0:0:0:0:
326,115,89881,1,0,0:0:0:0:
173,241,90043,6,0,P|87:243|22:155,1,190.800000291138,2|8,0:0|0:0,0:0:0:0:
66,40,90529,1,2,0:0:0:0:
199,22,90692,1,0,0:0:0:0:
231,14,90773,1,0,0:0:0:0:
263,21,90854,1,0,0:0:0:0:
394,42,91016,1,8,0:0:0:0:
394,42,91178,1,8,0:0:0:0:
477,323,91340,6,0,P|509:222|469:125,1,190.800000291138,2|8,0:0|0:0,0:0:0:0:
394,42,91827,1,0,0:0:0:0:
309,144,91989,2,0,P|263:155|206:141,1,95.4000001455689,0|0,0:0|0:0,0:0:0:0:
263,21,92313,1,8,0:0:0:0:
271,270,92475,1,2,0:0:0:0:
114,143,92638,5,2,0:0:0:0:
157,269,92800,1,2,0:0:0:0:
299,79,92962,2,0,P|345:68|402:82,1,95.4000001455689,8|2,0:0|0:0,0:0:0:0:
466,187,93286,1,0,0:0:0:0:
466,187,93367,1,0,0:0:0:0:
466,187,93448,1,0,0:0:0:0:
392,299,93611,1,8,0:0:0:0:
392,299,93773,1,8,0:0:0:0:
203,78,93935,6,0,P|97:71|41:127,1,190.800000291138,4|8,0:0|0:0,0:0:0:0:
47,259,94421,1,0,0:0:0:0:
164,193,94584,2,0,L|259:193,1,95.4000001455689,2|0,0:0|0:0,0:0:0:0:
338,332,94908,2,0,P|385:340|433:332,1,95.4000001455689,8|0,0:0|0:0,0:0:0:0:
499,53,95232,6,0,P|406:38|308:55,1,190.800000291138,2|8,0:0|0:0,0:0:0:0:
166,92,95719,1,0,0:0:0:0:
107,222,95881,1,2,0:0:0:0:
116,254,95962,1,0,0:0:0:0:
139,277,96043,1,0,0:0:0:0:
229,178,96205,1,8,0:0:0:0:
38,345,96367,1,8,0:0:0:0:
106,222,96529,1,2,0:0:0:0:
166,92,96692,5,10,0:0:0:0:
257,327,96854,1,10,0:0:0:0:
257,327,97178,1,10,0:0:0:0:
257,327,97502,5,10,0:0:0:0:
348,92,97664,1,10,0:0:0:0:
348,92,97989,1,10,0:0:0:0:
348,92,98313,5,10,0:0:0:0:
380,355,98475,1,10,0:0:0:0:
200,158,98638,1,10,0:0:0:0:
460,213,98800,1,10,0:0:0:0:
217,321,98962,1,10,0:0:0:0:
217,321,99286,5,10,0:0:0:0:
348,92,99448,1,10,0:0:0:0:
348,92,99773,5,10,0:0:0:0:
314,351,99935,1,10,0:0:0:0:
462,239,100097,1,10,0:0:0:0:
201,202,100259,1,6,0:0:0:0:
