osu file format v14

[General]
AudioFilename: After School Days.mp3
AudioLeadIn: 1500
PreviewTime: 66935
Countdown: 0
SampleSet: Soft
StackLeniency: 0.7
Mode: 0
LetterboxInBreaks: 0
WidescreenStoryboard: 0

[Editor]
DistanceSpacing: 1
BeatDivisor: 2
GridSize: 4
TimelineZoom: 1

[Metadata]
Title:After School Days
TitleUnicode:アフタースクールデイズ
Artist:Nanamori-chu * Goraku-bu
ArtistUnicode:七森中☆ごらく部
Creator:Setz
Version:Easy
Source:ゆるゆり なちゅやちゅみ!
Tags:Yuru Yuri OVA ED ending 津田美波 Nachuyachumi! Yuruyuri No_Dap Dap A_Mystery Fycho mikami shiori ootsubo yuka ookubo rumi tsuda minami YrYr 三上枝織 大坪由佳 大久保瑠美
BeatmapID:545227
BeatmapSetID:235229

[Difficulty]
HPDrainRate:2.5
CircleSize:3
OverallDifficulty:3
ApproachRate:3
SliderMultiplier:0.799999999999999
SliderTickRate:1

[Events]
//Background and Video events
0,0,"BG.png",0,0
//Break Periods
//Storyboard Layer 0 (Background)
//Storyboard Layer 1 (Fail)
//Storyboard Layer 2 (Pass)
//Storyboard Layer 3 (Foreground)
//Storyboard Sound Samples

[TimingPoints]
530,324.324324324324,4,2,1,55,1,0
10908,-100,4,2,1,70,0,0
21286,-100,4,2,1,60,0,0
31665,-100,4,2,1,65,0,0
62800,-100,4,2,1,75,0,0
64259,-100,4,2,1,35,0,0
66692,-100,4,2,1,60,0,0
67989,-100,4,2,1,70,0,1
78286,-100,4,2,1,70,0,0
78367,-100,4,2,1,70,0,1
88665,-100,4,2,1,70,0,0
88746,-100,4,2,1,70,0,1
96692,-100,4,2,1,30,0,1
100259,-100,4,2,1,60,0,0

[Colours]
Combo1 : 0,128,192
Combo2 : 128,64,64
Combo3 : 255,128,255
Combo4 : 255,255,128
Combo5 : 255,128,128
Combo6 : 128,128,192

[HitObjects]
52,259,530,6,0,P|125:286|211:251,1,160,4|0,0:0|0:0,0:0:0:0:
254,110,1827,1,2,0:0:0:0:
391,192,2475,1,0,0:0:0:0:
307,328,3124,6,0,P|232:353|158:326,1,160,4|0,0:0|0:0,0:0:0:0:
69,193,4421,1,2,0:0:0:0:
158,60,5070,1,0,0:0:0:0:
306,118,5719,6,0,P|333:191|298:277,1,160,4|0,0:0|0:0,0:0:0:0:
160,329,7016,1,4,0:0:0:0:
75,193,7665,1,0,0:0:0:0:
183,75,8313,6,0,P|256:48|342:83,1,160,4|4,0:0|0:0,0:0:0:0:
460,167,9611,2,0,P|474:208|463:258,1,79.9999999999999,10|10,0:2|0:2,0:0:0:0:
391,214,10259,2,0,P|356:232|317:240,1,79.9999999999999,10|10,0:2|0:2,0:0:0:0:
301,318,10908,6,0,P|241:261|259:186,1,160,4|0,0:0|0:0,0:0:0:0:
309,131,11881,1,8,0:0:0:0:
348,61,12205,2,0,B|310:41|265:63|265:63|226:59|185:61,1,160,2|2,0:0|0:0,0:0:0:0:
31,59,13502,6,0,B|11:97|33:142|33:142|29:181|31:222,1,160,2|2,0:0|0:0,0:0:0:0:
48,293,14475,1,8,0:0:0:0:
127,304,14800,2,0,B|203:331|195:276|294:304,1,160,2|0,0:0|0:0,0:0:0:0:
361,321,15773,1,10,0:0:0:0:
415,379,16097,6,0,P|439:305|388:245,1,160,4|0,0:0|0:0,0:0:0:0:
249,171,17394,2,0,P|200:111|225:38,1,160,4|0,0:0|0:0,0:0:0:0:
279,97,18367,1,8,0:0:0:0:
249,171,18692,6,0,B|303:243|205:243|250:341,1,160,2|0,0:0|0:0,0:0:0:0:
397,361,19989,2,0,P|463:362|491:276,1,160,4|6,0:0|0:0,0:0:0:0:
386,151,21286,6,0,B|447:169|502:133,2,120,4|2|8,0:0|0:0|0:0,0:0:0:0:
318,107,22584,2,0,P|242:92|161:115,1,160
105,168,23557,1,8,0:0:0:0:
149,236,23881,6,0,B|198:236|198:236|233:261|281:237,2,120,2|2|8,0:0|0:0|0:0,0:0:0:0:
105,168,25178,2,0,P|69:225|113:308,1,160,0|0,0:0|0:0,0:0:0:0:
258,348,26475,6,0,P|319:358|377:302,2,120,2|2|8,0:0|0:0|0:0,0:0:0:0:
300,279,27773,2,0,L|254:116,1,160
193,75,28746,1,8,0:0:0:0:
130,124,29070,6,0,L|95:238,2,120,2|2|8,0:0|0:0|0:0,0:0:0:0:
124,44,30367,2,0,P|163:50|194:75,1,79.9999999999999,0|8,0:0|0:0,0:0:0:0:
232,145,31016,2,0,P|265:167|304:170,1,79.9999999999999,2|10,0:0|0:0,0:0:0:0:
347,102,31665,6,0,P|383:146|378:206,2,120,4|2|8,0:0|0:0|0:0,0:0:0:0:
289,45,32962,2,0,P|201:34|134:80,1,160,2|0,0:0|0:0,0:0:0:0:
120,146,33935,1,8,0:0:0:0:
172,207,34259,6,0,P|116:225|54:191,2,120,2|2|8,0:0|0:0|0:0,0:0:0:0:
223,144,35557,2,0,P|251:213|198:284,1,160,2|0,0:0|0:0,0:0:0:0:
132,306,36529,1,8,0:0:0:0:
63,264,36854,6,0,P|47:207|65:145,2,120,2|2|8,0:0|0:0|0:0,0:0:0:0:
131,306,38151,2,0,L|295:317,1,160,2|0,0:0|0:0,0:0:0:0:
369,300,39124,1,8,0:0:0:0:
437,258,39448,6,0,P|453:201|435:139,2,120,2|2|8,0:0|0:0|0:0,0:0:0:0:
369,300,40746,2,0,L|209:289,1,160,2|0,0:0|0:0,0:0:0:0:
70,209,42043,6,0,B|86:75|216:40,1,240,4|8,0:0|0:0,0:0:0:0:
296,29,43340,1,0,0:0:0:0:
452,61,43989,1,0,0:0:0:0:
363,194,44638,6,0,B|347:328|217:363,1,240,0|8,0:0|0:0,0:0:0:0:
136,363,45935,1,0,0:0:0:0:
27,245,46584,1,0,0:0:0:0:
94,100,47232,6,0,B|218:66|168:157|325:114,1,240,4|8,0:0|0:0,0:0:0:0:
345,36,48529,2,0,P|404:129|299:191,1,240,2|8,0:0|0:0,0:0:0:0:
237,203,49827,5,2,0:0:0:0:
154,340,50475,1,2,0:0:0:0:
71,201,51124,2,0,B|91:143|28:132|73:70,2,120,2|0|8,0:0|0:0|0:0,0:0:0:0:
28,268,52421,6,0,P|118:264|148:203,1,160,4|0,0:0|0:0,0:0:0:0:
186,139,53394,1,8,0:0:0:0:
259,108,53719,2,0,P|327:93|427:116,1,160
446,183,54692,1,8,0:0:0:0:
428,260,55016,6,0,P|350:277|272:261,1,160,2|0,0:0|0:0,0:0:0:0:
199,228,55989,1,8,0:0:0:0:
125,260,56313,2,0,P|133:181|198:147,1,160,2|0,0:0|0:0,0:0:0:0:
199,228,57286,5,8,0:0:0:0:
271,261,57611,2,0,L|271:349,2,79.9999999999999,4|8|0,0:0|0:0|0:0,0:0:0:0:
344,229,58584,1,8,0:0:0:0:
414,192,58908,2,0,L|414:99,2,79.9999999999999,4|8|0,0:0|0:0|0:0,0:0:0:0:
454,260,59881,1,8,0:0:0:0:
416,330,60205,6,0,P|343:349|256:329,1,160,4|0,0:0|0:0,0:0:0:0:
191,292,61178,1,8,0:0:0:0:
175,213,61502,2,0,L|160:126,1,79.9999999999999,0|8,0:0|0:0,0:0:0:0:
237,108,62151,2,0,L|250:186,1,79.9999999999999,0|8,0:0|0:0,0:0:0:0:
267,265,62800,5,2,0:0:0:0:
138,359,63448,1,2,0:0:0:0:
132,199,64097,1,2,0:0:0:0:
256,192,64259,12,4,66692,0:0:0:0:
103,296,67989,6,0,P|176:290|266:307,1,160,4|0,0:0|0:0,0:0:0:0:
337,327,68962,1,8,0:0:0:0:
415,310,69286,2,0,P|439:230|411:145,1,160
364,100,70259,1,8,0:0:0:0:
293,61,70584,6,0,P|232:54|163:61,2,120,2|0|8,0:0|0:0|0:0,0:0:0:0:
363,100,71881,2,0,P|426:153|438:231,1,160,2|0,0:0|0:0,0:0:0:0:
412,302,72854,1,8,0:0:0:0:
341,339,73178,6,0,P|258:332|175:341,1,160,4|0,0:0|0:0,0:0:0:0:
102,351,74151,1,8,0:0:0:0:
42,297,74475,2,0,P|60:228|42:136,1,160,2|0,0:0|0:0,0:0:0:0:
80,70,75448,1,8,0:0:0:0:
156,94,75773,6,0,P|233:122|314:107,1,160,2|0,0:0|0:0,0:0:0:0:
383,81,76746,1,8,0:0:0:0:
423,149,77070,2,2,L|415:248,1,79.9999999999999,2|10,0:0|0:0,0:0:0:0:
337,241,77719,2,0,L|330:320,1,79.9999999999999,2|8,0:0|0:0,0:0:0:0:
251,335,78367,6,0,B|204:331|157:327|157:327|120:347|87:327,1,160,4|0,0:0|0:0,0:0:0:0:
70,254,79340,1,8,0:0:0:0:
94,177,79665,2,0,B|119:160|156:180|156:180|203:176|250:172,1,160,0|0,0:0|0:0,0:0:0:0:
330,165,80638,1,8,0:0:0:0:
361,91,80962,6,0,P|400:127|403:203,2,120,2|0|8,0:0|0:0|0:0,0:0:0:0:
330,165,82259,2,0,P|362:259|412:272,1,160,2|0,0:0|0:0,0:0:0:0:
408,191,83232,1,8,0:0:0:0:
391,112,83557,6,0,P|309:87|251:153,1,160,4|0,0:0|0:0,0:0:0:0:
216,199,84529,1,8,0:0:0:0:
172,266,84854,2,0,P|110:311|38:284,1,160,2|0,0:0|0:0,0:0:0:0:
99,232,85827,1,8,0:0:0:0:
165,188,86151,6,0,P|222:188|314:129,1,160,2|0,0:0|0:0,0:0:0:0:
345,65,87124,1,8,0:0:0:0:
420,90,87448,2,0,L|428:169,1,79.9999999999999,2|8,0:0|0:0,0:0:0:0:
364,218,88097,2,0,L|372:297,1,79.9999999999999,2|8,0:0|0:0,0:0:0:0:
306,343,88746,6,0,P|226:337|135:344,1,160,4|0,0:0|0:0,0:0:0:0:
66,351,89719,1,8,0:0:0:0:
22,284,90043,2,0,L|14:205,1,79.9999999999999,2|8,0:0|0:0,0:0:0:0:
78,156,90692,2,0,L|70:77,1,79.9999999999999,2|8,0:0|0:0,0:0:0:0:
138,36,91340,6,0,P|217:41|297:35,1,160,2|0,0:0|0:0,0:0:0:0:
377,25,92313,1,8,0:0:0:0:
446,64,92638,2,0,P|476:118|440:193,2,120,2|0|8,0:0|0:0|0:0,0:0:0:0:
396,126,93935,6,0,P|311:141|236:131,1,160,4|0,0:0|0:0,0:0:0:0:
162,106,94908,1,8,0:0:0:0:
87,133,95232,1,2,0:0:0:0:
94,292,95881,1,2,0:0:0:0:
243,235,96529,1,2,0:0:0:0:
256,192,96692,12,4,100259,0:0:0:0:
