osu file format v14

[General]
AudioFilename: After School Days.mp3
AudioLeadIn: 0
PreviewTime: 66935
Countdown: 0
SampleSet: Normal
StackLeniency: 0.7
Mode: 1
LetterboxInBreaks: 0
WidescreenStoryboard: 0

[Editor]
DistanceSpacing: 1.7
BeatDivisor: 2
GridSize: 4
TimelineZoom: 1

[Metadata]
Title:After School Days
TitleUnicode:アフタースクールデイズ
Artist:Nanamori-chu * Goraku-bu
ArtistUnicode:七森中☆ごらく部
Creator:-TheHateD-
Version:Oni
Source:ゆるゆり なちゅやちゅみ!
Tags:Yuru Yuri Nachuyachumi OVA ED 赤座あかり Akaza Akari 船見結衣 Funami Yui 吉川ちなつ Yoshikawa Chinatsu 歳納京子 Toshinou Kyouko 三上枝織 Mikami Shiori 津田美波 Tsuda Minami 大久保瑠美 Okubo Rumi 大坪由佳 Otsubo Yuka agu
BeatmapID:658050
BeatmapSetID:292370

[Difficulty]
HPDrainRate:6
CircleSize:2
OverallDifficulty:5
ApproachRate:10
SliderMultiplier:1.4
SliderTickRate:1

[Events]
//Background and Video events
0,0,"12_0103yuru_yuri0082-1.jpg",0,115
//Break Periods
//Storyboard Layer 0 (Background)
//Storyboard Layer 1 (Fail)
//Storyboard Layer 2 (Pass)
//Storyboard Layer 3 (Foreground)
//Storyboard Sound Samples

[TimingPoints]
531,324.324324324324,4,1,0,100,1,0
67990,-100,4,1,0,100,0,1
100260,-100,4,1,0,100,0,0

[HitObjects]
256,192,531,5,4,0:0:0:0:
256,192,1828,1,0,0:0:0:0:
256,192,3125,1,4,0:0:0:0:
256,192,4422,1,0,0:0:0:0:
256,192,5720,1,4,0:0:0:0:
256,192,7017,1,4,0:0:0:0:
256,192,8314,1,4,0:0:0:0:
256,192,8963,1,8,0:0:0:0:
256,192,9125,1,0,0:0:0:0:
256,192,9287,1,0,0:0:0:0:
256,192,9449,1,0,0:0:0:0:
256,192,9612,1,8,0:0:0:0:
256,192,9936,1,0,0:0:0:0:
256,192,10260,1,8,0:0:0:0:
256,192,10422,1,0,0:0:0:0:
256,192,10503,1,0,0:0:0:0:
256,192,10585,1,8,0:0:0:0:
256,192,10909,1,4,0:0:0:0:
256,192,11071,1,8,0:0:0:0:
256,192,11152,1,8,0:0:0:0:
256,192,11233,1,0,0:0:0:0:
256,192,11395,1,0,0:0:0:0:
256,192,11558,1,8,0:0:0:0:
256,192,11720,1,8,0:0:0:0:
256,192,12044,1,8,0:0:0:0:
256,192,12206,1,0,0:0:0:0:
256,192,12368,1,8,0:0:0:0:
256,192,12449,1,8,0:0:0:0:
256,192,12530,1,0,0:0:0:0:
256,192,12693,1,0,0:0:0:0:
256,192,12855,1,8,0:0:0:0:
256,192,13017,1,0,0:0:0:0:
256,192,13179,1,8,0:0:0:0:
256,192,13503,1,0,0:0:0:0:
256,192,13666,1,8,0:0:0:0:
256,192,13747,1,8,0:0:0:0:
256,192,13828,1,0,0:0:0:0:
256,192,13990,1,0,0:0:0:0:
256,192,14152,1,8,0:0:0:0:
256,192,14314,1,8,0:0:0:0:
256,192,14639,1,8,0:0:0:0:
256,192,14801,1,0,0:0:0:0:
256,192,14963,1,8,0:0:0:0:
256,192,15044,1,8,0:0:0:0:
256,192,15125,1,0,0:0:0:0:
256,192,15287,1,0,0:0:0:0:
256,192,15449,1,8,0:0:0:0:
256,192,15612,1,0,0:0:0:0:
256,192,15774,1,8,0:0:0:0:
256,192,16098,1,0,0:0:0:0:
256,192,16260,1,8,0:0:0:0:
256,192,16341,1,8,0:0:0:0:
256,192,16422,1,0,0:0:0:0:
256,192,16585,1,0,0:0:0:0:
256,192,16747,1,8,0:0:0:0:
256,192,16909,1,8,0:0:0:0:
256,192,17233,1,8,0:0:0:0:
256,192,17395,1,0,0:0:0:0:
256,192,17558,1,8,0:0:0:0:
256,192,17639,1,0,0:0:0:0:
256,192,17720,1,0,0:0:0:0:
256,192,17882,1,0,0:0:0:0:
256,192,18044,1,8,0:0:0:0:
256,192,18206,1,0,0:0:0:0:
256,192,18287,1,0,0:0:0:0:
256,192,18368,1,8,0:0:0:0:
256,192,18693,1,0,0:0:0:0:
256,192,18855,1,8,0:0:0:0:
256,192,18936,1,0,0:0:0:0:
256,192,19017,1,0,0:0:0:0:
256,192,19179,1,0,0:0:0:0:
256,192,19341,1,8,0:0:0:0:
256,192,19503,1,8,0:0:0:0:
256,192,19828,1,8,0:0:0:0:
256,192,19990,1,4,0:0:0:0:
256,192,20233,1,4,0:0:0:0:
256,192,20476,1,4,0:0:0:0:
256,192,20639,1,12,0:0:0:0:
256,192,21287,1,0,0:0:0:0:
256,192,21612,1,8,0:0:0:0:
256,192,21774,1,0,0:0:0:0:
256,192,22098,1,0,0:0:0:0:
256,192,22260,1,8,0:0:0:0:
256,192,22585,1,0,0:0:0:0:
256,192,22747,1,0,0:0:0:0:
256,192,22909,1,8,0:0:0:0:
256,192,23071,1,0,0:0:0:0:
256,192,23395,1,0,0:0:0:0:
256,192,23558,1,8,0:0:0:0:
256,192,23720,1,8,0:0:0:0:
256,192,23882,1,0,0:0:0:0:
256,192,24206,1,8,0:0:0:0:
256,192,24368,1,0,0:0:0:0:
256,192,24693,1,0,0:0:0:0:
256,192,24855,1,8,0:0:0:0:
256,192,25017,1,0,0:0:0:0:
256,192,25179,1,8,0:0:0:0:
256,192,25503,1,8,0:0:0:0:
256,192,25666,1,0,0:0:0:0:
256,192,25990,1,0,0:0:0:0:
256,192,26071,1,0,0:0:0:0:
256,192,26152,1,8,0:0:0:0:
256,192,26476,1,0,0:0:0:0:
256,192,26801,1,8,0:0:0:0:
256,192,26963,1,0,0:0:0:0:
256,192,27287,1,0,0:0:0:0:
256,192,27449,1,8,0:0:0:0:
256,192,27612,1,8,0:0:0:0:
256,192,27774,1,0,0:0:0:0:
256,192,28098,1,8,0:0:0:0:
256,192,28260,1,0,0:0:0:0:
256,192,28585,1,0,0:0:0:0:
256,192,28747,1,8,0:0:0:0:
256,192,29071,1,0,0:0:0:0:
256,192,29395,1,8,0:0:0:0:
256,192,29558,1,0,0:0:0:0:
256,192,29882,1,0,0:0:0:0:
256,192,30044,1,8,0:0:0:0:
256,192,30206,1,8,0:0:0:0:
256,192,30368,1,0,0:0:0:0:
256,192,30693,1,8,0:0:0:0:
256,192,31017,1,0,0:0:0:0:
256,192,31179,1,0,0:0:0:0:
256,192,31260,1,0,0:0:0:0:
256,192,31341,1,8,0:0:0:0:
256,192,31666,1,4,0:0:0:0:
256,192,31990,1,8,0:0:0:0:
256,192,32152,1,0,0:0:0:0:
256,192,32476,1,0,0:0:0:0:
256,192,32639,1,8,0:0:0:0:
256,192,32801,1,8,0:0:0:0:
256,192,32963,1,0,0:0:0:0:
256,192,33287,1,8,0:0:0:0:
256,192,33612,1,0,0:0:0:0:
256,192,33774,1,0,0:0:0:0:
256,192,33855,1,0,0:0:0:0:
256,192,33936,1,8,0:0:0:0:
256,192,34098,1,8,0:0:0:0:
256,192,34260,1,4,0:0:0:0:
256,192,34585,1,8,0:0:0:0:
256,192,34747,1,0,0:0:0:0:
256,192,35071,1,8,0:0:0:0:
256,192,35233,1,8,0:0:0:0:
256,192,35395,1,0,0:0:0:0:
256,192,35558,1,8,0:0:0:0:
256,192,35882,1,8,0:0:0:0:
256,192,36206,1,0,0:0:0:0:
256,192,36368,1,0,0:0:0:0:
256,192,36449,1,0,0:0:0:0:
256,192,36530,1,8,0:0:0:0:
256,192,36693,1,8,0:0:0:0:
256,192,36855,1,4,0:0:0:0:
256,192,37179,1,8,0:0:0:0:
256,192,37341,1,0,0:0:0:0:
256,192,37666,1,0,0:0:0:0:
256,192,37828,1,8,0:0:0:0:
256,192,37990,1,0,0:0:0:0:
256,192,38152,1,0,0:0:0:0:
256,192,38476,1,8,0:0:0:0:
256,192,38639,1,0,0:0:0:0:
256,192,38801,1,8,0:0:0:0:
256,192,38963,1,0,0:0:0:0:
256,192,39044,1,0,0:0:0:0:
256,192,39125,1,8,0:0:0:0:
256,192,39287,1,0,0:0:0:0:
256,192,39449,1,8,0:0:0:0:
256,192,39774,1,8,0:0:0:0:
256,192,39936,1,0,0:0:0:0:
256,192,40260,1,0,0:0:0:0:
256,192,40422,1,8,0:0:0:0:
256,192,40585,1,8,0:0:0:0:
256,192,40747,1,0,0:0:0:0:
256,192,40909,1,0,0:0:0:0:
256,192,40990,1,0,0:0:0:0:
256,192,41071,1,8,0:0:0:0:
256,192,41233,1,0,0:0:0:0:
256,192,41395,1,0,0:0:0:0:
256,192,41558,1,8,0:0:0:0:
256,192,41639,1,0,0:0:0:0:
256,192,41720,1,8,0:0:0:0:
256,192,41882,1,8,0:0:0:0:
256,192,42044,1,4,0:0:0:0:
256,192,42530,1,0,0:0:0:0:
256,192,42693,1,0,0:0:0:0:
256,192,43017,1,8,0:0:0:0:
256,192,43341,1,0,0:0:0:0:
256,192,43828,1,0,0:0:0:0:
256,192,43990,1,0,0:0:0:0:
256,192,44314,1,8,0:0:0:0:
256,192,44639,1,0,0:0:0:0:
256,192,45125,1,0,0:0:0:0:
256,192,45287,1,0,0:0:0:0:
256,192,45612,1,8,0:0:0:0:
256,192,45936,1,0,0:0:0:0:
256,192,46422,1,0,0:0:0:0:
256,192,46585,1,0,0:0:0:0:
256,192,46909,1,8,0:0:0:0:
256,192,47233,1,4,0:0:0:0:
256,192,47558,1,8,0:0:0:0:
256,192,47720,1,0,0:0:0:0:
256,192,47882,1,8,0:0:0:0:
256,192,48206,1,0,0:0:0:0:
256,192,48368,1,0,0:0:0:0:
256,192,48530,1,8,0:0:0:0:
256,192,48855,1,0,0:0:0:0:
256,192,49179,1,8,0:0:0:0:
256,192,49503,1,8,0:0:0:0:
256,192,49828,1,0,0:0:0:0:
256,192,50314,1,8,0:0:0:0:
256,192,50476,1,0,0:0:0:0:
256,192,50801,1,8,0:0:0:0:
256,192,51125,1,0,0:0:0:0:
256,192,51449,1,8,0:0:0:0:
256,192,51612,1,0,0:0:0:0:
256,192,51936,1,0,0:0:0:0:
256,192,52098,1,8,0:0:0:0:
256,192,52422,1,4,0:0:0:0:
256,192,52747,1,8,0:0:0:0:
256,192,53071,1,0,0:0:0:0:
256,192,53233,1,0,0:0:0:0:
256,192,53395,1,8,0:0:0:0:
256,192,53720,1,0,0:0:0:0:
256,192,54044,1,8,0:0:0:0:
256,192,54368,1,0,0:0:0:0:
256,192,54530,1,8,0:0:0:0:
256,192,54693,1,8,0:0:0:0:
256,192,54855,1,0,0:0:0:0:
256,192,54936,1,0,0:0:0:0:
256,192,55017,1,0,0:0:0:0:
256,192,55341,1,8,0:0:0:0:
256,192,55666,1,0,0:0:0:0:
256,192,55828,1,0,0:0:0:0:
256,192,55990,1,8,0:0:0:0:
256,192,56314,1,0,0:0:0:0:
256,192,56639,1,8,0:0:0:0:
256,192,56963,1,0,0:0:0:0:
256,192,57125,1,0,0:0:0:0:
256,192,57206,1,0,0:0:0:0:
256,192,57287,1,8,0:0:0:0:
256,192,57449,1,8,0:0:0:0:
256,192,57612,1,4,0:0:0:0:
256,192,57936,1,8,0:0:0:0:
256,192,58260,1,0,0:0:0:0:
256,192,58585,1,8,0:0:0:0:
256,192,58747,1,8,0:0:0:0:
256,192,58909,1,4,0:0:0:0:
256,192,59233,1,8,0:0:0:0:
256,192,59558,1,0,0:0:0:0:
256,192,59720,1,0,0:0:0:0:
256,192,59882,1,8,0:0:0:0:
256,192,60044,1,0,0:0:0:0:
256,192,60206,1,12,0:0:0:0:
256,192,60530,1,0,0:0:0:0:
256,192,60855,1,8,0:0:0:0:
256,192,61179,1,0,0:0:0:0:
256,192,61341,1,8,0:0:0:0:
256,192,61666,1,0,0:0:0:0:
256,192,61828,1,8,0:0:0:0:
256,192,62152,1,8,0:0:0:0:
256,192,62314,1,0,0:0:0:0:
256,192,62476,1,8,0:0:0:0:
256,192,62639,1,8,0:0:0:0:
256,192,62801,1,4,0:0:0:0:
256,192,63125,1,0,0:0:0:0:
256,192,63449,1,4,0:0:0:0:
256,192,63774,1,8,0:0:0:0:
256,192,64098,1,4,0:0:0:0:
256,192,65395,1,4,0:0:0:0:
256,192,65558,1,4,0:0:0:0:
256,192,65882,1,4,0:0:0:0:
256,192,66206,1,4,0:0:0:0:
256,192,66530,1,4,0:0:0:0:
256,192,66693,1,4,0:0:0:0:
256,192,67666,1,12,0:0:0:0:
256,192,67990,5,4,0:0:0:0:
256,192,68314,1,8,0:0:0:0:
256,192,68639,1,0,0:0:0:0:
256,192,68801,1,0,0:0:0:0:
256,192,68882,1,0,0:0:0:0:
256,192,68963,1,8,0:0:0:0:
256,192,69125,1,8,0:0:0:0:
256,192,69287,1,0,0:0:0:0:
256,192,69612,1,8,0:0:0:0:
256,192,69936,1,0,0:0:0:0:
256,192,70098,1,0,0:0:0:0:
256,192,70179,1,0,0:0:0:0:
256,192,70260,1,8,0:0:0:0:
256,192,70422,1,0,0:0:0:0:
256,192,70584,1,8,0:0:0:0:
256,192,70747,1,0,0:0:0:0:
256,192,70909,1,8,0:0:0:0:
256,192,71071,1,8,0:0:0:0:
256,192,71395,1,0,0:0:0:0:
256,192,71558,1,8,0:0:0:0:
256,192,71720,1,0,0:0:0:0:
256,192,71801,1,0,0:0:0:0:
256,192,71882,1,8,0:0:0:0:
256,192,72044,1,0,0:0:0:0:
256,192,72206,1,8,0:0:0:0:
256,192,72368,1,0,0:0:0:0:
256,192,72693,1,0,0:0:0:0:
256,192,72774,1,0,0:0:0:0:
256,192,72855,1,8,0:0:0:0:
256,192,73017,1,8,0:0:0:0:
256,192,73179,1,4,0:0:0:0:
256,192,73503,1,8,0:0:0:0:
256,192,73828,1,0,0:0:0:0:
256,192,73990,1,0,0:0:0:0:
256,192,74152,1,8,0:0:0:0:
256,192,74476,1,0,0:0:0:0:
256,192,74801,1,8,0:0:0:0:
256,192,74963,1,8,0:0:0:0:
256,192,75125,1,0,0:0:0:0:
256,192,75287,1,0,0:0:0:0:
256,192,75449,1,8,0:0:0:0:
256,192,75612,1,0,0:0:0:0:
256,192,75693,1,0,0:0:0:0:
256,192,75774,1,8,0:0:0:0:
256,192,75936,1,0,0:0:0:0:
256,192,76098,1,8,0:0:0:0:
256,192,76260,1,0,0:0:0:0:
256,192,76585,1,0,0:0:0:0:
256,192,76747,1,8,0:0:0:0:
256,192,76909,1,0,0:0:0:0:
256,192,76990,1,0,0:0:0:0:
256,192,77071,1,8,0:0:0:0:
256,192,77395,1,8,0:0:0:0:
256,192,77558,1,8,0:0:0:0:
256,192,77720,1,0,0:0:0:0:
256,192,77882,1,0,0:0:0:0:
256,192,77963,1,0,0:0:0:0:
256,192,78044,1,8,0:0:0:0:
256,192,78368,1,4,0:0:0:0:
256,192,78693,1,8,0:0:0:0:
256,192,79017,1,0,0:0:0:0:
256,192,79179,1,0,0:0:0:0:
256,192,79260,1,0,0:0:0:0:
256,192,79341,1,8,0:0:0:0:
256,192,79503,1,8,0:0:0:0:
256,192,79666,1,0,0:0:0:0:
256,192,79990,1,8,0:0:0:0:
256,192,80314,1,0,0:0:0:0:
256,192,80476,1,0,0:0:0:0:
256,192,80639,1,8,0:0:0:0:
256,192,80963,1,8,0:0:0:0:
256,192,81287,1,8,0:0:0:0:
256,192,81449,1,0,0:0:0:0:
256,192,81774,1,0,0:0:0:0:
256,192,81936,1,8,0:0:0:0:
256,192,82098,1,0,0:0:0:0:
256,192,82179,1,0,0:0:0:0:
256,192,82260,1,8,0:0:0:0:
256,192,82422,1,0,0:0:0:0:
256,192,82585,1,8,0:0:0:0:
256,192,82747,1,8,0:0:0:0:
256,192,82909,1,0,0:0:0:0:
256,192,82990,1,0,0:0:0:0:
256,192,83071,1,0,0:0:0:0:
256,192,83152,1,0,0:0:0:0:
256,192,83233,1,8,0:0:0:0:
256,192,83395,1,8,0:0:0:0:
256,192,83558,1,4,0:0:0:0:
256,192,83882,1,8,0:0:0:0:
256,192,84206,1,0,0:0:0:0:
256,192,84368,1,0,0:0:0:0:
256,192,84449,1,0,0:0:0:0:
256,192,84530,1,8,0:0:0:0:
256,192,84693,1,8,0:0:0:0:
256,192,84855,1,0,0:0:0:0:
256,192,85179,1,8,0:0:0:0:
256,192,85341,1,0,0:0:0:0:
256,192,85503,1,8,0:0:0:0:
256,192,85666,1,0,0:0:0:0:
256,192,85747,1,0,0:0:0:0:
256,192,85828,1,8,0:0:0:0:
256,192,85990,1,0,0:0:0:0:
256,192,86152,1,8,0:0:0:0:
256,192,86314,1,0,0:0:0:0:
256,192,86476,1,0,0:0:0:0:
256,192,86639,1,8,0:0:0:0:
256,192,86963,1,0,0:0:0:0:
256,192,87044,1,0,0:0:0:0:
256,192,87125,1,8,0:0:0:0:
256,192,87287,1,0,0:0:0:0:
256,192,87449,1,8,0:0:0:0:
256,192,87774,1,0,0:0:0:0:
256,192,87936,1,0,0:0:0:0:
256,192,88098,1,8,0:0:0:0:
256,192,88179,1,8,0:0:0:0:
256,192,88260,1,0,0:0:0:0:
256,192,88341,1,0,0:0:0:0:
256,192,88422,1,8,0:0:0:0:
256,192,88585,1,8,0:0:0:0:
256,192,88747,1,4,0:0:0:0:
256,192,89071,1,8,0:0:0:0:
256,192,89395,1,0,0:0:0:0:
256,192,89558,1,0,0:0:0:0:
256,192,89639,1,0,0:0:0:0:
256,192,89720,1,8,0:0:0:0:
256,192,89882,1,8,0:0:0:0:
256,192,90044,1,0,0:0:0:0:
256,192,90368,1,0,0:0:0:0:
256,192,90530,1,8,0:0:0:0:
256,192,90855,1,0,0:0:0:0:
256,192,91017,1,8,0:0:0:0:
256,192,91179,1,8,0:0:0:0:
256,192,91341,1,0,0:0:0:0:
256,192,91666,1,8,0:0:0:0:
256,192,91990,1,0,0:0:0:0:
256,192,92152,1,0,0:0:0:0:
256,192,92314,1,8,0:0:0:0:
256,192,92476,1,0,0:0:0:0:
256,192,92557,1,8,0:0:0:0:
256,192,92639,1,8,0:0:0:0:
256,192,92801,1,0,0:0:0:0:
256,192,92963,1,8,0:0:0:0:
256,192,93125,1,0,0:0:0:0:
256,192,93449,1,0,0:0:0:0:
256,192,93612,1,8,0:0:0:0:
256,192,93936,1,4,0:0:0:0:
256,192,94260,1,8,0:0:0:0:
256,192,94585,1,0,0:0:0:0:
256,192,94747,1,0,0:0:0:0:
256,192,94828,1,0,0:0:0:0:
256,192,94909,1,8,0:0:0:0:
256,192,95071,1,8,0:0:0:0:
256,192,95233,1,4,0:0:0:0:
256,192,95558,1,8,0:0:0:0:
256,192,95882,1,0,0:0:0:0:
256,192,96044,1,0,0:0:0:0:
256,192,96125,1,0,0:0:0:0:
256,192,96206,1,8,0:0:0:0:
256,192,96368,1,8,0:0:0:0:
256,192,96693,1,12,0:0:0:0:
256,192,96855,1,12,0:0:0:0:
256,192,97179,1,12,0:0:0:0:
256,192,97503,1,12,0:0:0:0:
256,192,97666,1,12,0:0:0:0:
256,192,97990,1,12,0:0:0:0:
256,192,98314,1,12,0:0:0:0:
256,192,98476,1,12,0:0:0:0:
256,192,98639,1,4,0:0:0:0:
256,192,98801,1,12,0:0:0:0:
256,192,98963,1,4,0:0:0:0:
256,192,99287,1,12,0:0:0:0:
256,192,99449,1,12,0:0:0:0:
256,192,99774,1,12,0:0:0:0:
256,192,99936,1,4,0:0:0:0:
256,192,100098,1,4,0:0:0:0:
256,192,100260,1,12,0:0:0:0:
