osu file format v14

[General]
AudioFilename: After School Days.mp3
AudioLeadIn: 0
PreviewTime: 66935
Countdown: 0
SampleSet: Normal
StackLeniency: 0.7
Mode: 1
LetterboxInBreaks: 0
WidescreenStoryboard: 0

[Editor]
DistanceSpacing: 1.7
BeatDivisor: 2
GridSize: 32
TimelineZoom: 1

[Metadata]
Title:After School Days
TitleUnicode:アフタースクールデイズ
Artist:Nanamori-chu * Goraku-bu
ArtistUnicode:七森中☆ごらく部
Creator:-TheHateD-
Version:Futsuu
Source:ゆるゆり なちゅやちゅみ!
Tags:Yuru Yuri Nachuyachumi OVA ED 赤座あかり Akaza Akari 船見結衣 Funami Yui 吉川ちなつ Yoshikawa Chinatsu 歳納京子 Toshinou Kyouko 三上枝織 Mikami Shiori 津田美波 Tsuda Minami 大久保瑠美 Okubo Rumi 大坪由佳 Otsubo Yuka agu
BeatmapID:658047
BeatmapSetID:292370

[Difficulty]
HPDrainRate:4
CircleSize:2
OverallDifficulty:3
ApproachRate:10
SliderMultiplier:1.4
SliderTickRate:1

[Events]
//Background and Video events
0,0,"12_0103yuru_yuri0082-1.jpg",0,115
//Break Periods
//Storyboard Layer 0 (Background)
//Storyboard Layer 1 (Fail)
//Storyboard Layer 2 (Pass)
//Storyboard Layer 3 (Foreground)
//Storyboard Sound Samples

[TimingPoints]
531,324.324324324324,4,1,0,100,1,0
67990,-100,4,1,0,100,0,1
100260,-100,4,1,0,100,0,0

[HitObjects]
208,168,531,5,4,0:0:0:0:
208,168,1828,1,0,0:0:0:0:
208,168,3125,1,4,0:0:0:0:
208,168,4422,1,0,0:0:0:0:
208,168,5720,1,4,0:0:0:0:
208,168,7017,1,4,0:0:0:0:
208,168,8314,1,4,0:0:0:0:
208,168,8963,1,8,0:0:0:0:
208,168,9612,1,0,0:0:0:0:
208,168,9936,1,0,0:0:0:0:
208,168,10260,1,0,0:0:0:0:
208,168,10585,1,8,0:0:0:0:
208,168,10909,1,4,0:0:0:0:
208,168,11558,1,8,0:0:0:0:
208,168,12206,1,0,0:0:0:0:
256,192,12530,1,0,0:0:0:0:
208,168,12855,1,8,0:0:0:0:
208,168,13503,1,0,0:0:0:0:
208,168,14152,1,8,0:0:0:0:
208,168,14801,1,0,0:0:0:0:
208,168,15125,1,0,0:0:0:0:
208,168,15450,1,8,0:0:0:0:
208,168,15774,1,8,0:0:0:0:
208,168,16098,1,0,0:0:0:0:
208,168,16747,1,8,0:0:0:0:
208,168,17395,1,0,0:0:0:0:
208,168,17720,1,0,0:0:0:0:
208,168,18044,1,8,0:0:0:0:
208,168,18693,1,0,0:0:0:0:
208,168,19341,1,8,0:0:0:0:
208,168,19990,1,8,0:0:0:0:
208,168,20314,1,8,0:0:0:0:
208,168,20639,1,8,0:0:0:0:
208,168,21287,1,0,0:0:0:0:
208,168,22260,1,8,0:0:0:0:
208,168,22585,1,0,0:0:0:0:
208,168,23071,1,8,0:0:0:0:
208,168,23558,1,8,0:0:0:0:
208,168,23882,1,0,0:0:0:0:
208,168,24855,1,8,0:0:0:0:
208,168,25179,1,0,0:0:0:0:
208,168,25828,1,8,0:0:0:0:
208,168,26476,1,0,0:0:0:0:
208,168,26963,1,8,0:0:0:0:
208,168,27449,1,0,0:0:0:0:
208,168,27774,1,0,0:0:0:0:
208,168,28747,1,8,0:0:0:0:
208,168,29071,1,0,0:0:0:0:
208,168,29558,1,0,0:0:0:0:
208,168,30044,1,8,0:0:0:0:
208,168,30368,1,0,0:0:0:0:
208,168,30693,1,0,0:0:0:0:
208,168,31017,1,8,0:0:0:0:
208,168,31666,1,4,0:0:0:0:
208,168,32314,1,8,0:0:0:0:
208,168,32963,1,0,0:0:0:0:
208,168,33287,1,0,0:0:0:0:
208,168,33612,1,8,0:0:0:0:
208,168,34260,1,0,0:0:0:0:
208,168,34909,1,8,0:0:0:0:
208,168,35557,1,8,0:0:0:0:
208,168,35882,1,0,0:0:0:0:
208,168,36206,1,8,0:0:0:0:
208,168,36855,1,0,0:0:0:0:
208,168,37503,1,8,0:0:0:0:
208,168,38152,1,0,0:0:0:0:
208,168,38476,1,0,0:0:0:0:
208,168,38801,1,8,0:0:0:0:
208,168,39449,1,0,0:0:0:0:
208,168,39936,1,8,0:0:0:0:
208,168,40422,1,8,0:0:0:0:
208,168,40746,1,0,0:0:0:0:
208,168,41070,1,0,0:0:0:0:
208,168,41395,1,8,0:0:0:0:
208,168,42044,1,4,0:0:0:0:
208,168,43341,1,0,0:0:0:0:
208,168,43990,1,8,0:0:0:0:
208,168,44639,1,0,0:0:0:0:
208,168,45936,1,0,0:0:0:0:
208,168,46585,1,8,0:0:0:0:
208,168,47233,1,0,0:0:0:0:
208,168,48530,1,0,0:0:0:0:
208,168,49179,1,8,0:0:0:0:
208,168,49503,1,8,0:0:0:0:
208,168,49828,1,0,0:0:0:0:
208,168,50476,1,8,0:0:0:0:
208,168,51125,1,0,0:0:0:0:
208,168,52422,1,4,0:0:0:0:
208,128,53071,1,8,0:0:0:0:
208,168,53720,1,8,0:0:0:0:
208,168,54044,1,0,0:0:0:0:
208,168,54368,1,8,0:0:0:0:
208,168,55017,1,0,0:0:0:0:
208,168,55666,1,8,0:0:0:0:
208,168,56315,1,0,0:0:0:0:
208,168,56639,1,0,0:0:0:0:
208,168,56963,1,8,0:0:0:0:
208,168,57612,1,4,0:0:0:0:
208,168,58260,1,8,0:0:0:0:
208,168,58909,1,4,0:0:0:0:
208,168,59558,1,8,0:0:0:0:
208,168,60206,1,4,0:0:0:0:
208,168,60530,1,0,0:0:0:0:
208,168,60855,1,8,0:0:0:0:
208,168,61341,1,0,0:0:0:0:
208,168,61828,1,8,0:0:0:0:
208,168,62152,1,0,0:0:0:0:
208,168,62476,1,0,0:0:0:0:
208,168,62801,1,12,0:0:0:0:
208,168,63449,1,12,0:0:0:0:
208,168,64098,1,12,0:0:0:0:
208,168,65395,1,4,0:0:0:0:
208,168,65882,1,4,0:0:0:0:
208,168,66206,1,4,0:0:0:0:
208,168,66693,1,4,0:0:0:0:
208,168,67990,1,4,0:0:0:0:
208,168,68639,1,8,0:0:0:0:
208,168,68963,1,0,0:0:0:0:
208,168,69287,1,8,0:0:0:0:
208,168,69936,1,8,0:0:0:0:
208,168,70585,1,0,0:0:0:0:
208,168,70909,1,8,0:0:0:0:
208,168,71233,1,0,0:0:0:0:
208,168,71882,1,0,0:0:0:0:
208,168,72368,1,8,0:0:0:0:
208,168,72855,1,8,0:0:0:0:
208,168,73179,1,0,0:0:0:0:
208,168,73828,1,0,0:0:0:0:
208,168,74152,1,0,0:0:0:0:
208,168,74476,1,8,0:0:0:0:
208,168,75125,1,8,0:0:0:0:
208,168,75449,1,8,0:0:0:0:
208,168,75774,1,0,0:0:0:0:
208,168,76747,1,0,0:0:0:0:
208,168,77071,1,8,0:0:0:0:
208,168,77720,1,8,0:0:0:0:
208,168,78368,1,4,0:0:0:0:
208,168,79017,1,8,0:0:0:0:
208,168,79341,1,0,0:0:0:0:
208,168,79666,1,0,0:0:0:0:
208,168,80314,1,8,0:0:0:0:
208,168,80963,1,0,0:0:0:0:
208,168,81449,1,8,0:0:0:0:
208,168,81936,1,0,0:0:0:0:
208,168,82260,1,8,0:0:0:0:
208,168,82585,1,8,0:0:0:0:
208,168,82909,1,0,0:0:0:0:
208,168,83558,1,4,0:0:0:0:
208,168,84206,1,0,0:0:0:0:
208,168,84530,1,8,0:0:0:0:
208,168,84855,1,8,0:0:0:0:
208,168,85503,1,8,0:0:0:0:
208,168,85828,1,0,0:0:0:0:
208,168,86152,1,0,0:0:0:0:
208,168,87125,1,0,0:0:0:0:
208,168,87449,1,8,0:0:0:0:
208,168,88098,1,8,0:0:0:0:
208,168,88747,1,0,0:0:0:0:
208,168,89071,1,8,0:0:0:0:
208,168,89395,1,8,0:0:0:0:
208,168,90044,1,0,0:0:0:0:
208,168,90530,1,8,0:0:0:0:
208,168,91341,1,0,0:0:0:0:
208,168,91666,1,8,0:0:0:0:
208,168,91990,1,8,0:0:0:0:
208,168,92639,1,0,0:0:0:0:
208,168,93125,1,8,0:0:0:0:
208,168,93936,1,0,0:0:0:0:
208,168,94260,1,8,0:0:0:0:
208,168,94585,1,8,0:0:0:0:
208,168,95233,1,0,0:0:0:0:
208,168,95882,1,8,0:0:0:0:
208,168,96693,1,4,0:0:0:0:
208,168,97179,1,12,0:0:0:0:
208,168,97666,1,4,0:0:0:0:
208,168,97990,1,4,0:0:0:0:
208,168,98476,1,12,0:0:0:0:
208,168,98801,1,4,0:0:0:0:
208,168,99287,1,4,0:0:0:0:
208,168,99774,1,12,0:0:0:0:
208,168,100260,1,4,0:0:0:0:
