osu file format v9

[General]
AudioFilename: 100%Chu~Gakusei (TV Size).mp3
AudioLeadIn: 1000
PreviewTime: 43968
Countdown: 0
SampleSet: Normal
StackLeniency: 0.7
Mode: 0
LetterboxInBreaks: 0

[Editor]
DistanceSpacing: 1.4
BeatDivisor: 4
GridSize: 8

[Metadata]
Title:100%Chu~Gakusei (TV Size)
Artist:Nanamori-chu * Goraku-bu
Creator:wcx19911123
Version:Hard
Source:Yuru Yuri
Tags:ending ED Akaza Akari Toshinou Kyouko Funami Yui Yoshikawa Chinatsu Shiori Mikami Ootsubo Yuka Tsuda Minami Okubo Rumi YRYR

[Difficulty]
HPDrainRate:6
CircleSize:4
OverallDifficulty:6
ApproachRate:8
SliderMultiplier:1.6
SliderTickRate:1

[Events]
//Background and Video events
0,0,"BG.jpg"
Video,1090,"100%Chu~Gakusei (TV Size).avi"
//Break Periods
//Storyboard Layer 0 (Background)
//Storyboard Layer 1 (Fail)
//Storyboard Layer 2 (Pass)
//Storyboard Layer 3 (Foreground)
//Storyboard Sound Samples
//Background Colour Transformations
3,100,163,162,255

[TimingPoints]
248,285.714285714286,4,1,1,30,1,0
3533,-100,4,2,1,65,0,0
7248,-100,4,2,1,45,0,0
7533,-100,4,2,1,65,0,0
11390,-100,4,2,1,50,0,0
11676,-100,4,2,1,65,0,0
21962,-100,4,1,1,45,0,0
22819,-100,4,2,1,65,0,0
23105,-100,4,2,1,60,0,0
31819,-100,4,2,1,45,0,0
32248,-133.333333333333,4,2,1,60,0,0
35390,-133.333333333333,4,2,2,60,0,0
35533,-133.333333333333,4,2,1,60,0,0
36819,-133.333333333333,4,2,1,65,0,0
43962,-100,4,2,1,70,0,0
44819,-100,4,2,1,70,0,1
53890,-100,4,2,1,70,0,0
53962,-100,4,2,1,70,0,1
65390,-100,4,2,1,65,0,0
82248,-100,4,2,1,50,0,0
82533,-100,4,2,1,65,0,0
89533,-100,4,2,1,30,0,0

[Colours]
Combo1 : 122,82,143
Combo2 : 238,213,123
Combo3 : 255,11,48
Combo4 : 255,102,228

[HitObjects]
160,72,1390,1,2
352,72,1676,1,2
328,264,1962,1,2
256,296,2105,1,2
184,264,2248,1,2
160,72,2533,6,0,B|116:64|88:96,1,80,2|2
76,176,2819,2,0,B|120:184|148:152,1,80,2|2
256,32,3248,1,0
256,32,3390,1,0
352,72,3533,6,0,B|416:120|416:216,1,160,4|0
296,264,3962,2,0,B|232:216|232:120,2,160,2|0|2
152,216,4676,6,0,B|64:216|16:288,1,160,4|0
0,368,5105,1,2
216,312,5390,2,0,B|264:248|248:160,1,160,0|2
152,40,5819,6,0,B|104:104|120:192,1,160,4|0
148,268,6248,1,2
216,312,6390,1,0
296,328,6533,2,0,B|384:328|432:256,1,160,0|2
432,104,6962,6,0,B|344:104|296:176,1,160,4|8
264,248,7390,1,8
216,312,7533,1,0
144,344,7676,2,0,B|104:360|64:344,2,80,0|0|2
216,184,8105,6,0,B|200:96|128:56,1,160,4|0
48,48,8533,1,8
24,240,8819,1,0
32,320,8962,1,0
96,272,9105,1,8
88,192,9248,6,0,B|96:104|168:56,1,160,4|0
346,58,9676,2,0,B|416:104|424:192,2,160,8|0|8
200,136,10390,6,0,B|208:224|280:272,1,160,4|0
352,304,10819,1,8
352,304,10962,1,0
432,304,11105,1,0
456,96,11390,1,8
256,32,11676,5,4
256,32,12247,2,0,B|240:72|260:108,1,80
332,144,12533,2,0,B|348:104|328:68,1,80
176,24,12819,6,0,B|156:112|212:172,1,160,4|8
392,240,13390,1,0
464,272,13533,1,0
400,320,13676,1,8
328,288,13819,6,0,B|248:256|176:304,1,160
112,352,14247,1,8
112,352,14390,1,0
48,304,14533,2,0,B|8:232|32:144,1,160,0|8
224,16,15105,6,0,B|264:88|240:176,1,160,0|8
168,200,15533,1,0
176,120,15676,2,0,B|248:72|328:96,1,160,0|8
396,140,16105,1,0
420,216,16247,5,0
232,356,16533,1,8
92,168,16819,1,0
280,28,17105,1,8
464,144,17390,6,0,B|496:224|464:304,1,160,4|8
280,248,17962,1,0
312,176,18105,1,0
360,240,18247,1,8
328,312,18390,6,0,B|264:368|176:352,1,160
104,320,18819,1,8
104,320,18962,1,0
168,272,19105,2,0,B|216:208|200:120,1,160,0|8
344,24,19676,6,0,B|296:88|312:176,1,160,0|8
360,240,20105,1,0
440,248,20247,2,0,B|488:184|472:96,1,160,0|8
408,48,20676,1,0
328,40,20819,5,0
104,120,21105,1,8
184,344,21390,1,0
408,264,21676,1,8
336,120,21962,5,2
176,120,22248,1,2
256,256,22533,2,0,B|252:248|252:248|260:236|260:236|252:224|252:224|260:208|260:208|252:196|252:196|260:184|260:184|252:172|252:172|260:156|260:156|252:144|252:144|260:132|260:132|256:120,1,160,2|0
256,32,23105,5,4
176,40,23248,2,0,B|92:52,1,80,0|8
280,112,23676,1,0
200,120,23819,2,0,B|116:132,1,80,0|8
148,212,24105,1,0
148,212,24248,6,0,B|232:200,1,80
304,192,24533,1,8
384,200,24676,2,0,B|464:232|480:320,1,160,0|8
408,360,25105,1,8
408,360,25248,1,8
328,352,25390,5,0
356,276,25533,2,0,B|384:200,1,80,0|8
248,336,25962,1,0
276,260,26105,2,0,B|304:184,1,80,0|8
224,168,26390,1,0
224,168,26533,6,0,B|196:244,1,80
168,320,26819,1,8
88,320,26962,2,0,B|8:280|0:192,1,160,0|8
24,120,27390,1,8
24,120,27533,1,8
96,88,27676,5,4
128,160,27819,2,0,B|160:232,1,80,0|8
168,48,28248,1,0
200,120,28390,2,0,B|232:192,1,80,0|8
304,156,28676,1,0
304,156,28819,6,0,B|272:84,1,80
240,8,29105,1,8
320,16,29248,2,0,B|400:32|432:120,1,160,0|8
440,200,29676,1,8
440,200,29819,1,8
368,232,29962,5,0
304,184,30105,2,0,B|240:136,1,80,0|8
328,304,30533,1,0
264,256,30676,2,0,B|200:208,1,80,0|8
160,280,30962,1,0
160,280,31105,6,0,B|224:328,1,80
288,376,31390,1,8
368,376,31533,2,0,B|448:360|480:272,1,160,0|8
484,248,31890,1,8
484,224,31962,1,8
432,72,32248,5,4
312,152,32533,1,0
168,152,32819,2,0,B|104:144|72:80,1,119.999996423721,0|8
200,24,33390,6,0,B|296:56|312:152,1,179.999994635582
316,176,33890,1,0
316,200,33962,2,0,B|312:264|264:312,1,119.999996423721,0|8
204,340,34390,1,0
132,340,34533,6,0,B|32:328|0:228,1,179.999994635582,4|0
0,144,35105,2,0,B|3:93|50:76,2,89.9999973177911,4|0|0
72,144,35676,6,0,B|112:192|184:184,1,119.999996423721,4|0
256,168,36105,1,0
256,168,36176,1,0
256,168,36248,2,0,B|304:128|368:144,1,119.999996423721,4|8
480,272,36819,5,4
448,336,36962,1,0
408,276,37105,1,0
344,240,37248,2,0,B|280:224|224:256,1,119.999996423721
176,304,37676,1,8
176,304,37819,1,0
120,256,37962,6,0,B|96:200|120:136,1,119.999996423721,4|8
352,88,38533,2,0,B|376:144|352:208,1,119.999996423721,0|8
488,352,39105,5,4
424,296,39248,2,0,B|368:272|304:296,1,119.999996423721
232,336,39676,2,0,B|208:352|168:344,1,59.9999982118607
96,304,39962,2,0,B|64:296|32:312,1,59.9999982118607,8|0
8,192,40248,5,4
80,152,40390,2,0,B|144:136|192:176,1,120.000004577637
256,232,40819,2,0,B|280:248|320:240,1,59.9999982118607
392,208,41105,2,0,B|424:200|456:216,1,59.9999982118607,8|0
480,96,41390,5,4
416,40,41533,2,0,B|360:16|296:40,1,119.999996423721
216,24,41962,2,0,B|184:32|168:56,1,59.9999982118607
112,120,42248,2,0,B|80:120|64:88,1,59.9999982118607,8|0
24,16,42533,5,4
24,16,42676,1,0
256,192,42748,12,0,43533
304,88,43962,5,0
360,240,44248,1,0
208,296,44533,1,0
152,144,44819,5,4
152,144,44962,1,0
88,96,45105,1,8
32,152,45248,2,0,B|0:232|40:312,1,160
88,368,45676,1,8
208,296,45819,6,0,B|240:216|200:136,1,160,4|0
160,72,46248,1,8
160,72,46390,1,0
280,120,46533,2,0,B|368:128|432:80,1,160,0|8
480,16,46962,1,0
456,160,47105,6,0,B|440:248|480:320,1,160,4|8
376,256,47533,2,0,B|296:224|216:264,1,160
168,320,47962,1,8
304,320,48105,6,0,B|304:232|240:176,1,160,4|0
168,152,48533,1,8
88,160,48676,1,0
32,216,48819,2,0,B|8:296|48:376,1,160,0|8
272,224,49390,6,0,B|296:144|256:64,1,160,4|8
192,24,49819,1,0
112,24,49962,1,0
48,72,50105,2,0,B|24:104|32:152,1,80,0|8
88,288,50390,6,0,B|144:344|240:336,1,160,4|0
316,324,50819,1,8
384,280,50962,1,0
416,208,51105,2,0,B|440:128|400:48,1,160,0|8
336,8,51533,1,0
304,144,51676,6,0,B|256:216|168:216,1,160,4|8
104,104,52105,2,0,B|152:32|240:32,1,160
320,32,52533,1,8
392,68,52676,5,6
448,272,52962,1,10
256,352,53248,1,10
112,288,53533,1,0
144,216,53676,1,8
192,280,53819,1,0
64,224,53962,6,0,B|8:160|16:72,1,160,4|8
176,56,54390,2,0,B|232:120|224:208,1,160
192,280,54819,1,8
304,176,54962,6,0,B|368:128|456:144,1,160,4|0
512,200,55390,1,8
512,280,55533,1,0
464,344,55676,2,0,B|384:376|304:336,1,160,0|8
240,296,56105,1,0
112,336,56248,6,0,B|192:312|216:224,1,160,4|8
120,136,56676,2,0,B|40:160|16:248,1,160
16,328,57105,1,8
128,232,57248,6,0,B|200:192|288:216,1,160,4|0
352,256,57676,1,8
352,336,57819,1,0
352,256,57962,2,0,B|360:168|432:120,1,160,0|8
504,96,58390,1,0
448,216,58533,6,0,B|368:200|328:120,1,160,4|8
280,16,58962,2,0,B|280:96|208:152,1,160
136,184,59390,1,8
80,64,59533,6,0,B|8:112|8:200,1,160,4|0
8,280,59962,1,8
64,336,60105,1,0
144,344,60248,2,0,B|224:344|280:272,1,160,0|8
312,200,60676,1,0
416,216,60819,6,0,B|328:200|296:120,1,160,4|8
368,24,61248,2,0,B|456:40|488:120,1,160
492,200,61676,1,8
468,276,61819,5,2
320,368,62105,1,10
312,200,62390,2,0,B|288:112|208:88,1,160,10|0
128,80,62819,1,0
56,112,62962,1,0
24,184,63105,6,0,B|8:272|64:336,1,160,4|8
280,376,63676,2,0,B|360:352|384:264,1,160,0|8
368,64,64248,5,4
128,80,64533,1,8
144,320,64819,1,0
384,304,65105,1,8
256,192,65390,1,4
32,32,65819,5,0
48,112,65962,2,0,B|64:192,1,80,2|2
160,24,66390,1,0
160,104,66533,2,0,B|160:184,1,80,2|2
160,360,66962,6,0,B|248:352|288:272,1,160,2|8
356,304,67390,2,0,B|308:308|284:272,1,80,2|8
256,192,67676,1,4
480,32,68105,5,0
464,112,68248,2,0,B|448:192,1,80,2|2
352,24,68676,1,0
352,104,68819,2,0,B|352:184,1,80,2|2
352,360,69248,6,0,B|264:352|224:272,1,160,2|8
156,304,69676,2,0,B|204:308|228:272,1,80,2|8
256,192,69962,1,4
480,352,70390,5,2
464,272,70533,2,0,B|448:192,1,80,2|2
352,360,70962,1,2
352,280,71105,2,0,B|352:200,1,80,2|2
352,24,71533,6,0,B|264:32|224:112,1,160,2|8
156,80,71962,2,0,B|204:76|228:112,1,80,2|8
256,192,72248,1,4
32,352,72676,5,2
48,272,72819,2,0,B|64:192,1,80,2|2
160,360,73247,1,2
160,280,73390,1,8
256,192,73462,12,4,74390
344,32,74819,5,2
392,184,75105,2,0,B|400:272|336:328,1,160,0|2
216,280,75533,6,0,B|208:192|272:136,1,160,4|0
344,104,75962,1,2
176,128,76247,2,0,B|88:120|40:48,1,160,0|2
211,27,76676,6,0,B|299:35|347:107,1,160,4|0
372,180,77105,1,2
272,328,77390,2,0,B|208:384|112:352,1,160,0|2
100,224,77819,6,0,B|164:168|260:200,1,160,4|0
308,256,78247,1,8
352,320,78390,1,0
428,344,78533,2,0,B|472:352|504:328,2,80,0|0|2
308,256,78962,6,0,B|288:168|336:104,1,160,4|0
400,56,79390,1,8
460,240,79676,2,0,B|384:288|308:256,1,160,0|8
204,128,80105,6,0,B|128:96|52:144,1,160,4|0
0,208,80533,1,8
112,360,80819,2,0,B|192:368|256:304,1,160,0|8
400,360,81247,6,0,B|320:368|256:304,1,160,4|0
224,232,81676,1,8
224,152,81819,1,0
272,88,81962,1,0
416,216,82247,1,8
480,32,82533,5,4
480,32,83105,2,0,B|440:48|432:96,1,80
464,164,83390,2,0,B|504:148|512:100,1,80
392,0,83676,6,0,B|336:64|360:152,1,160,4|8
432,296,84247,2,0,B|416:336|376:352,1,80
300,368,84533,1,8
224,344,84676,6,0,B|152:296|152:208,1,160
152,128,85105,1,8
152,128,85247,1,0
224,160,85390,2,0,B|296:208|296:296,1,160,0|8
104,336,85962,6,0,B|32:288|24:200,1,160,0|8
28,124,86390,1,0
96,168,86533,2,0,B|168:208|256:176,1,160,0|8
320,136,86962,1,0
368,72,87105,5,0
376,304,87390,1,8
144,312,87676,1,8
136,80,87962,1,8
256,192,88247,1,4
256,192,88319,12,8,89533
