osu file format v14

[General]
AudioFilename: 17. (Long Version).mp3
AudioLeadIn: 2000
PreviewTime: -1
Countdown: 0
SampleSet: None
StackLeniency: 0.7
Mode: 0
LetterboxInBreaks: 1
WidescreenStoryboard: 0

[Editor]
DistanceSpacing: 1
BeatDivisor: 4
GridSize: 4
TimelineZoom: 1.6

[Metadata]
Title:Uramokaradamo Rakkamijin
TitleUnicode:Uramokaradamo Rakkamijin
Artist:Nanako
ArtistUnicode:Nanako
Creator:yeahyeahyeahhh
Version:Extreme
Source:jubeat
Tags:
BeatmapID:681376
BeatmapSetID:304104

[Difficulty]
HPDrainRate:8
CircleSize:4
OverallDifficulty:8
ApproachRate:8
SliderMultiplier:1.8
SliderTickRate:1

[Events]
//Background and Video events
0,0,"bg.png",0,0
//Break Periods
//Storyboard Layer 0 (Background)
//Storyboard Layer 1 (Fail)
//Storyboard Layer 2 (Pass)
//Storyboard Layer 3 (Foreground)
//Storyboard Sound Samples

[TimingPoints]
328,379.746835443038,4,2,0,80,1,0
9157,-100,4,1,0,50,0,0
9505,-100,4,2,0,80,0,0
14758,-100,4,1,0,50,0,0
15612,-100,4,2,0,80,0,0
17796,-200,4,2,0,80,0,0
18555,-100,4,2,0,80,0,0
18745,-100,4,1,0,50,0,0
23207,-100,4,2,0,80,0,0
24726,-100,4,1,0,50,0,0
29283,-100,4,2,0,80,0,0
30802,-100,4,1,0,50,0,0
35359,-100,4,2,0,80,0,0
36973,-100,4,1,0,50,0,0
41625,-100,4,2,0,80,0,0
52733,-100,4,1,0,50,0,0
53492,-100,4,2,0,80,0,0
53587,-100,4,1,0,50,0,0
58144,-100,4,2,0,80,0,0
59473,-100,4,1,0,50,0,0
64220,-100,4,2,0,80,0,0
65834,-100,4,1,0,50,0,0
70296,-100,4,2,0,80,0,0
71815,-100,4,1,0,50,0,0
76087,-100,4,2,0,80,0,0
82068,-100,4,1,0,50,0,0
86720,-100,4,2,0,80,0,0
87954,-100,4,1,0,50,0,0
95834,-100,4,2,0,80,0,0

[HitObjects]
256,308,708,5,6,0:0:0:0:
256,308,897,1,2,0:0:0:0:
148,192,1277,1,2,0:0:0:0:
256,76,1657,1,2,0:0:0:0:
364,192,2037,1,2,0:0:0:0:
492,72,2416,5,2,0:0:0:0:
400,72,2606,1,0,0:0:0:0:
324,116,2796,1,2,0:0:0:0:
268,188,2986,1,0,0:0:0:0:
252,276,3176,1,2,0:0:0:0:
276,364,3366,1,0,0:0:0:0:
276,364,3556,1,2,0:0:0:0:
188,340,3745,5,6,0:0:0:0:
188,340,3935,1,2,0:0:0:0:
380,276,4315,1,2,0:0:0:0:
116,184,4695,1,2,0:0:0:0:
400,48,5075,1,2,0:0:0:0:
40,48,5644,5,4,0:0:0:0:
256,192,5739,12,2,6783,0:0:0:0:
100,288,6973,6,0,B|68:328,3,30,0|2|0|2,0:0|0:0|0:0|0:0,0:0:0:0:
100,288,7353,1,0,0:0:0:0:
180,284,7543,2,0,B|184:212|104:176|52:224,1,180,2|2,0:0|0:0,0:0:0:0:
44,132,8113,6,0,B|0:144,3,30,0|2|0|2,0:0|0:0|0:0|0:0,0:0:0:0:
116,108,8492,1,0,0:0:0:0:
156,36,8682,2,0,B|212:68|216:156|144:192,1,180,2|2,0:0|0:0,0:0:0:0:
112,256,9252,1,0,0:0:0:0:
148,328,9442,1,8,0:0:0:0:
228,340,9632,5,0,0:0:0:0:
228,340,9726,1,0,0:0:0:0:
228,340,9821,1,0,0:0:0:0:
316,276,10011,1,0,0:0:0:0:
316,276,10106,1,0,0:0:0:0:
316,276,10201,1,2,0:0:0:0:
184,168,10391,1,0,0:0:0:0:
184,168,10486,1,0,0:0:0:0:
184,168,10581,1,2,0:0:0:0:
324,88,10771,1,0,0:0:0:0:
324,88,10866,1,0,0:0:0:0:
324,88,10961,1,2,0:0:0:0:
132,24,11151,5,0,0:0:0:0:
132,24,11246,1,0,0:0:0:0:
132,24,11341,1,2,0:0:0:0:
20,196,11530,1,0,0:0:0:0:
20,196,11625,1,0,0:0:0:0:
20,196,11720,1,2,0:0:0:0:
148,328,11910,1,0,0:0:0:0:
148,328,12005,1,0,0:0:0:0:
148,328,12100,1,2,0:0:0:0:
316,276,12290,1,2,0:0:0:0:
299,243,12385,1,0,0:0:0:0:
299,205,12480,1,2,0:0:0:0:
322,176,12575,1,0,0:0:0:0:
359,166,12670,1,2,0:0:0:0:
393,182,12764,1,0,0:0:0:0:
416,210,12859,5,4,0:0:0:0:
468,296,13049,2,0,B|492:328,3,30,0|2|0|0,0:0|0:0|0:0|0:0,0:0:0:0:
468,296,13429,1,0,0:0:0:0:
508,224,13619,2,0,B|444:196|380:240|392:320,1,180,2|2,0:0|0:0,0:0:0:0:
312,336,14189,6,0,B|272:352,3,30,0|2|0|2,0:0|0:0|0:0|0:0,0:0:0:0:
312,256,14569,1,0,0:0:0:0:
356,184,14759,2,0,B|288:176|256:100|304:40,1,180
368,108,15328,1,0,0:0:0:0:
368,108,15423,1,0,0:0:0:0:
368,108,15518,1,8,0:0:0:0:
216,164,15708,5,0,0:0:0:0:
216,164,15802,1,0,0:0:0:0:
216,164,15897,1,0,0:0:0:0:
148,116,16087,2,0,B|96:80,2,45,2|0|2,0:0|0:0|0:0,0:0:0:0:
280,216,16467,2,0,B|316:241,2,45,2|0|2,0:0|0:0|0:0,0:0:0:0:
256,88,16847,2,0,B|274:47,2,45,2|0|2,0:0|0:0|0:0,0:0:0:0:
188,248,17226,2,0,B|168:292,2,45,2|0|6,0:0|0:0|0:0,0:0:0:0:
188,248,17606,1,4,0:0:0:0:
408,320,18366,6,0,L|407:320|410:308|421:304|416:293|427:289|423:279|433:274|429:264|436:256,1,90,0|0,0:0|0:0,0:0:0:0:
128,152,18935,6,0,B|98:58|98:58|151:64|174:129,1,180,4|8,0:0|0:0,0:0:0:0:
186,193,19505,1,0,0:0:0:0:
164,280,19695,2,0,B|153:320|100:326|100:326|130:232,1,180,0|8,0:0|0:0,0:0:0:0:
186,193,20264,1,0,0:0:0:0:
279,181,20454,2,0,B|320:170|326:117|326:117|232:144,1,180,0|8,0:0|0:0,0:0:0:0:
186,193,21024,5,0,0:0:0:0:
184,329,21214,2,0,B|236:344|252:284,1,90,0|0,0:0|0:0,0:0:0:0:
232,115,21594,2,0,B|299:124|274:208|278:183,1,90,8|0,0:0|0:0,0:0:0:0:
491,295,21973,2,0,B|448:319|381:321|331:289|306:228,1,180,0|8,0:0|0:0,0:0:0:0:
360,192,22543,1,0,0:0:0:0:
360,112,22733,2,0,B|428:104|468:188|424:240,2,180,0|8|0,0:0|0:0|0:0,0:0:0:0:
360,192,23682,5,2,0:0:0:0:
264,320,23872,1,0,0:0:0:0:
72,256,24062,1,2,0:0:0:0:
264,320,24252,1,0,0:0:0:0:
280,192,24442,1,2,0:0:0:0:
176,120,24632,5,8,0:0:0:0:
160,248,24822,1,0,0:0:0:0:
184,324,25011,2,0,B|104:384|12:320,1,180,4|8,0:0|0:0,0:0:0:0:
72,256,25581,1,0,0:0:0:0:
236,244,25771,2,0,B|316:184|408:248,1,180,0|8,0:0|0:0,0:0:0:0:
348,312,26341,5,0,0:0:0:0:
416,360,26530,2,0,B|396:356|464:380|488:328,1,90,0|0,0:0|0:0,0:0:0:0:
456,148,26910,2,0,B|520:160|498:241,1,90,8|0,0:0|0:0,0:0:0:0:
404,244,27290,2,0,B|324:303|237:242,1,180,0|8,0:0|0:0,0:0:0:0:
208,160,27859,1,0,0:0:0:0:
172,88,28049,6,0,B|180:56|152:52|152:52|164:76|180:104,1,90,0|0,0:0|0:0,0:0:0:0:
287,168,28429,2,0,B|304:192|328:168|328:168|302:168|264:168,1,90,8|0,0:0|0:0,0:0:0:0:
164,228,28809,2,0,B|136:234|145:265|145:265|159:239|175:205,1,90,0|0,0:0|0:0,0:0:0:0:
260,92,29189,2,0,B|332:20|428:84,1,180,8|0,0:0|0:0,0:0:0:0:
364,164,29758,5,2,0:0:0:0:
348,292,29948,1,0,0:0:0:0:
244,220,30138,1,2,0:0:0:0:
452,156,30328,1,2,0:0:0:0:
260,92,30518,1,0,0:0:0:0:
160,232,30708,1,2,0:0:0:0:
260,92,30898,1,0,0:0:0:0:
244,220,31087,6,4,B|297:250|281:322|217:338|185:306,1,180,4|8,0:0|0:0,0:0:0:0:
108,296,31657,1,0,0:0:0:0:
192,164,31847,2,4,B|138:133|154:61|218:45|250:77,1,180,0|8,0:0|0:0,0:0:0:0:
328,88,32417,1,0,0:0:0:0:
312,272,32606,2,4,B|342:325|414:309|430:245|398:213,1,180,0|8,0:0|0:0,0:0:0:0:
388,136,33176,5,0,0:0:0:0:
404,60,33366,1,0,0:0:0:0:
320,164,33556,1,0,0:0:0:0:
456,168,33745,1,8,0:0:0:0:
456,168,33935,1,0,0:0:0:0:
328,88,34125,2,0,B|224:20|224:20|236:96,1,180,0|8,0:0|0:0,0:0:0:0:
244,152,34695,1,0,0:0:0:0:
180,231,34885,2,0,B|112:127|112:127|168:136,2,180,0|8|0,0:0|0:0|0:0,0:0:0:0:
100,320,35834,5,2,0:0:0:0:
356,216,36024,1,0,0:0:0:0:
168,135,36214,1,2,0:0:0:0:
252,316,36404,1,2,0:0:0:0:
248,172,36594,1,2,0:0:0:0:
140,224,36783,5,10,0:0:0:0:
216,240,36973,1,0,0:0:0:0:
292,248,37163,2,0,B|380:224|460:288,1,180,4|8,0:0|0:0,0:0:0:0:
492,356,37733,1,0,0:0:0:0:
252,316,37923,2,0,B|164:292|84:356,1,180,0|8,0:0|0:0,0:0:0:0:
20,312,38492,5,0,0:0:0:0:
60,244,38682,1,0,0:0:0:0:
352,32,39062,1,8,0:0:0:0:
472,344,39442,1,0,0:0:0:0:
60,244,39821,1,8,0:0:0:0:
340,304,40201,2,0,B|400:282|447:249|479:158|426:91|376:99|376:99|349:110|334:148|334:148|333:107|305:86|305:86|260:62|231:89|216:127|216:127|215:87|194:67|156:64|156:64|108:68|104:120,1,720,0|4,0:0|0:0,0:0:0:0:
104,117,41910,1,4,0:0:0:0:
0,240,42100,5,0,0:0:0:0:
44,252,42195,1,0,0:0:0:0:
80,280,42290,1,2,0:0:0:0:
96,324,42385,1,0,0:0:0:0:
140,332,42480,1,0,0:0:0:0:
168,296,42575,1,0,0:0:0:0:
176,252,42670,1,2,0:0:0:0:
460,152,43049,5,2,0:0:0:0:
420,132,43144,1,0,0:0:0:0:
376,148,43239,1,0,0:0:0:0:
372,192,43334,1,0,0:0:0:0:
344,228,43429,1,2,0:0:0:0:
292,228,43524,1,0,0:0:0:0:
256,204,43619,1,0,0:0:0:0:
232,168,43714,1,0,0:0:0:0:
240,128,43809,1,2,0:0:0:0:
256,352,44378,5,8,0:0:0:0:
480,152,44758,5,4,0:0:0:0:
480,152,44948,1,4,0:0:0:0:
376,84,45138,5,0,0:0:0:0:
356,124,45233,1,0,0:0:0:0:
316,148,45328,1,2,0:0:0:0:
272,148,45423,1,0,0:0:0:0:
228,136,45518,1,0,0:0:0:0:
196,104,45613,1,0,0:0:0:0:
184,60,45708,1,2,0:0:0:0:
48,296,46087,5,2,0:0:0:0:
56,252,46182,1,0,0:0:0:0:
92,224,46277,1,0,0:0:0:0:
136,216,46372,1,0,0:0:0:0:
180,224,46467,1,2,0:0:0:0:
224,216,46562,1,0,0:0:0:0:
264,192,46657,1,0,0:0:0:0:
272,148,46752,1,0,0:0:0:0:
264,104,46847,1,2,0:0:0:0:
472,32,47416,5,8,0:0:0:0:
316,328,47796,5,4,0:0:0:0:
316,328,47986,1,4,0:0:0:0:
152,136,48176,5,0,0:0:0:0:
108,140,48271,1,0,0:0:0:0:
68,164,48366,1,2,0:0:0:0:
40,200,48461,1,0,0:0:0:0:
80,216,48556,1,0,0:0:0:0:
124,224,48651,1,0,0:0:0:0:
164,244,48746,1,2,0:0:0:0:
184,280,48841,1,0,0:0:0:0:
392,64,49125,5,2,0:0:0:0:
352,88,49220,1,0,0:0:0:0:
332,128,49315,1,0,0:0:0:0:
340,172,49410,1,0,0:0:0:0:
372,204,49505,1,2,0:0:0:0:
396,244,49600,1,0,0:0:0:0:
404,288,49695,1,0,0:0:0:0:
388,332,49790,1,0,0:0:0:0:
348,348,49885,1,2,0:0:0:0:
32,192,50264,5,0,0:0:0:0:
76,180,50359,1,0,0:0:0:0:
108,148,50454,1,2,0:0:0:0:
120,104,50549,1,0,0:0:0:0:
160,88,50644,1,0,0:0:0:0:
192,120,50739,1,0,0:0:0:0:
204,164,50834,5,4,0:0:0:0:
160,352,51024,1,4,0:0:0:0:
228,232,51214,5,0,0:0:0:0:
216,276,51309,1,0,0:0:0:0:
232,320,51404,1,2,0:0:0:0:
272,344,51499,1,0,0:0:0:0:
316,336,51594,1,0,0:0:0:0:
340,300,51689,1,0,0:0:0:0:
344,256,51783,1,2,0:0:0:0:
356,212,51878,1,0,0:0:0:0:
392,184,51973,1,0,0:0:0:0:
436,180,52068,1,0,0:0:0:0:
472,204,52163,1,2,0:0:0:0:
492,244,52258,1,2,0:0:0:0:
204,164,52733,5,4,0:0:0:0:
420,24,53208,5,0,0:0:0:0:
420,24,53302,1,0,0:0:0:0:
328,48,53492,1,0,0:0:0:0:
392,112,53682,5,0,0:0:0:0:
392,112,53777,1,0,0:0:0:0:
392,112,53872,2,0,B|360:224|360:224|328:152,1,180,4|8,0:0|0:0,0:0:0:0:
276,116,54442,1,0,0:0:0:0:
232,300,54632,2,0,B|264:188|264:188|296:260,1,180,0|8,0:0|0:0,0:0:0:0:
312,320,55201,1,0,0:0:0:0:
472,320,55391,2,0,B|440:208|440:208|408:280,1,180,0|8,0:0|0:0,0:0:0:0:
392,340,55960,5,0,0:0:0:0:
312,320,56151,1,0,0:0:0:0:
232,300,56341,1,0,0:0:0:0:
152,276,56531,1,8,0:0:0:0:
72,256,56720,1,0,0:0:0:0:
44,176,56910,2,0,B|20:64|20:64|44:60|56:72|68:100,1,180,0|8,0:0|0:0,0:0:0:0:
128,152,57480,1,0,0:0:0:0:
180,92,57670,2,0,B|191:64|203:52|227:56|227:56|203:168,2,180,0|8|0,0:0|0:0|0:0,0:0:0:0:
128,152,58619,5,2,0:0:0:0:
256,232,58809,1,0,0:0:0:0:
408,216,58999,1,2,0:0:0:0:
272,96,59189,1,0,0:0:0:0:
256,232,59378,1,0,0:0:0:0:
275,351,59568,5,8,0:0:0:0:
136,314,59758,1,0,0:0:0:0:
52,196,59948,2,0,B|12:132|44:68|116:60,1,180,4|8,0:0|0:0,0:0:0:0:
128,152,60518,1,0,0:0:0:0:
276,175,60708,2,0,B|342:167|374:103|334:39,1,180,0|8,0:0|0:0,0:0:0:0:
272,96,61277,1,0,0:0:0:0:
200,124,61467,5,0,0:0:0:0:
84,352,61847,1,8,0:0:0:0:
384,324,62226,2,0,B|345:286|356:242,1,90,0|0,0:0|0:0,0:0:0:0:
496,207,62606,2,0,B|527:239|512:291,1,90,8|0,0:0|0:0,0:0:0:0:
416,180,62986,6,0,B|332:120|245:196,1,180,0|8,0:0|0:0,0:0:0:0:
220,268,63556,1,0,0:0:0:0:
226,352,63745,2,0,B|275:352|296:304,1,90
148,304,64126,2,0,B|104:192|200:132,1,180,8|0,0:0|0:0,0:0:0:0:
292,160,64695,5,2,0:0:0:0:
420,176,64885,1,0,0:0:0:0:
348,280,65075,1,2,0:0:0:0:
284,72,65265,1,2,0:0:0:0:
168,228,65455,1,0,0:0:0:0:
328,364,65645,1,2,0:0:0:0:
420,176,65835,5,0,0:0:0:0:
94,252,66024,2,0,B|72:304|91:343|176:313|176:313|136:304,1,180,4|8,0:0|0:0,0:0:0:0:
24,336,66594,1,0,0:0:0:0:
108,176,66783,2,0,B|130:124|111:85|26:115|26:115|66:124,1,180,0|8,0:0|0:0,0:0:0:0:
180,92,67353,1,0,0:0:0:0:
168,228,67543,2,0,B|219:250|258:231|228:146|228:146|219:186,1,180,0|8,0:0|0:0,0:0:0:0:
260,300,68113,5,0,0:0:0:0:
332,336,68302,2,0,B|376:364|428:332,1,90
500,216,68682,2,0,B|456:188|404:220,1,90,8|0,0:0|0:0,0:0:0:0:
276,216,69062,2,0,B|278:198|236:144|294:118|314:86|296:40,1,180,0|8,0:0|0:0,0:0:0:0:
220,32,69632,1,0,0:0:0:0:
164,128,69822,2,0,B|108:160|52:128|68:64|116:40,2,180,0|8|0,0:0|0:0|0:0,0:0:0:0:
220,32,70771,5,2,0:0:0:0:
344,172,70961,1,0,0:0:0:0:
160,208,71151,1,2,0:0:0:0:
244,144,71341,1,2,0:0:0:0:
208,288,71531,1,2,0:0:0:0:
56,240,71720,5,8,0:0:0:0:
160,208,71910,1,0,0:0:0:0:
280,236,72100,2,0,B|380:304|440:184,1,180,4|8,0:0|0:0,0:0:0:0:
440,120,72670,1,0,0:0:0:0:
248,52,72859,2,0,B|148:-16|88:104,1,180,0|8,0:0|0:0,0:0:0:0:
88,168,73429,1,0,0:0:0:0:
336,160,73619,6,0,B|368:168|372:140|372:140|348:152|320:168,1,90,0|0,0:0|0:0,0:0:0:0:
256,275,73999,2,0,B|232:292|256:316|256:316|256:290|256:252,1,90,8|0,0:0|0:0,0:0:0:0:
196,152,74379,2,0,B|190:124|159:133|159:133|185:147|219:163,1,90,0|0,0:0|0:0,0:0:0:0:
264,192,74758,1,8,0:0:0:0:
264,192,74948,1,0,0:0:0:0:
120,264,75138,2,0,B|60:242|13:209|-19:118|34:51|84:59|84:59|111:70|126:108|126:108|127:67|155:46|155:46|200:22|229:49|244:87|244:87|245:47|266:27|304:24|304:24|352:28|356:80,1,720,0|4,0:0|0:0,0:0:0:0:
