osu file format v12

[General]
AudioFilename: luohuaweichen.mp3
AudioLeadIn: 2000
PreviewTime: 82362
Countdown: 0
SampleSet: Soft
StackLeniency: 0.7
Mode: 0
LetterboxInBreaks: 0

[Editor]
DistanceSpacing: 0.4
BeatDivisor: 4
GridSize: 4

[Metadata]
Title:Ura mo Karada mo Rakkamijin
TitleUnicode:うらもからだも落花微塵
Artist:Nanako
ArtistUnicode:Nanako
Creator:Megurine Luka
Version:Extreme
Source:jubeat knit APPEND
Tags:BEMANI KONAMI Philosophy2 spboxer3 Mura_77
BeatmapID:155933
BeatmapSetID:50772

[Difficulty]
HPDrainRate:7
CircleSize:4
OverallDifficulty:7
ApproachRate:8
SliderMultiplier:1.8
SliderTickRate:1

[Events]
//Background and Video events
0,0,"BG.jpg",0,0
//Break Periods
//Storyboard Layer 0 (Background)
//Storyboard Layer 1 (Fail)
//Storyboard Layer 2 (Pass)
//Storyboard Layer 3 (Foreground)
//Storyboard Sound Samples
//Background Colour Transformations
3,100,163,162,255

[TimingPoints]
717,379.746835443038,4,2,1,20,1,0
906,-100,4,2,1,40,0,0
1286,-100,4,2,1,20,0,0
1666,-100,4,2,1,40,0,0
2046,-100,4,2,1,25,0,0
2425,-100,4,2,1,40,0,0
3754,-100,4,2,1,20,0,0
5653,-200,4,2,1,80,0,0
6128,-100,4,2,1,60,0,0
9830,-100,4,2,1,80,0,0
10020,-100,4,2,1,60,0,0
11349,-100,4,2,1,80,0,0
17425,-100,4,2,1,80,0,0
18185,-200,4,2,1,60,0,0
18944,-100,4,2,2,80,0,0
25020,-100,4,2,2,80,0,0
26539,-80,4,2,2,80,0,0
28058,-133.333333333333,4,2,2,80,0,0
28628,-80,4,2,2,80,0,0
31096,-100,4,2,2,80,0,0
32615,-80,4,2,2,80,0,0
34134,-100,4,2,2,80,0,0
34894,-80,4,2,2,80,0,0
37172,-100,4,2,1,80,0,0
38691,-100,4,2,2,80,0,0
41729,-100,4,2,1,80,0,0
52742,-200,4,2,1,80,0,0
53122,-100,4,2,1,80,0,0
54071,-100,4,2,2,80,0,0
56919,-133.333333333333,4,2,2,80,0,0
57679,-80,4,2,2,80,0,0
59957,-133.333333333333,4,2,2,80,0,0
63754,-100,4,2,2,80,0,0
66033,-100,4,2,2,80,0,0
69071,-133.333333333333,4,2,2,80,0,0
69830,-80,4,2,2,80,0,0
72109,-80,4,2,1,80,0,0
73628,-80,4,2,2,80,0,0
75147,-133.333333333333,4,2,2,80,0,0
76666,-133.333333333333,4,2,0,80,0,0
76951,-133.333333333333,4,2,1,80,0,0
78185,-133.333333333333,4,2,0,80,0,0
79324,-133.333333333333,4,2,1,80,0,0
79704,-133.333333333333,4,2,0,80,0,0
80843,-133.333333333333,4,2,1,80,0,0
82742,-100,4,2,0,90,0,1
84261,-100,4,2,1,90,0,1
90337,-100,4,2,1,80,0,1
93375,-100,4,2,1,80,0,0
107046,-100,4,2,0,80,0,0

[Colours]
Combo1 : 128,0,255
Combo2 : 255,128,192

[HitObjects]
136,280,717,1,8,0:0:0:0:
136,280,906,1,2,0:0:0:0:
232,312,1286,1,8,0:0:0:0:
256,200,1666,1,2,0:0:0:0:
368,176,2046,1,8,0:0:0:0:
328,72,2425,5,2,0:0:0:0:
240,136,2615,1,2,0:0:0:0:
200,240,2805,1,2,0:0:0:0:
232,344,2995,1,2,0:0:0:0:
152,264,3185,1,2,0:0:0:0:
240,192,3375,1,2,0:0:0:0:
192,88,3565,1,2,0:0:0:0:
304,32,3754,5,8,0:0:0:0:
304,32,3944,1,10,0:0:0:0:
380,124,4324,1,2,0:0:0:0:
396,248,4704,1,8,0:0:0:0:
336,344,5084,1,2,0:0:0:0:
336,344,5653,6,0,B|312:320|248:304,1,90,4|0,0:0|0:0,0:0:0:0:
240,304,6128,1,0,0:0:0:0:
224,304,6223,1,0,0:0:0:0:
112,336,6413,1,0,0:0:0:0:
40,224,6603,1,0,0:0:0:0:
56,224,6698,1,0,0:0:0:0:
72,224,6792,1,6,0:0:0:0:
152,144,6982,6,0,B|184:168,3,30,2|0|0|2,0:0|0:0|0:0|0:0,0:0:0:0:
264,48,7362,1,0,0:0:0:0:
264,48,7552,2,0,B|304:104|272:184|184:168,1,180,2|2,0:0|0:0,0:0:0:0:
424,168,8122,6,0,B|464:144,3,30,2|0|0|2,0:0|0:0|0:0|0:0,0:0:0:0:
328,288,8501,1,0,0:0:0:0:
328,288,8691,2,0,B|288:232|320:152|408:168,1,180,2|2,0:0|0:0,0:0:0:0:
400,80,9261,1,2,0:0:0:0:
264,144,9451,1,2,0:0:0:0:
312,56,9641,1,2,0:0:0:0:
344,200,9830,1,6,0:0:0:0:
232,296,10020,5,0,0:0:0:0:
232,296,10115,1,0,0:0:0:0:
232,296,10210,1,0,0:0:0:0:
104,248,10400,5,0,0:0:0:0:
128,224,10495,1,0,0:0:0:0:
152,200,10590,1,2,0:0:0:0:
224,96,10780,5,0,0:0:0:0:
224,96,10875,1,0,0:0:0:0:
224,96,10970,1,0,0:0:0:0:
336,72,11160,5,0,0:0:0:0:
344,104,11254,1,0,0:0:0:0:
352,136,11349,1,6,0:0:0:0:
344,256,11539,5,0,0:0:0:0:
344,256,11634,1,0,0:0:0:0:
344,256,11729,1,0,0:0:0:0:
264,352,11919,5,0,0:0:0:0:
264,352,12014,1,0,0:0:0:0:
264,352,12109,1,2,0:0:0:0:
264,352,12299,5,2,0:0:0:0:
232,336,12394,1,2,0:0:0:0:
200,336,12489,1,2,0:0:0:0:
168,344,12584,1,2,0:0:0:0:
176,312,12679,1,2,0:0:0:0:
184,280,12773,1,2,0:0:0:0:
192,248,12868,1,6,0:0:0:0:
144,144,13058,6,4,B|176:160,3,30,2|0|0|2,0:0|0:0|0:0|0:0,0:0:0:0:
192,72,13438,1,0,0:0:0:0:
56,56,13628,2,0,B|104:88|72:136|72:176|72:176|128:144,1,180,2|2,0:0|0:0,0:0:0:0:
336,184,14198,2,0,B|304:200,3,30,2|0|0|2,0:0|0:0|0:0|0:0,0:0:0:0:
312,96,14577,1,0,0:0:0:0:
424,72,14767,2,0,B|376:104|408:152|408:192|408:192|352:160,1,180,2|2,0:0|0:0,0:0:0:0:
216,112,15337,5,2,0:0:0:0:
216,112,15432,1,2,0:0:0:0:
216,112,15527,1,2,0:0:0:0:
160,240,15717,2,0,B|136:284,2,45,0|0|6,0:0|0:0|0:0,0:0:0:0:
104,48,16096,2,0,B|40:40,2,45
392,104,16476,2,0,B|440:96,2,45,0|0|2,0:0|0:0|0:0,0:0:0:0:
336,328,16856,2,0,B|368:376,2,45
72,208,17235,2,0,B|24:224,1,45
8,192,17425,2,0,B|48:312,1,90,4|0,0:0|0:0,0:0:0:0:
64,104,18185,5,0,0:0:0:0:
8,192,18375,2,0,B|48:312,1,90
96,344,18944,5,6,0:0:0:0:
112,328,19039,1,0,0:0:0:0:
128,312,19134,2,0,B|240:312,1,90,0|2,0:0|0:0,0:0:0:0:
320,232,19514,1,0,0:0:0:0:
280,120,19704,2,0,B|160:120,1,90,0|0,0:0|0:0,0:0:0:0:
96,120,20084,1,0,0:0:0:0:
144,192,20273,1,0,0:0:0:0:
112,280,20463,6,0,B|212:280,1,90,4|0,0:0|0:0,0:0:0:0:
304,96,20843,2,0,B|192:96,1,90,2|0,0:0|0:0,0:0:0:0:
368,216,21223,1,0,0:0:0:0:
320,288,21413,1,0,0:0:0:0:
376,360,21603,1,0,0:0:0:0:
288,376,21792,1,0,0:0:0:0:
288,376,21982,1,4,0:0:0:0:
128,304,22362,5,2,0:0:0:0:
128,304,22457,1,0,0:0:0:0:
128,304,22552,1,0,0:0:0:0:
96,224,22742,5,2,0:0:0:0:
64,144,23122,5,2,0:0:0:0:
32,64,23501,5,2,0:0:0:0:
88,160,23691,1,0,0:0:0:0:
200,184,23881,1,2,0:0:0:0:
152,288,24071,1,0,0:0:0:0:
264,280,24261,1,2,0:0:0:0:
216,72,24451,1,2,0:0:0:0:
400,168,24641,1,4,0:0:0:0:
344,72,24831,1,2,0:0:0:0:
464,72,25020,5,2,0:0:0:0:
352,320,25210,2,0,B|344:376,2,45,0|0|2,0:0|0:0|0:0,0:0:0:0:
256,192,25590,1,0,0:0:0:0:
152,56,25780,1,0,0:0:0:0:
83,114,25970,1,0,0:0:0:0:
102,201,26160,1,0,0:0:0:0:
188,232,26349,1,0,0:0:0:0:
268,184,26539,6,0,B|327:141|324:116|324:116|346:110,1,112.499998323619,4|0,0:0|0:0,0:0:0:0:
382,3,26919,2,0,B|459:5|462:99,1,112.499998323619,2|0,0:0|0:0,0:0:0:0:
345,110,27299,1,0,0:0:0:0:
345,110,27489,1,0,0:0:0:0:
408,200,27679,1,0,0:0:0:0:
408,200,27868,1,0,0:0:0:0:
352,296,28058,6,0,B|312:320|248:288|264:232,1,134.999995976687,4|2,0:0|0:0,0:0:0:0:
168,184,28628,1,0,0:0:0:0:
64,232,28818,2,0,B|40:112,1,112.499998323619
64,344,29198,2,0,B|120:224,1,112.499998323619
152,144,29577,5,4,0:0:0:0:
256,192,29767,1,2,0:0:0:0:
336,272,29957,1,0,0:0:0:0:
392,368,30147,1,2,0:0:0:0:
232,328,30337,1,2,0:0:0:0:
328,160,30527,1,2,0:0:0:0:
496,224,30717,1,2,0:0:0:0:
392,368,30906,1,2,0:0:0:0:
336,272,31096,6,0,B|296:240|232:248,1,90,4|0,0:0|0:0,0:0:0:0:
251,246,31381,1,0,0:0:0:0:
251,246,31476,1,2,0:0:0:0:
144,200,31666,1,0,0:0:0:0:
48,112,31856,2,0,B|80:72|136:72,1,90,0|0,0:0|0:0,0:0:0:0:
232,144,32235,1,0,0:0:0:0:
336,112,32425,1,0,0:0:0:0:
408,24,32615,6,0,B|448:32|472:96|448:144,1,112.499998323619,4|0,0:0|0:0,0:0:0:0:
264,184,32995,2,0,B|224:176|200:112|224:64,1,112.499998323619,2|0,0:0|0:0,0:0:0:0:
336,112,33375,1,0,0:0:0:0:
336,112,33565,1,0,0:0:0:0:
416,192,33754,1,0,0:0:0:0:
416,192,33944,1,0,0:0:0:0:
320,264,34134,6,0,B|260:348|160:316,1,180,4|2,0:0|0:0,0:0:0:0:
216,176,34704,1,0,0:0:0:0:
152,48,34894,2,0,B|88:64|80:136,1,112.499998323619
48,300,35273,2,0,B|80:244|152:244,1,112.499998323619
256,280,35653,5,4,0:0:0:0:
376,32,35843,1,0,0:0:0:0:
96,64,36033,1,2,0:0:0:0:
168,168,36223,1,0,0:0:0:0:
240,48,36413,1,2,0:0:0:0:
328,152,36603,1,2,0:0:0:0:
252,212,36792,1,2,0:0:0:0:
244,128,36982,1,2,0:0:0:0:
76,264,37172,6,0,B|92:328|92:328|184:248,1,180,4|2,0:0|0:0,0:0:0:0:
256,340,37742,1,0,0:0:0:0:
434,242,37932,2,0,B|348:168|348:168|332:232,1,180
500,304,38501,1,0,0:0:0:0:
332,232,38691,2,0,B|184:268,1,135,4|0,0:0|0:0,0:0:0:0:
188,308,39071,2,0,B|232:160,1,135,2|0,0:0|0:0,0:0:0:0:
272,188,39451,2,0,B|148:152,1,90
160,156,39735,1,0,0:0:0:0:
132,148,39830,1,0,0:0:0:0:
248,48,40020,5,0,0:0:0:0:
248,48,40115,1,0,0:0:0:0:
248,48,40210,1,4,0:0:0:0:
336,68,40400,1,0,0:0:0:0:
412,132,40590,1,0,0:0:0:0:
436,236,40780,1,0,0:0:0:0:
384,340,40970,5,4,0:0:0:0:
328,280,41349,5,4,0:0:0:0:
272,220,41729,5,4,0:0:0:0:
160,340,41919,1,0,0:0:0:0:
160,340,42109,5,0,0:0:0:0:
124,300,42204,1,0,0:0:0:0:
116,248,42299,1,0,0:0:0:0:
148,204,42394,1,0,0:0:0:0:
188,168,42489,1,0,0:0:0:0:
224,128,42584,1,0,0:0:0:0:
212,76,42679,1,0,0:0:0:0:
148,204,43058,5,0,0:0:0:0:
196,232,43153,1,0,0:0:0:0:
248,240,43248,1,0,0:0:0:0:
300,228,43343,1,0,0:0:0:0:
348,200,43438,1,0,0:0:0:0:
400,184,43533,1,0,0:0:0:0:
452,192,43628,1,0,0:0:0:0:
488,232,43723,1,0,0:0:0:0:
492,284,43818,1,0,0:0:0:0:
400,280,44198,5,0,0:0:0:0:
400,280,44387,2,0,B|348:364,1,90
256,192,44767,5,4,0:0:0:0:
256,192,44957,1,2,0:0:0:0:
108,80,45147,5,0,0:0:0:0:
96,132,45242,1,0,0:0:0:0:
132,172,45337,1,0,0:0:0:0:
184,168,45432,1,0,0:0:0:0:
220,128,45527,1,0,0:0:0:0:
272,120,45622,1,0,0:0:0:0:
316,148,45717,1,0,0:0:0:0:
256,352,46096,5,0,0:0:0:0:
300,320,46191,1,0,0:0:0:0:
328,272,46286,1,0,0:0:0:0:
352,224,46381,1,0,0:0:0:0:
384,180,46476,1,0,0:0:0:0:
436,172,46571,1,0,0:0:0:0:
468,216,46666,1,0,0:0:0:0:
456,268,46761,1,0,0:0:0:0:
404,276,46856,1,0,0:0:0:0:
256,192,47046,5,2,0:0:0:0:
256,192,47235,1,2,0:0:0:0:
256,32,47425,1,2,0:0:0:0:
96,304,47805,5,4,0:0:0:0:
96,304,47995,1,2,0:0:0:0:
28,120,48185,5,0,0:0:0:0:
80,132,48280,1,0,0:0:0:0:
128,156,48375,1,0,0:0:0:0:
164,196,48470,1,0,0:0:0:0:
184,248,48565,1,0,0:0:0:0:
192,300,48660,1,0,0:0:0:0:
180,352,48754,1,0,0:0:0:0:
428,60,49134,5,0,0:0:0:0:
376,68,49229,1,0,0:0:0:0:
328,88,49324,1,0,0:0:0:0:
288,124,49419,1,0,0:0:0:0:
260,172,49514,1,0,0:0:0:0:
256,224,49609,1,0,0:0:0:0:
260,276,49704,1,0,0:0:0:0:
288,320,49799,1,0,0:0:0:0:
332,348,49894,1,0,0:0:0:0:
56,48,50273,5,0,0:0:0:0:
108,36,50368,1,0,0:0:0:0:
156,56,50463,1,0,0:0:0:0:
176,104,50558,1,0,0:0:0:0:
160,156,50653,1,0,0:0:0:0:
120,192,50748,1,0,0:0:0:0:
64,192,50843,1,4,0:0:0:0:
200,348,51033,1,2,0:0:0:0:
200,348,51223,5,0,0:0:0:0:
244,316,51318,1,0,0:0:0:0:
276,272,51413,1,0,0:0:0:0:
292,220,51508,1,0,0:0:0:0:
284,168,51603,1,0,0:0:0:0:
268,116,51698,1,0,0:0:0:0:
276,64,51792,1,0,0:0:0:0:
320,36,51887,1,0,0:0:0:0:
372,48,51982,1,0,0:0:0:0:
400,96,52077,1,0,0:0:0:0:
388,148,52172,1,0,0:0:0:0:
344,176,52267,1,0,0:0:0:0:
344,176,52742,6,0,B|379:258,1,90,4|0,0:0|0:0,0:0:0:0:
388,276,53217,1,0,0:0:0:0:
396,292,53311,1,0,0:0:0:0:
240,364,53501,1,0,0:0:0:0:
112,256,53691,1,0,0:0:0:0:
120,240,53786,1,0,0:0:0:0:
128,224,53881,1,4,0:0:0:0:
100,104,54071,5,0,0:0:0:0:
208,56,54261,1,0,0:0:0:0:
208,56,54451,1,0,0:0:0:0:
208,168,54641,2,0,B|268:172|296:108,1,90,2|0,0:0|0:0,0:3:0:0:
412,167,55020,2,0,B|404:208|348:224,1,90,2|0,0:0|0:0,0:0:0:0:
240,288,55400,2,0,B|284:316|276:376|276:376|316:352|376:352,1,180,4|0,0:0|0:0,0:0:0:0:
351,353,55970,1,0,0:0:0:0:
424,320,56160,5,0,0:0:0:0:
472,244,56349,1,0,0:0:0:0:
484,144,56539,1,0,0:0:0:0:
460,40,56729,1,0,0:0:0:0:
380,112,56919,2,0,B|328:152|236:152,1,134.999995976687,4|2,0:0|0:0,0:0:0:0:
152,148,57489,1,0,0:0:0:0:
64,96,57679,6,0,B|108:36|180:56,1,112.499998323619,2|0,0:0|0:0,0:0:0:0:
232,204,58058,2,0,B|188:264|116:244,1,112.499998323619,2|0,0:0|0:0,0:0:0:0:
24,232,58438,5,4,0:0:0:0:
144,84,58628,1,0,0:0:0:0:
156,240,58818,1,2,0:0:0:0:
236,352,59008,1,0,0:0:0:0:
264,244,59198,1,2,0:0:0:0:
392,128,59387,1,2,0:0:0:0:
368,248,59577,1,2,0:0:0:0:
460,352,59767,1,2,0:0:0:0:
468,252,59957,6,0,B|440:188|440:188|492:132,1,134.999995976687,4|2,0:0|0:0,0:0:0:0:
352,64,60527,1,0,0:0:0:0:
152,156,60717,2,0,B|210:117|210:117|197:42,1,134.999995976687,2|0,0:0|0:0,0:0:0:0:
352,64,61286,1,0,0:0:0:0:
296,252,61476,5,4,0:0:0:0:
296,252,61571,1,0,0:0:0:0:
296,252,61666,1,0,0:0:0:0:
224,280,61856,5,2,0:0:0:0:
148,308,62235,5,0,0:0:0:0:
68,332,62615,5,0,0:0:0:0:
68,332,62995,2,0,B|136:200,1,134.999995976687,4|2,0:0|0:0,0:0:0:0:
112,40,63565,1,0,0:0:0:0:
44,112,63754,2,0,B|140:136,1,90
176,248,64134,2,0,B|80:224,1,90
12,208,64514,5,4,0:0:0:0:
288,108,64704,1,2,0:0:0:0:
216,360,64894,1,0,0:0:0:0:
144,112,65084,1,0,0:0:0:0:
112,296,65273,1,2,0:0:0:0:
288,252,65463,1,2,0:0:0:0:
200,276,65653,1,2,0:0:0:0:
136,204,65843,1,2,0:0:0:0:
288,108,66033,6,0,B|344:88|364:40,1,90,4|0,0:0|0:0,0:0:0:0:
368,40,66318,1,0,0:0:0:0:
384,32,66413,1,2,0:0:0:0:
480,128,66603,1,0,0:0:0:0:
372,220,66792,2,0,B|316:240|296:288,1,90
302,274,67077,1,0,0:0:0:0:
302,274,67172,1,2,0:0:0:0:
180,200,67362,1,0,0:0:0:0:
76,60,67552,6,0,B|28:156,1,90,4|0,0:0|0:0,0:0:0:0:
228,80,67932,2,0,B|145:115,1,90,2|0,0:0|0:0,0:0:0:0:
104,236,68311,1,0,0:0:0:0:
368,140,68501,1,0,0:0:0:0:
228,80,68691,1,0,0:0:0:0:
200,336,68881,1,0,0:0:0:0:
328,324,69071,6,0,B|380:268|456:288,1,135,4|2,0:0|0:0,0:0:0:0:
450,286,69641,1,0,0:0:0:0:
444,132,69830,2,0,B|352:228,1,112.5
296,84,70210,2,0,B|428:56,1,112.499998323619
406,60,70590,5,4,0:0:0:0:
168,28,70780,1,0,0:0:0:0:
256,148,70970,1,2,0:0:0:0:
80,188,71160,1,0,0:0:0:0:
288,280,71349,1,2,0:0:0:0:
192,360,71539,1,2,0:0:0:0:
424,256,71729,1,2,0:0:0:0:
396,120,71919,1,2,0:0:0:0:
256,148,72109,6,0,B|240:84|184:60,1,112.499998323619,4|0,0:0|0:0,0:0:0:0:
189,62,72394,1,0,0:0:0:0:
189,62,72489,1,2,0:0:0:0:
136,172,72679,1,0,0:0:0:0:
76,332,72868,2,0,B|108:272|184:280,1,112.499998323619,2|0,0:0|0:0,0:0:0:0:
324,312,73248,2,0,B|292:372|216:364,1,112.499998323619,2|0,0:0|0:0,0:0:0:0:
208,208,73628,5,4,0:0:0:0:
368,48,74008,1,2,0:0:0:0:
48,348,74387,1,0,0:0:0:0:
68,204,74767,1,0,0:0:0:0:
68,204,75147,5,4,0:0:0:0:
152,72,75337,1,0,0:0:0:0:
152,72,75432,1,0,0:0:0:0:
152,72,75527,1,2,0:0:0:0:
296,152,75717,1,0,0:0:0:0:
428,96,75906,2,0,B|460:132|436:180,1,67.4999979883433,2|0,0:0|0:0,0:0:0:0:
388,280,76286,2,0,B|356:244|380:196,2,67.4999979883433,0|0|6,0:0|0:0|0:0,0:0:0:0:
60,40,76951,5,4,0:0:0:0:
164,344,77235,1,0,0:0:0:0:
408,128,77520,1,0,0:0:0:0:
36,240,77805,1,4,0:0:0:0:
168,144,77995,1,4,0:0:0:0:
364,328,78185,5,6,0:0:0:0:
56,128,78470,1,0,0:0:0:0:
436,104,78754,1,2,0:0:0:0:
256,296,79039,1,0,0:0:0:0:
256,88,79324,1,4,0:0:0:0:
140,40,79514,1,4,0:0:0:0:
96,240,79704,5,4,0:0:0:0:
408,336,79989,1,0,0:0:0:0:
336,40,80273,1,0,0:0:0:0:
224,348,80558,1,0,0:0:0:0:
64,128,80843,1,4,0:0:0:0:
140,40,81033,1,4,0:0:0:0:
112,312,81223,5,6,0:0:0:0:
184,240,81413,1,2,0:0:0:0:
288,192,81603,1,2,0:0:0:0:
392,192,81792,1,2,0:0:0:0:
304,240,81982,5,6,0:0:0:0:
192,208,82172,1,2,0:0:0:0:
96,152,82362,1,2,0:0:0:0:
64,48,82552,1,2,0:0:0:0:
160,88,82742,6,0,B|204:28|312:32,2,135,4|0|2,0:0|0:0|0:0,0:0:0:0:
128,244,83691,5,2,0:0:0:0:
408,312,83881,1,2,0:0:0:0:
404,152,84071,1,2,0:0:0:0:
228,100,84261,2,0,B|136:128|48:60,2,180,4|0|0,0:0|0:0|0:0,0:0:0:0:
228,100,85210,1,0,0:0:0:0:
288,44,85400,6,0,B|332:84|300:136,1,90,2|0,0:0|0:0,0:0:0:0:
248,184,85780,2,0,B|296:220|392:208,1,135,4|0,0:0|0:0,0:0:0:0:
372,164,86160,2,0,B|424:240|400:344,1,180
372,164,86919,1,0,0:0:0:0:
160,64,87299,5,2,0:0:0:0:
372,164,87584,1,2,0:0:0:0:
140,216,87868,1,2,0:0:0:0:
368,328,88153,1,2,0:0:0:0:
184,368,88438,6,0,B|264:328|264:328|184:288,1,180,0|4,0:0|0:0,0:0:0:0:
104,328,89103,1,0,0:0:0:0:
400,136,89387,1,0,0:0:0:0:
96,52,89672,1,0,0:0:0:0:
340,360,89957,1,0,0:0:0:0:
268,276,90147,1,0,0:0:0:0:
168,240,90337,5,4,0:0:0:0:
240,192,90717,5,2,0:0:0:0:
312,144,91096,5,2,0:0:0:0:
396,104,91476,2,0,B|444:196,1,90,2|0,0:0|0:0,0:0:0:0:
328,336,91856,1,4,0:0:0:0:
128,296,92235,2,0,B|80:204,1,90,2|0,0:0|0:0,0:0:0:0:
180,60,92615,1,4,0:0:0:0:
384,88,92995,1,2,0:0:0:0:
256,192,93375,12,2,94894,0:0:0:0:
256,192,95273,5,2,0:0:0:0:
372,324,95653,1,2,0:0:0:0:
356,324,95748,1,2,0:0:0:0:
340,324,95843,1,2,0:0:0:0:
324,324,95938,1,2,0:0:0:0:
308,324,96033,1,2,0:0:0:0:
292,324,96128,1,2,0:0:0:0:
276,324,96223,1,2,0:0:0:0:
144,256,96413,5,4,0:0:0:0:
72,152,96603,2,2,B|36:176,3,30
140,56,96982,1,0,0:0:0:0:
244,124,97172,2,0,B|224:188|136:216|84:164,1,180,2|2,0:0|0:0,0:0:0:0:
88,336,97742,6,2,B|104:372,3,30
180,276,98122,1,0,0:0:0:0:
96,176,98311,2,0,B|32:196|8:268|64:324,1,180,2|2,0:0|0:0,0:0:0:0:
180,276,98881,5,2,0:0:0:0:
236,204,99071,1,2,0:0:0:0:
324,188,99261,1,2,0:0:0:0:
408,216,99451,1,6,0:0:0:0:
392,88,99641,5,0,0:0:0:0:
420,76,99735,1,0,0:0:0:0:
448,64,99830,1,2,0:0:0:0:
324,188,100020,5,0,0:0:0:0:
296,172,100115,1,0,0:0:0:0:
268,160,100210,1,2,0:0:0:0:
372,288,100400,5,0,0:0:0:0:
400,276,100495,1,0,0:0:0:0:
428,264,100590,1,0,0:0:0:0:
288,368,100780,5,0,0:0:0:0:
256,360,100875,1,0,0:0:0:0:
224,352,100970,1,6,0:0:0:0:
68,324,101160,5,0,0:0:0:0:
96,308,101254,1,0,0:0:0:0:
124,296,101349,1,0,0:0:0:0:
208,200,101539,5,0,0:0:0:0:
176,192,101634,1,0,0:0:0:0:
144,184,101729,1,2,0:0:0:0:
48,104,101919,5,2,0:0:0:0:
72,84,102014,1,2,0:0:0:0:
100,68,102109,1,2,0:0:0:0:
132,60,102204,1,2,0:0:0:0:
164,68,102299,1,2,0:0:0:0:
192,80,102394,1,2,0:0:0:0:
216,100,102489,1,6,0:0:0:0:
356,140,102679,6,2,B|352:84,3,30
432,48,103058,1,0,0:0:0:0:
432,188,103248,2,0,B|392:272|296:240|284:180,1,180,2|2,0:0|0:0,0:0:0:0:
156,244,103818,6,2,B|160:280,3,30
80,336,104197,1,0,0:0:0:0:
80,196,104387,2,0,B|104:132|216:132|228:208,1,180,2|2,0:0|0:0,0:0:0:0:
292,268,104957,5,2,0:0:0:0:
376,232,105147,1,2,0:0:0:0:
412,148,105337,1,2,0:0:0:0:
396,60,105527,1,4,0:0:0:0:
312,32,105717,5,0,0:0:0:0:
312,32,105811,1,0,0:0:0:0:
312,32,105906,1,2,0:0:0:0:
144,136,106096,5,0,0:0:0:0:
144,136,106191,1,0,0:0:0:0:
144,136,106286,1,2,0:0:0:0:
292,220,106476,5,0,0:0:0:0:
292,220,106571,1,0,0:0:0:0:
292,220,106666,1,2,0:0:0:0:
148,312,106856,5,0,0:0:0:0:
148,312,106951,1,0,0:0:0:0:
148,312,107046,1,6,0:0:0:0:
256,40,107235,1,4,0:0:0:0:
256,40,108565,5,2,0:0:0:0:
124,68,108754,1,0,0:0:0:0:
124,68,108849,1,0,0:0:0:0:
124,68,108944,1,2,0:0:0:0:
212,164,109134,1,0,0:0:0:0:
212,164,109229,1,0,0:0:0:0:
212,164,109324,1,0,0:0:0:0:
340,152,109514,5,0,0:0:0:0:
340,152,109609,1,0,0:0:0:0:
340,152,109704,1,2,0:0:0:0:
428,276,109894,1,0,0:0:0:0:
428,276,109989,1,0,0:0:0:0:
428,276,110084,1,6,0:0:0:0:
256,40,110273,1,6,0:0:0:0:
256,324,111603,5,6,0:0:0:0:
256,40,111792,1,6,0:0:0:0:
