osu file format v14

[General]
AudioFilename: white mapping.mp3
AudioLeadIn: 0
PreviewTime: -1
Countdown: 0
SampleSet: Soft
StackLeniency: 0.2
Mode: 0
LetterboxInBreaks: 0
WidescreenStoryboard: 0

[Editor]
Bookmarks: 23,600,18051,36946,57138,79782,98676
DistanceSpacing: 1.7
BeatDivisor: 4
GridSize: 4
TimelineZoom: 2.2

[Metadata]
Title:Lovers White Flag
TitleUnicode:Lovers White Flag
Artist:Nanaki
ArtistUnicode:Nanaki
Creator:Panxo_Gamer
Version:Love Flag
Source:
Tags:
BeatmapID:664364
BeatmapSetID:295769

[Difficulty]
HPDrainRate:7
CircleSize:4
OverallDifficulty:7
ApproachRate:9.3
SliderMultiplier:1.7
SliderTickRate:1

[Events]
//Background and Video events
0,0,"BG.jpg",0,0
//Break Periods
//Storyboard Layer 0 (Background)
//Storyboard Layer 1 (Fail)
//Storyboard Layer 2 (Pass)
//Storyboard Layer 3 (Foreground)
//Storyboard Sound Samples

[TimingPoints]
600,288.461538461538,4,2,1,100,1,0
18051,-100,4,2,1,100,0,1
36946,-100,4,2,1,100,0,0
57138,-100,4,2,1,100,0,1
79782,-100,4,2,1,100,0,0
98676,-100,4,2,1,100,0,1
142667,-133.333333333333,4,2,1,100,0,0

[Colours]
Combo1 : 198,0,0
Combo2 : 0,128,255

[HitObjects]
196,216,600,6,0,P|176:168|144:132,1,85
56,144,888,2,0,P|88:80|192:56,1,170
224,136,1321,2,0,L|316:140,1,85
364,40,1610,2,0,L|428:116,2,85
288,56,2042,2,0,P|208:64|120:96,1,170
24,216,2907,1,4,0:0:0:0:
148,184,3051,6,0,P|200:240|224:260,1,85
268,320,3340,1,0,0:0:0:0:
356,268,3484,2,0,B|404:192|404:192|416:112,1,170
316,76,3917,2,0,P|264:76|224:88,2,85
408,108,4349,6,0,P|440:152|456:192,1,85
368,204,4638,2,0,P|364:264|388:304,1,85
464,316,4926,2,0,P|404:352|300:356,1,170
248,276,5359,2,0,P|200:288|152:324,2,85
312,336,5792,2,0,P|384:272|424:192,1,170
348,136,6224,2,0,P|384:104|428:104,2,85
408,232,6657,6,0,P|384:280|352:288,1,85
272,288,6946,2,0,L|212:380,1,85
104,336,7234,2,0,L|164:260,1,85
132,172,7523,2,0,P|204:152|248:164,1,85
260,240,7811,2,0,L|352:240,1,85
448,168,8099,6,0,P|380:124|292:124,1,170
324,224,8532,2,0,L|224:284,1,85
180,220,8821,2,0,P|156:280|156:324,1,85
256,336,9109,2,0,P|328:332|372:316,1,85
132,132,9830,6,4,P|144:244|176:300,1,170
252,336,10263,2,0,P|312:316|364:288,1,85
320,220,10551,2,0,L|304:124,1,85
244,80,10768,1,0,0:0:0:0:
212,76,10840,1,0,0:0:0:0:
180,84,10984,1,0,0:0:0:0:
136,212,11128,2,0,L|176:292,2,85
116,124,11561,6,0,P|168:84|276:88,1,170
296,172,11994,2,0,L|360:236,1,85
440,184,12282,1,0,0:0:0:0:
456,280,12426,1,0,0:0:0:0:
384,336,12571,1,0,0:0:0:0:
312,284,12715,6,0,L|172:384,1,170
108,232,13148,2,0,L|192:176,1,85
292,140,13436,2,0,P|368:132|392:148,2,85
208,180,13869,1,0,0:0:0:0:
152,264,14013,2,0,P|208:312|248:320,1,85
320,304,14301,1,0,0:0:0:0:
428,256,14446,5,0,0:0:0:0:
456,148,14590,2,0,L|340:132,1,85
296,56,14878,1,0,0:0:0:0:
208,136,15023,1,0,0:0:0:0:
104,192,15167,2,0,P|128:260|148:292,1,85
224,332,15455,2,0,P|304:328|336:312,1,85
364,248,15744,5,0,0:0:0:0:
428,152,15888,1,0,0:0:0:0:
360,52,16032,1,0,0:0:0:0:
232,88,16176,2,0,P|168:160|156:236,1,170
268,296,16753,6,8,P|344:300|384:292,2,85
196,328,17186,2,0,P|128:336|112:328,1,85
144,256,17474,2,8,P|76:252|48:280,1,85
24,180,17763,2,0,P|32:128|60:108,1,85
152,72,18051,6,8,P|240:64|248:68,1,85
268,72,18268,1,0,0:0:0:0:
296,52,18340,1,0,0:0:0:0:
320,76,18412,1,0,0:0:0:0:
352,60,18484,1,0,0:0:0:0:
376,84,18556,1,0,0:0:0:0:
408,68,18628,1,0,0:0:0:0:
436,84,18700,1,0,0:0:0:0:
456,112,18773,1,0,0:0:0:0:
456,144,18845,1,0,0:0:0:0:
444,176,18917,1,0,0:0:0:0:
424,204,18989,1,0,0:0:0:0:
400,228,19061,1,0,0:0:0:0:
304,304,19205,6,0,P|252:320|184:328,1,85,8|0,0:0|0:0,0:0:0:0:
92,284,19494,2,0,L|28:188,1,85,8|0,0:0|0:0,0:0:0:0:
72,104,19782,2,0,P|120:72|168:76,1,85,8|0,0:0|0:0,0:0:0:0:
216,216,20071,2,0,P|276:220|312:208,1,85
364,100,20359,1,8,0:0:0:0:
456,216,20503,2,0,P|452:260|412:304,1,85
304,272,20792,6,0,P|228:300|208:312,2,85
356,180,21224,1,0,0:0:0:0:
280,100,21369,1,8,0:0:0:0:
172,108,21513,2,0,P|124:124|108:160,1,85
160,276,21801,2,0,P|208:296|252:292,1,85
356,208,22090,2,0,L|416:284,1,85
336,336,22378,1,8,0:0:0:0:
240,316,22523,6,4,L|68:208,1,170
48,140,22955,2,4,P|144:144|208:184,1,170
272,256,23388,1,8,0:0:0:0:
376,244,23532,2,0,L|448:188,1,85
380,124,23821,2,0,L|460:64,1,85
332,64,24109,5,0,0:0:0:0:
260,156,24253,1,8,0:0:0:0:
336,248,24398,1,0,0:0:0:0:
260,156,24542,1,8,0:0:0:0:
332,64,24686,1,4,0:0:0:0:
428,40,24830,6,0,P|472:104|464:220,1,170
352,304,25263,2,8,P|272:316|244:312,1,85
116,280,25551,2,8,P|64:228|68:200,1,85
80,80,25840,2,8,P|132:56|176:56,1,85
292,56,26128,2,8,P|328:88|344:144,2,85
184,48,26561,5,8,0:0:0:0:
120,140,26705,1,0,0:0:0:0:
76,248,26849,2,0,P|104:304|128:320,1,85
336,264,27138,1,0,0:0:0:0:
336,264,27282,1,0,0:0:0:0:
196,72,27571,1,0,0:0:0:0:
196,72,27715,1,0,0:0:0:0:
312,64,27859,6,0,P|388:72|424:80,2,85
216,88,28292,1,8,0:0:0:0:
188,188,28436,1,4,0:0:0:0:
264,288,28580,2,0,L|352:288,1,85
440,244,28869,2,0,P|480:192|456:80,1,170
360,36,29301,1,0,0:0:0:0:
264,96,29446,1,8,0:0:0:0:
272,208,29590,2,8,P|216:256|212:284,1,85
324,320,29878,2,0,P|384:304|408:280,1,85
472,216,30167,6,0,L|480:104,1,85
372,108,30455,2,8,P|300:68|268:60,1,85
188,72,30744,2,8,P|140:140|124:164,1,85
320,184,31032,2,0,P|320:248|300:268,1,85
232,304,31321,1,0,0:0:0:0:
136,312,31465,2,4,P|56:264|52:176,1,170
160,132,31898,6,8,L|276:164,1,85
300,272,32186,2,8,P|376:272|400:264,1,85
416,256,32474,1,0,0:0:0:0:
460,220,32619,1,8,0:0:0:0:
476,164,32763,1,0,0:0:0:0:
416,48,32907,6,10,P|308:72|220:104,1,170
152,164,33340,2,0,P|136:216|144:276,1,85
240,316,33628,1,0,0:0:0:0:
296,292,33773,1,8,0:0:0:0:
376,244,33917,2,0,P|444:236|480:240,2,85
276,220,34349,1,8,0:0:0:0:
208,136,34494,2,12,P|152:136|120:144,1,85
40,112,34782,1,0,0:0:0:0:
32,236,34926,2,0,P|56:284|96:312,1,85
256,192,35215,12,0,36152,0:0:0:0:
296,48,36369,5,0,0:0:0:0:
244,88,36513,1,0,0:0:0:0:
200,124,36657,1,0,0:0:0:0:
152,160,36801,1,0,0:0:0:0:
64,84,37523,6,8,P|144:72|244:88,1,170
216,220,37955,1,0,0:0:0:0:
384,148,38099,1,8,0:0:0:0:
232,84,38244,1,0,0:0:0:0:
92,116,38388,6,8,P|76:204|100:284,1,170
220,280,38821,2,0,P|260:264|324:284,1,85,8|8,0:0|0:0,0:0:0:0:
456,264,39109,1,0,0:0:0:0:
300,268,39253,1,8,0:0:0:0:
372,160,39398,1,0,0:0:0:0:
304,52,39542,6,8,P|224:72|144:128,1,170
204,208,39974,1,0,0:0:0:0:
112,304,40119,1,8,0:0:0:0:
252,328,40263,2,0,P|304:324|360:308,1,85,8|0,0:0|0:0,0:0:0:0:
424,248,40551,2,0,P|456:204|464:168,1,85,0|8,0:0|0:0,0:0:0:0:
424,68,40840,2,0,L|336:88,1,85
272,156,41128,1,8,0:0:0:0:
120,160,41273,6,0,P|88:240|132:320,1,170
212,272,41705,1,8,0:0:0:0:
296,348,41849,2,0,P|356:340|384:324,2,85,8|0|8,0:0|0:0|0:0,0:0:0:0:
208,284,42282,2,0,P|160:228|160:180,1,85,8|0,0:0|0:0,0:0:0:0:
156,184,42571,5,0,0:0:0:0:
176,160,42643,1,0,0:0:0:0:
208,144,42715,1,8,0:0:0:0:
304,192,42859,1,0,0:0:0:0:
208,56,43003,2,0,P|140:60|108:96,1,85,8|0,0:0|0:0,0:0:0:0:
112,208,43292,6,0,P|180:236|208:216,1,85,8|0,0:0|0:0,0:0:0:0:
312,152,43580,2,0,P|360:104|360:68,1,85,0|8,0:0|0:0,0:0:0:0:
244,72,43869,6,8,P|192:64|80:100,1,170
68,252,44301,1,0,0:0:0:0:
68,252,44446,2,0,P|120:296|168:304,1,85
212,256,44734,2,0,P|256:236|304:248,1,85,0|8,0:0|0:0,0:0:0:0:
328,328,45023,2,0,P|404:328|424:316,1,85,0|8,0:0|0:0,0:0:0:0:
424,184,45311,1,8,0:0:0:0:
424,184,45455,2,0,P|364:120|356:120,1,85
284,68,45744,5,0,0:0:0:0:
200,128,45888,2,0,P|192:196|208:220,1,85
208,216,46176,1,8,0:0:0:0:
208,216,46248,1,8,0:0:0:0:
208,216,46321,1,8,0:0:0:0:
92,304,46465,1,0,0:0:0:0:
92,304,46609,2,0,P|64:232|56:196,1,85,0|8,0:0|0:0,0:0:0:0:
144,188,46898,2,0,P|88:104|80:104,1,85,4|0,0:0|0:0,0:0:0:0:
36,56,47186,1,8,0:0:0:0:
116,40,47330,6,0,P|180:36|236:52,2,85
64,132,47763,2,0,P|80:208|96:236,1,85
200,220,48051,2,0,P|264:236|296:272,1,85
400,320,48340,1,0,0:0:0:0:
400,320,48484,2,0,P|456:264|464:220,1,85
448,160,48773,2,0,P|412:116|288:80,1,170,0|8,0:0|0:0,0:0:0:0:
308,78,49205,1,0,0:0:0:0:
308,78,49349,1,8,0:0:0:0:
200,124,49494,6,0,L|176:236,1,85
248,296,49782,1,8,0:0:0:0:
248,296,49926,2,0,L|352:320,1,85
440,244,50215,1,8,0:0:0:0:
440,244,50359,2,0,L|376:168,1,85
336,80,50648,2,0,P|280:80|232:116,1,85
140,160,50936,6,0,P|128:200|104:244,2,85
224,64,51369,1,8,0:0:0:0:
224,64,51513,2,0,P|300:76|324:88,2,85
112,152,51946,6,6,P|128:256|184:320,1,170
248,280,52378,2,4,P|356:284|368:288,2,85
160,308,52811,2,4,P|124:244|136:144,1,170
216,104,53244,1,0,0:0:0:0:
320,104,53388,2,8,P|368:96|416:120,2,85
216,124,53821,2,0,P|208:208|184:236,1,85,0|8,0:0|0:0,0:0:0:0:
164,292,54109,6,0,P|224:316|244:336,1,85,0|8,0:0|0:0,0:0:0:0:
256,192,54398,12,0,55840,0:0:0:0:
116,76,56056,5,0,0:0:0:0:
144,76,56128,1,0,0:0:0:0:
180,76,56201,1,0,0:0:0:0:
212,76,56273,1,0,0:0:0:0:
240,80,56345,1,0,0:0:0:0:
268,84,56417,1,0,0:0:0:0:
404,136,56561,5,0,0:0:0:0:
404,164,56633,1,0,0:0:0:0:
404,192,56705,1,0,0:0:0:0:
396,220,56777,1,0,0:0:0:0:
384,248,56849,1,0,0:0:0:0:
356,260,56922,1,0,0:0:0:0:
328,268,56994,1,0,0:0:0:0:
120,68,57138,6,4,L|168:244,1,170
312,316,57571,1,0,0:0:0:0:
144,312,57715,1,0,0:0:0:0:
244,172,57859,1,0,0:0:0:0:
240,340,58003,1,0,0:0:0:0:
396,272,58148,1,0,0:0:0:0:
240,208,58292,1,0,0:0:0:0:
176,132,58436,6,0,L|276:112,1,85
400,112,58724,1,8,0:0:0:0:
400,112,58869,2,4,P|480:200|480:252,1,170
364,272,59301,2,8,P|352:328|308:352,1,85
248,260,59590,2,8,P|200:276|168:312,1,85
60,264,59878,1,0,0:0:0:0:
72,152,60023,1,8,0:0:0:0:
72,152,60167,2,0,P|112:116|152:108,2,85
40,228,60599,6,0,L|216:268,1,170
272,196,61032,1,0,0:0:0:0:
328,124,61176,2,0,P|388:88|492:88,1,170
440,184,61609,1,0,0:0:0:0:
440,184,61753,2,0,L|424:288,1,85,0|8,0:0|0:0,0:0:0:0:
332,324,62042,1,8,0:0:0:0:
224,304,62186,2,8,P|168:344|116:348,1,85
52,320,62474,6,0,L|96:232,1,85
184,248,62763,2,8,P|228:204|232:152,1,85
116,80,63051,2,8,P|192:44|216:48,1,85
304,140,63340,1,0,0:0:0:0:
440,52,63484,1,8,0:0:0:0:
464,216,63628,1,4,0:0:0:0:
412,312,63773,2,8,P|336:336|296:336,1,85
164,320,64061,5,0,0:0:0:0:
92,168,64205,1,0,0:0:0:0:
232,268,64349,1,0,0:0:0:0:
64,236,64494,1,0,0:0:0:0:
212,152,64638,1,0,0:0:0:0:
328,276,64782,1,0,0:0:0:0:
256,120,64926,1,0,0:0:0:0:
272,292,65071,1,0,0:0:0:0:
236,140,65215,5,0,0:0:0:0:
236,140,65359,1,0,0:0:0:0:
392,152,65648,1,0,0:0:0:0:
392,152,65793,1,0,0:0:0:0:
416,268,65936,6,0,P|472:232|488:208,2,85
296,108,66369,1,12,0:0:0:0:
144,264,66513,1,8,0:0:0:0:
228,328,66657,2,0,P|292:328|392:260,1,170,8|0,0:0|0:0,0:0:0:0:
420,48,67234,2,0,P|316:56|256:96,1,170,0|8,0:0|0:0,0:0:0:0:
168,176,67667,2,8,P|144:224|128:280,2,85
184,152,68099,1,8,0:0:0:0:
232,80,68244,6,0,B|304:48|304:48|408:52,1,170,0|8,0:0|0:0,0:0:0:0:
372,136,68676,1,8,0:0:0:0:
392,188,68821,1,8,0:0:0:0:
308,244,68965,2,0,P|296:284|344:328,1,85
420,272,69253,1,0,0:0:0:0:
368,132,69398,2,0,B|252:104|284:112,1,85,0|8,0:0|0:0,0:0:0:0:
144,156,69686,5,8,0:0:0:0:
144,156,69830,2,0,P|244:208|300:212,1,170,0|8,0:0|0:0,0:0:0:0:
352,232,70263,1,0,0:0:0:0:
416,240,70407,1,8,0:0:0:0:
468,208,70551,1,0,0:0:0:0:
432,64,70696,2,0,P|344:72|328:80,1,85
252,120,70984,6,6,L|172:72,1,85
80,104,71273,1,8,0:0:0:0:
156,160,71417,2,8,L|232:196,1,85
304,144,71705,1,0,0:0:0:0:
392,180,71849,2,8,L|480:208,1,85
384,284,72138,1,8,0:0:0:0:
292,324,72282,2,8,L|192:320,1,85
128,244,72571,1,0,0:0:0:0:
300,180,72715,2,8,L|416:180,1,85
392,184,73003,1,8,0:0:0:0:
372,72,73148,5,0,0:0:0:0:
372,72,73220,1,0,0:0:0:0:
372,72,73292,1,8,0:0:0:0:
372,72,73364,1,0,0:0:0:0:
276,68,73580,2,8,P|208:88|140:176,1,170
140,208,74013,5,0,0:0:0:0:
160,264,74157,1,8,0:0:0:0:
200,304,74301,1,0,0:0:0:0:
260,324,74446,1,8,0:0:0:0:
320,328,74590,1,0,0:0:0:0:
380,320,74734,5,8,0:0:0:0:
432,284,74878,1,0,0:0:0:0:
476,244,75023,1,8,0:0:0:0:
508,192,75167,1,0,0:0:0:0:
512,136,75311,1,8,0:0:0:0:
472,36,75455,1,0,0:0:0:0:
420,112,75599,6,8,P|372:152|340:196,1,85
416,260,75888,2,8,P|368:292|304:296,1,85
272,224,76176,2,8,L|216:152,1,85
212,52,76465,2,12,P|292:32|392:56,1,170
296,140,76898,1,0,0:0:0:0:
188,184,77042,2,12,P|216:252|336:292,1,170
352,220,77474,1,0,0:0:0:0:
416,208,77619,1,8,0:0:0:0:
448,152,77763,1,0,0:0:0:0:
392,52,77907,2,0,P|344:56|304:84,2,85
424,52,78268,5,0,0:0:0:0:
452,60,78340,1,0,0:0:0:0:
476,80,78412,1,0,0:0:0:0:
492,104,78484,1,8,0:0:0:0:
504,132,78556,1,0,0:0:0:0:
508,160,78628,1,0,0:0:0:0:
504,188,78700,1,0,0:0:0:0:
488,216,78773,1,8,0:0:0:0:
476,244,78845,1,0,0:0:0:0:
456,268,78917,1,0,0:0:0:0:
436,288,78989,1,0,0:0:0:0:
412,304,79061,1,8,0:0:0:0:
384,312,79133,1,8,0:0:0:0:
316,276,79349,5,8,0:0:0:0:
260,252,79494,1,0,0:0:0:0:
200,272,79638,1,8,0:0:0:0:
104,260,79782,6,0,P|64:208|60:160,2,85
204,264,80215,1,8,0:0:0:0:
244,188,80359,2,0,P|296:160|352:176,1,85,8|0,0:0|0:0,0:0:0:0:
360,240,80648,2,0,P|456:212|460:204,1,85,8|0,0:0|0:0,0:0:0:0:
412,152,80936,2,0,P|440:92|452:88,1,85,8|0,0:0|0:0,0:0:0:0:
384,24,81224,2,0,P|332:56|312:88,1,85
224,116,81513,1,0,0:0:0:0:
184,160,81657,1,8,0:0:0:0:
156,208,81801,1,8,0:0:0:0:
184,312,81946,6,0,B|212:296|212:296|232:312|232:312|252:296|252:296|272:316|272:316|292:300|292:300|316:312,1,159.375
428,232,82378,1,0,0:0:0:0:
428,232,82523,2,12,P|328:176|268:168,1,170
176,144,82955,1,0,0:0:0:0:
72,120,83099,2,0,P|40:180|36:200,1,85
76,312,83388,2,0,P|120:332|176:328,2,85
112,232,83821,1,0,0:0:0:0:
260,152,83965,1,8,0:0:0:0:
300,304,84109,2,2,P|360:304|400:288,3,85,2|2|2|6,0:0|0:0|0:0|0:0,0:0:0:0:
440,232,84686,6,0,L|448:124,1,85,8|0,0:0|0:0,0:0:0:0:
368,60,84974,2,0,L|356:160,1,85,8|0,0:0|0:0,0:0:0:0:
256,204,85263,2,0,L|264:112,1,85,8|0,0:0|0:0,0:0:0:0:
172,56,85551,2,0,L|160:156,1,85,8|0,0:0|0:0,0:0:0:0:
32,192,85840,1,0,0:0:0:0:
32,192,85984,2,0,L|96:248,1,85
176,320,86273,2,0,P|224:356|264:356,2,85
212,232,86705,6,8,P|160:216|128:220,1,85
52,280,86994,2,8,P|24:224|44:168,1,85
136,56,87282,1,0,0:0:0:0:
252,192,87426,1,8,0:0:0:0:
252,192,87571,2,8,P|316:216|336:240,1,85
328,352,87859,1,0,0:0:0:0:
460,248,88003,1,12,0:0:0:0:
376,172,88148,6,0,P|412:116|432:100,1,85
488,160,88436,2,0,P|512:100|500:48,1,85
384,32,88724,1,0,0:0:0:0:
256,32,88869,2,0,P|192:44|164:56,1,85
44,76,89157,1,4,0:0:0:0:
168,136,89301,1,4,0:0:0:0:
72,180,89446,1,4,0:0:0:0:
72,212,89590,6,0,L|68:328,1,85
69,296,89878,1,8,0:0:0:0:
196,284,90023,2,0,L|312:128,1,170
188,68,90455,1,8,0:0:0:0:
296,148,90599,1,8,0:0:0:0:
416,228,90744,2,0,P|432:288|416:320,1,85
328,312,91032,2,0,L|240:312,2,85,8|0|8,0:0|0:0|0:0,0:0:0:0:
412,308,91465,6,8,P|448:268|476:136,1,170
364,136,91898,1,0,0:0:0:0:
296,48,92042,2,8,B|204:32|204:32|104:60,1,170
72,164,92474,2,0,P|104:224|136:248,2,85
136,52,92907,1,8,0:0:0:0:
180,136,93051,2,0,P|232:184|272:184,1,85
272,96,93340,6,0,P|324:88|364:108,1,85
384,112,93628,1,0,0:0:0:0:
404,144,93700,1,0,0:0:0:0:
392,188,93773,1,0,0:0:0:0:
368,288,93917,2,0,L|472:288,2,85
280,160,94349,2,0,L|364:124,2,85
240,176,94710,5,0,0:0:0:0:
240,176,94782,1,0,0:0:0:0:
240,176,94854,1,0,0:0:0:0:
240,176,94926,1,0,0:0:0:0:
240,176,94999,1,0,0:0:0:0:
240,176,95071,1,0,0:0:0:0:
136,228,95215,5,0,0:0:0:0:
136,228,95359,1,0,0:0:0:0:
424,224,95648,1,0,0:0:0:0:
424,224,95793,1,0,0:0:0:0:
184,68,96080,1,0,0:0:0:0:
184,68,96224,1,0,0:0:0:0:
344,308,96513,1,0,0:0:0:0:
344,308,96657,1,0,0:0:0:0:
120,60,98676,6,0,L|120:256,1,170,0|8,0:0|0:0,0:0:0:0:
312,248,99109,1,0,0:0:0:0:
444,132,99253,2,0,B|368:88|368:88|260:88,1,170,0|8,0:0|0:0,0:0:0:0:
156,144,99686,2,0,P|116:184|100:212,2,85
272,48,100119,1,8,0:0:0:0:
272,48,100263,1,0,0:0:0:0:
408,96,100407,6,0,B|440:144|440:144|384:192|384:192|432:244,1,170,8|8,0:0|0:0,0:0:0:0:
328,272,100840,1,0,0:0:0:0:
412,348,100984,1,8,0:0:0:0:
504,248,101128,2,8,P|512:176|496:128,1,85
424,72,101417,2,8,P|356:64|312:64,1,85
224,172,101705,5,0,0:0:0:0:
132,60,101849,1,8,0:0:0:0:
40,136,101994,2,4,P|72:216|88:228,1,85
144,312,102282,2,8,L|236:364,1,85
260,208,102571,2,12,P|292:180|340:160,1,85
428,304,102859,1,0,0:0:0:0:
464,200,103003,2,4,L|332:68,1,170
252,40,103436,6,0,P|200:44|148:76,2,85
360,176,103869,2,0,B|272:208|272:208|176:208,1,170,8|0,0:0|0:0,0:0:0:0:
144,128,104301,1,8,0:0:0:0:
52,196,104446,2,8,B|36:292|36:292|104:352,1,170
176,268,104878,1,0,0:0:0:0:
288,324,105023,1,8,0:0:0:0:
384,256,105167,1,0,0:0:0:0:
416,156,105311,6,0,P|440:108|448:68,2,85
416,156,105744,1,0,0:0:0:0:
220,128,105888,1,8,0:0:0:0:
416,156,106032,1,0,0:0:0:0:
220,128,106176,1,8,0:0:0:0:
316,272,106321,1,0,0:0:0:0:
316,272,106465,1,8,0:0:0:0:
316,272,106609,1,0,0:0:0:0:
128,300,106753,5,0,0:0:0:0:
168,280,106898,1,0,0:0:0:0:
296,184,107186,5,0,0:0:0:0:
260,216,107330,1,0,0:0:0:0:
112,56,107907,6,4,B|160:128|160:128|272:144,1,170
328,144,108340,1,8,0:0:0:0:
428,312,108484,1,8,0:0:0:0:
208,208,108628,2,0,L|144:280,1,85
224,340,108917,2,0,P|284:344|316:336,2,85
136,308,109349,2,8,P|76:248|96:132,1,170
136,72,109782,6,0,L|252:72,1,85
384,148,110071,2,0,L|280:148,1,85
128,240,110359,2,0,L|224:240,1,85
296,328,110648,2,0,B|236:340|236:340|200:332|200:332,1,85
92,136,110936,1,0,0:0:0:0:
380,260,111080,1,8,0:0:0:0:
360,84,111224,2,0,P|288:64|248:64,1,85
240,68,111513,5,0,0:0:0:0:
316,228,111657,1,8,0:0:0:0:
128,196,111801,1,0,0:0:0:0:
240,68,111946,1,8,0:0:0:0:
316,228,112090,1,0,0:0:0:0:
128,196,112234,1,8,0:0:0:0:
280,340,112378,1,0,0:0:0:0:
384,320,112523,6,0,P|452:260|492:160,1,170
412,80,112955,1,0,0:0:0:0:
332,164,113099,1,8,0:0:0:0:
252,88,113244,1,0,0:0:0:0:
148,116,113388,2,0,P|116:144|88:176,2,85
264,56,113821,2,2,L|360:80,1,85
424,184,114109,2,0,P|456:240|448:276,2,85
396,160,114542,5,8,0:0:0:0:
368,140,114686,1,0,0:0:0:0:
336,124,114830,1,8,0:0:0:0:
296,108,114974,1,0,0:0:0:0:
260,92,115119,1,8,0:0:0:0:
220,72,115263,1,0,0:0:0:0:
184,60,115407,1,8,0:0:0:0:
148,48,115551,1,0,0:0:0:0:
112,40,115696,1,8,0:0:0:0:
72,36,115840,1,0,0:0:0:0:
0,112,115984,6,8,P|-8:164|4:204,2,85
56,288,116417,2,8,P|120:316|160:320,2,85
100,188,116849,1,8,0:0:0:0:
204,128,116994,2,8,P|252:124|292:128,1,85
204,228,117282,1,8,0:0:0:0:
100,188,117426,2,8,L|140:76,1,85
216,56,117715,2,8,P|288:56|408:104,1,170
288,192,118148,1,0,0:0:0:0:
440,200,118292,6,0,P|472:268|456:288,1,85
396,336,118580,2,8,P|300:352|208:348,1,170
168,292,119013,1,0,0:0:0:0:
168,292,119157,1,8,0:0:0:0:
136,204,119301,2,8,P|72:232|44:268,1,85
100,336,119590,2,8,P|156:316|208:332,1,85
300,320,119878,6,8,P|368:312|400:296,2,85
216,344,120311,2,8,B|128:364|128:364|40:360,1,170
40,264,120744,2,8,P|72:208|108:176,1,85
332,172,121032,2,0,P|372:132|404:92,2,85
388,292,121465,6,8,P|436:252|464:220,2,85
216,216,121898,2,8,P|232:296|240:332,1,85
296,200,122186,2,8,L|272:112,1,85
260,96,122474,1,0,0:0:0:0:
244,72,122547,1,0,0:0:0:0:
216,64,122619,1,0,0:0:0:0:
188,72,122691,1,0,0:0:0:0:
164,88,122763,1,0,0:0:0:0:
88,216,122907,5,0,0:0:0:0:
108,252,123196,1,0,0:0:0:0:
140,280,123484,1,0,0:0:0:0:
256,324,123773,2,0,P|356:320|432:280,1,170
448,188,124205,6,8,P|412:132|384:104,1,85,12|8,0:0|0:0,0:0:0:0:
280,56,124494,2,0,P|260:104|260:136,1,85,0|8,0:0|0:0,0:0:0:0:
380,228,124782,1,0,0:0:0:0:
260,136,124927,1,8,0:0:0:0:
144,172,125071,2,0,P|88:232|96:256,1,85,0|8,0:0|0:0,0:0:0:0:
256,320,125359,1,0,0:0:0:0:
144,168,125503,1,8,0:0:0:0:
44,320,125648,1,0,0:0:0:0:
188,332,125792,6,8,P|268:320|368:288,1,170
272,192,126224,1,0,0:0:0:0:
352,296,126368,1,8,0:0:0:0:
272,192,126513,1,0,0:0:0:0:
200,104,126657,2,0,P|148:104|112:116,1,85,8|0,0:0|0:0,0:0:0:0:
108,240,126946,6,8,P|112:308|124:336,2,85
276,56,127378,1,0,0:0:0:0:
104,236,127523,1,8,0:0:0:0:
320,128,127667,1,0,0:0:0:0:
104,236,127811,1,8,0:0:0:0:
104,236,127955,1,0,0:0:0:0:
104,236,128099,1,8,0:0:0:0:
260,312,128244,6,0,L|332:224,1,85,0|8,0:0|0:0,0:0:0:0:
440,224,128532,2,0,L|384:304,1,85,0|8,0:0|0:0,0:0:0:0:
244,172,128821,1,8,0:0:0:0:
124,232,128965,5,8,0:0:0:0:
184,328,129109,2,0,P|260:352|288:352,1,85,0|8,0:0|0:0,0:0:0:0:
288,240,129398,2,0,P|332:220|372:232,1,85,0|8,0:0|0:0,0:0:0:0:
440,340,129686,2,0,L|504:264,1,85,0|8,0:0|0:0,0:0:0:0:
364,228,129974,2,0,P|380:172|408:144,1,85,0|8,0:0|0:0,0:0:0:0:
464,16,130263,2,0,P|388:16|340:28,1,85,0|8,0:0|0:0,0:0:0:0:
224,112,130551,1,0,0:0:0:0:
224,112,130696,1,8,0:0:0:0:
72,220,130840,2,0,P|92:292|124:312,1,85,0|8,0:0|0:0,0:0:0:0:
364,320,131128,6,0,P|368:256|360:220,1,85,0|8,0:0|0:0,0:0:0:0:
152,216,131417,2,0,P|148:148|168:112,1,85,0|8,0:0|0:0,0:0:0:0:
384,96,131705,2,0,P|344:56|312:40,1,85,0|8,0:0|0:0,0:0:0:0:
156,120,131994,2,0,P|140:172|156:208,1,85,0|8,0:0|0:0,0:0:0:0:
464,296,132282,2,0,L|380:360,1,85,0|8,0:0|0:0,0:0:0:0:
296,292,132571,1,0,0:0:0:0:
188,348,132715,2,8,P|96:328|28:280,1,170
64,136,133148,6,0,P|104:92|164:96,1,85,0|8,0:0|0:0,0:0:0:0:
196,200,133436,2,0,L|288:200,1,85,0|8,0:0|0:0,0:0:0:0:
308,100,133724,2,0,L|400:92,2,85,0|8|0,0:0|0:0|0:0,0:0:0:0:
184,108,134157,2,8,B|132:176|132:176|120:264|120:264,1,170
256,300,134590,1,0,0:0:0:0:
256,300,134734,1,8,0:0:0:0:
304,216,134878,6,0,P|368:196|400:196,2,85,0|8|0,0:0|0:0|0:0,0:0:0:0:
152,248,135311,2,8,L|292:360,1,170
352,264,135744,1,0,0:0:0:0:
444,352,135888,2,0,P|476:296|492:248,1,85,8|0,0:0|0:0,0:0:0:0:
384,208,136176,2,0,P|392:152|416:120,2,85,8|0|8,0:0|0:0|0:0,0:0:0:0:
472,280,136609,2,0,P|464:328|408:360,1,85,0|8,0:0|0:0,0:0:0:0:
356,312,136898,6,0,P|264:296|252:304,2,85,0|8|0,0:0|0:0|0:0,0:0:0:0:
412,224,137330,2,0,B|464:204|448:160|476:132,1,85,8|0,0:0|0:0,0:0:0:0:
396,76,137619,6,0,L|468:120,1,85,8|0,0:0|0:0,0:0:0:0:
348,208,137907,2,0,L|272:168,1,85,8|0,0:0|0:0,0:0:0:0:
240,20,138196,2,0,L|180:80,1,85,8|0,0:0|0:0,0:0:0:0:
0,112,138484,2,0,L|0:212,1,85,8|0,0:0|0:0,0:0:0:0:
28,300,138773,6,0,L|116:332,1,85,8|0,0:0|0:0,0:0:0:0:
200,284,139061,2,8,P|248:260|372:288,1,170
456,352,139494,2,0,P|488:304|496:272,1,85,0|8,0:0|0:0,0:0:0:0:
464,144,139782,2,0,P|420:180|400:216,1,85,0|8,0:0|0:0,0:0:0:0:
488,248,140071,2,0,P|440:316|412:320,1,85,0|8,0:0|0:0,0:0:0:0:
328,244,140359,1,0,0:0:0:0:
256,336,140503,2,8,P|180:316|120:216,1,170
128,212,140936,5,0,0:0:0:0:
152,176,141080,1,8,0:0:0:0:
264,192,141224,1,0,0:0:0:0:
292,100,141369,1,8,0:0:0:0:
440,92,141513,6,0,P|476:144|476:176,1,85,0|8,0:0|0:0,0:0:0:0:
384,184,141801,2,0,P|388:248|420:288,1,85,0|8,0:0|0:0,0:0:0:0:
472,336,142090,1,0,0:0:0:0:
452,348,142162,1,0,0:0:0:0:
432,352,142234,1,0,0:0:0:0:
412,352,142306,1,0,0:0:0:0:
392,352,142378,1,0,0:0:0:0:
372,348,142450,1,0,0:0:0:0:
352,344,142523,1,0,0:0:0:0:
232,308,142667,6,0,P|184:296|152:304,2,63.7500024318696
336,344,143099,2,0,P|404:312|448:264,1,127.500004863739
360,204,143532,1,0,0:0:0:0:
420,112,143676,2,0,B|368:76|368:76|296:72,1,127.500004863739
160,120,144109,1,0,0:0:0:0:
96,240,144253,2,0,P|152:284|220:280,1,127.500004863739
284,212,144686,1,0,0:0:0:0:
376,296,144830,6,0,B|440:272|440:272|504:212,1,127.500004863739
232,160,145263,1,0,0:0:0:0:
416,48,145407,2,0,P|452:116|440:184,1,127.500004863739
352,192,145840,1,0,0:0:0:0:
320,204,145984,1,0,0:0:0:0:
296,220,146128,1,0,0:0:0:0:
200,212,146273,6,0,L|128:236|140:232,2,63.7500024318696
276,128,146705,1,0,0:0:0:0:
396,136,146849,2,0,P|480:164|516:216,1,127.500004863739
256,192,147282,12,0,148652,0:0:0:0:
