osu file format v14

[General]
AudioFilename: white mapping.mp3
AudioLeadIn: 0
PreviewTime: -1
Countdown: 0
SampleSet: Soft
StackLeniency: 0.2
Mode: 0
LetterboxInBreaks: 0
WidescreenStoryboard: 1

[Editor]
Bookmarks: 23,600,18051,36946,57138,79782,98676,142667
DistanceSpacing: 1
BeatDivisor: 4
GridSize: 8
TimelineZoom: 2.2

[Metadata]
Title:Lovers White Flag
TitleUnicode:Lovers White Flag
Artist:Nanaki
ArtistUnicode:Nanaki
Creator:Panxo_Gamer
Version:Insane
Source:
Tags:
BeatmapID:710472
BeatmapSetID:295769

[Difficulty]
HPDrainRate:6
CircleSize:4
OverallDifficulty:6
ApproachRate:9.3
SliderMultiplier:1.6
SliderTickRate:1

[Events]
//Background and Video events
0,0,"BG.jpg",0,0
//Break Periods
2,79694,94661
//Storyboard Layer 0 (Background)
//Storyboard Layer 1 (Fail)
//Storyboard Layer 2 (Pass)
//Storyboard Layer 3 (Foreground)
//Storyboard Sound Samples

[TimingPoints]
600,288.461538461538,4,2,1,100,1,0
9253,-200,4,2,1,100,0,0
9686,-100,4,2,1,100,0,0
18051,-66.6666666666667,4,2,1,100,0,1
36946,-100,4,2,1,100,0,0
57138,-66.6666666666667,4,2,1,100,0,1
79782,-100,4,2,1,100,0,0
98676,-66.6666666666667,4,2,1,100,0,1
142667,-133.333333333333,4,2,1,100,0,0

[Colours]
Combo1 : 198,0,0
Combo2 : 0,128,255

[HitObjects]
112,80,600,5,0,0:0:0:0:
128,160,744,2,0,L|144:240,1,80
208,288,1032,1,0,0:0:0:0:
288,288,1176,2,0,L|288:192,1,80
208,176,1465,1,0,0:0:0:0:
224,96,1609,1,0,0:0:0:0:
288,64,1753,1,0,0:0:0:0:
368,96,1898,2,0,P|384:144|368:192,1,80
304,176,2186,6,0,L|192:176,1,80
224,176,2402,1,0,0:0:0:0:
224,176,2474,1,0,0:0:0:0:
144,144,2619,2,0,P|112:208|144:304,1,160
192,240,3051,1,0,0:0:0:0:
256,288,3196,1,0,0:0:0:0:
320,240,3340,1,0,0:0:0:0:
400,240,3484,6,0,L|400:160,1,80
464,112,3773,2,0,L|464:192,1,80
464,224,3989,1,0,0:0:0:0:
464,256,4061,1,0,0:0:0:0:
464,288,4133,1,0,0:0:0:0:
464,320,4205,2,0,P|400:368|384:368,1,80
368,352,4422,1,0,0:0:0:0:
336,320,4494,1,0,0:0:0:0:
288,256,4638,2,0,L|144:128,1,160
272,32,5215,5,0,0:0:0:0:
320,96,5359,1,0,0:0:0:0:
272,160,5503,1,0,0:0:0:0:
192,176,5648,2,0,P|176:224|192:256,1,80
272,240,5936,2,0,P|272:288|240:320,1,80
176,352,6224,2,0,P|112:336|64:240,1,160
80,176,6657,5,0,0:0:0:0:
128,112,6801,1,0,0:0:0:0:
176,176,6946,2,0,P|256:192|352:160,1,160
464,80,7523,2,0,P|496:144|464:240,1,160
400,272,7955,1,0,0:0:0:0:
320,304,8099,1,0,0:0:0:0:
240,288,8244,1,0,0:0:0:0:
240,208,8388,1,0,0:0:0:0:
272,128,8532,2,0,L|304:48,2,80
224,192,8965,6,0,L|224:304,1,80
272,336,9253,2,0,P|320:352|384:320,1,120
384,224,9830,6,4,L|384:128,1,80,4|0,0:0|0:0,0:0:0:0:
336,64,10119,1,4,0:0:0:0:
432,64,10263,2,0,P|464:96|448:208,1,160
384,272,10696,1,0,0:0:0:0:
304,320,10840,1,0,0:0:0:0:
224,272,10984,1,0,0:0:0:0:
176,192,11128,2,0,L|64:192,1,80
72,112,11417,5,0,0:0:0:0:
40,32,11561,2,0,L|136:48,1,80
200,32,11849,1,4,0:0:0:0:
240,160,12138,6,0,P|272:192|320:192,1,80
384,144,12426,1,0,0:0:0:0:
464,80,12571,1,0,0:0:0:0:
384,32,12715,2,0,L|304:32,2,80
336,112,13148,1,0,0:0:0:0:
384,144,13220,1,0,0:0:0:0:
416,176,13292,2,0,P|448:224|400:320,1,160
336,256,13724,5,0,0:0:0:0:
272,336,13869,1,0,0:0:0:0:
240,256,14013,1,0,0:0:0:0:
176,336,14157,1,0,0:0:0:0:
96,160,14446,6,0,P|160:160|192:128,1,80
192,64,14734,2,0,P|240:80|272:112,1,80
320,176,15023,1,0,0:0:0:0:
352,272,15167,1,0,0:0:0:0:
256,304,15311,2,0,P|272:352|384:368,1,160
448,320,15744,1,0,0:0:0:0:
464,224,15888,1,0,0:0:0:0:
384,176,16032,2,0,P|352:112|368:80,1,80
160,64,16465,2,0,B|160:112|160:112|176:160|176:160|176:224,1,160
256,192,16898,12,0,17907,0:0:0:0:
404,140,18051,5,0,0:0:0:0:
392,176,18124,1,0,0:0:0:0:
368,204,18196,1,0,0:0:0:0:
340,228,18268,1,0,0:0:0:0:
308,244,18340,1,0,0:0:0:0:
272,252,18412,1,0,0:0:0:0:
236,252,18484,1,0,0:0:0:0:
204,240,18556,1,0,0:0:0:0:
180,212,18628,1,0,0:0:0:0:
148,196,18700,1,0,0:0:0:0:
148,196,18773,2,0,L|100:156,4,60.0000022888184
160,336,19205,6,0,L|240:224,1,120.000004577637,0|8,0:0|0:0,0:0:0:0:
192,128,19494,1,0,0:0:0:0:
304,112,19638,2,0,P|368:128|432:112,1,120.000004577637,8|0,0:0|0:0,0:0:0:0:
464,0,19926,2,0,P|496:80|496:128,1,120.000004577637,8|0,0:0|0:0,0:0:0:0:
400,184,20215,1,8,0:0:0:0:
480,272,20359,1,0,0:0:0:0:
360,264,20503,1,8,0:0:0:0:
464,208,20648,1,0,0:0:0:0:
424,320,20792,1,8,0:0:0:0:
256,352,20936,6,0,B|208:352|208:352|176:336|176:336|96:336,1,120.000004577637,0|8,0:0|0:0,0:0:0:0:
48,256,21224,2,0,P|48:176|80:144,1,120.000004577637,0|8,0:0|0:0,0:0:0:0:
176,208,21513,1,0,0:0:0:0:
288,160,21657,1,8,0:0:0:0:
384,224,21801,2,0,P|416:160|384:96,1,120.000004577637,0|8,0:0|0:0,0:0:0:0:
320,32,22090,1,0,0:0:0:0:
224,112,22234,2,0,P|192:176|208:256,1,120.000004577637,8|0,0:0|0:0,0:0:0:0:
288,288,22523,5,0,0:0:0:0:
368,160,22667,1,0,0:0:0:0:
400,320,22811,1,0,0:0:0:0:
272,176,22955,1,0,0:0:0:0:
288,384,23099,1,0,0:0:0:0:
400,224,23244,1,0,0:0:0:0:
208,288,23388,1,0,0:0:0:0:
64,96,23676,6,0,P|160:128|208:112,1,120.000004577637
240,32,23965,1,8,0:0:0:0:
352,80,24109,1,8,0:0:0:0:
256,144,24253,2,0,L|256:272,1,120.000004577637,8|0,0:0|0:0,0:0:0:0:
368,304,24542,2,0,P|432:288|464:240,2,120.000004577637,8|0|0,0:0|0:0|0:0,0:0:0:0:
368,304,24902,1,0,0:0:0:0:
368,304,24974,1,0,0:0:0:0:
256,272,25119,5,0,0:0:0:0:
384,64,25407,1,0,0:0:0:0:
144,64,25696,1,0,0:0:0:0:
96,304,25984,2,0,P|160:352|224:336,1,120.000004577637,8|0,0:0|0:0,0:0:0:0:
320,320,26273,1,8,0:0:0:0:
400,224,26417,1,0,0:0:0:0:
320,144,26561,2,0,P|320:64|368:48,1,120.000004577637,8|0,0:0|0:0,0:0:0:0:
432,128,26849,2,0,P|432:208|400:240,1,120.000004577637,8|0,0:0|0:0,0:0:0:0:
304,288,27138,5,4,0:0:0:0:
288,296,27282,1,4,0:0:0:0:
128,128,27571,1,4,0:0:0:0:
136,136,27715,1,4,0:0:0:0:
448,64,28292,6,0,P|384:128|336:128,1,120.000004577637,8|0,0:0|0:0,0:0:0:0:
256,80,28580,1,8,0:0:0:0:
240,192,28724,2,0,P|240:256|208:304,1,120.000004577637,0|8,0:0|0:0,0:0:0:0:
144,208,29013,1,0,0:0:0:0:
64,112,29157,2,0,P|160:96|208:112,1,120.000004577637,8|0,0:0|0:0,0:0:0:0:
272,176,29446,2,0,P|192:208|144:176,1,120.000004577637,8|0,0:0|0:0,0:0:0:0:
32,96,29734,5,8,0:0:0:0:
0,224,29878,2,0,L|0:352,1,120.000004577637,0|8,0:0|0:0,0:0:0:0:
144,256,30167,2,0,L|144:112,1,120.000004577637,0|8,0:0|0:0,0:0:0:0:
288,48,30455,1,0,0:0:0:0:
448,48,30599,1,8,0:0:0:0:
336,176,30744,2,0,P|320:240|272:256,1,120.000004577637,0|8,0:0|0:0,0:0:0:0:
144,144,31032,2,0,P|96:192|112:272,1,120.000004577637,0|8,0:0|0:0,0:0:0:0:
240,336,31321,6,0,L|112:336,1,120.000004577637,0|8,0:0|0:0,0:0:0:0:
32,192,31609,1,0,0:0:0:0:
192,224,31753,2,0,P|256:192|288:128,1,120.000004577637,8|0,0:0|0:0,0:0:0:0:
112,192,32042,1,8,0:0:0:0:
192,48,32186,1,0,0:0:0:0:
352,112,32330,1,8,0:0:0:0:
232,0,32474,1,0,0:0:0:0:
352,48,32619,1,8,0:0:0:0:
384,288,32907,5,8,0:0:0:0:
176,176,33196,1,8,0:0:0:0:
400,96,33484,1,8,0:0:0:0:
160,64,33773,1,8,0:0:0:0:
112,80,33845,1,0,0:0:0:0:
64,112,33917,2,0,P|32:192|32:224,1,120.000004577637,0|8,0:0|0:0,0:0:0:0:
80,336,34205,5,0,0:0:0:0:
160,256,34349,1,8,0:0:0:0:
208,368,34494,2,0,L|256:256,1,120.000004577637,0|8,0:0|0:0,0:0:0:0:
368,208,34782,1,0,0:0:0:0:
336,320,34926,1,8,0:0:0:0:
448,272,35071,1,0,0:0:0:0:
400,160,35215,5,8,0:0:0:0:
304,64,35359,1,0,0:0:0:0:
304,224,35503,1,8,0:0:0:0:
432,80,35648,1,0,0:0:0:0:
224,128,35792,1,8,0:0:0:0:
432,240,35936,1,0,0:0:0:0:
304,32,36080,1,8,0:0:0:0:
192,192,36224,1,0,0:0:0:0:
96,208,36369,5,4,0:0:0:0:
136,248,36513,1,0,0:0:0:0:
176,288,36657,1,4,0:0:0:0:
216,328,36801,1,0,0:0:0:0:
368,64,37523,5,8,0:0:0:0:
304,112,37667,2,0,P|256:128|224:112,1,80,0|8,0:0|0:0,0:0:0:0:
176,48,37955,2,0,P|128:64|112:112,2,80,0|8|0,0:0|0:0|0:0,0:0:0:0:
240,96,38388,1,8,0:0:0:0:
304,144,38532,1,8,0:0:0:0:
384,144,38676,2,0,L|416:240,1,80,8|0,0:0|0:0,0:0:0:0:
384,304,38965,2,0,P|336:304|304:288,1,80,8|0,0:0|0:0,0:0:0:0:
288,208,39253,2,0,L|192:208,1,80,8|0,0:0|0:0,0:0:0:0:
160,144,39542,1,4,0:0:0:0:
96,288,39830,6,0,P|128:304|192:272,1,80,8|0,0:0|0:0,0:0:0:0:
208,224,40119,1,8,0:0:0:0:
256,160,40263,1,8,0:0:0:0:
288,96,40407,2,0,P|352:96|384:128,1,80
400,176,40696,2,0,L|480:176,2,80
336,224,41128,1,0,0:0:0:0:
272,272,41273,1,0,0:0:0:0:
192,272,41417,6,0,L|192:176,1,80
144,128,41705,1,0,0:0:0:0:
224,112,41849,2,0,P|256:64|240:16,2,80
144,128,42282,1,0,0:0:0:0:
96,192,42426,1,0,0:0:0:0:
96,272,42571,1,0,0:0:0:0:
160,320,42715,2,0,P|208:320|256:288,1,80
288,240,43003,1,0,0:0:0:0:
304,160,43148,6,0,P|384:144|448:208,1,160
384,256,43580,1,0,0:0:0:0:
312,288,43724,1,0,0:0:0:0:
232,304,43869,1,0,0:0:0:0:
152,288,44013,1,0,0:0:0:0:
128,224,44157,2,0,P|128:192|176:144,1,80
240,80,44446,5,0,0:0:0:0:
288,192,44590,1,0,0:0:0:0:
368,112,44734,1,0,0:0:0:0:
448,16,44878,1,0,0:0:0:0:
480,128,45023,1,0,0:0:0:0:
384,64,45167,1,0,0:0:0:0:
272,112,45311,6,0,L|176:128,1,80
128,224,45599,2,0,L|224:208,1,80
304,272,45888,1,0,0:0:0:0:
368,176,46032,1,0,0:0:0:0:
416,288,46176,1,0,0:0:0:0:
304,224,46321,1,0,0:0:0:0:
304,224,46393,1,0,0:0:0:0:
304,224,46465,1,0,0:0:0:0:
176,128,46753,6,4,P|240:144|288:128,1,80
240,64,47042,2,0,P|192:32|160:32,2,80
304,112,47474,1,0,0:0:0:0:
352,176,47619,1,0,0:0:0:0:
288,224,47763,2,0,L|272:304,1,80
352,320,48051,2,0,L|368:240,1,80
304,192,48340,1,0,0:0:0:0:
384,160,48484,1,0,0:0:0:0:
320,112,48628,5,0,0:0:0:0:
288,96,48700,1,0,0:0:0:0:
256,80,48773,1,0,0:0:0:0:
224,64,48845,2,0,P|176:48|96:80,1,120
64,128,49205,5,0,0:0:0:0:
16,192,49349,1,0,0:0:0:0:
80,240,49494,2,0,L|16:288,1,80
64,352,49782,1,0,0:0:0:0:
144,368,49926,2,0,P|208:368|240:336,1,80
256,336,50143,1,0,0:0:0:0:
288,304,50215,1,0,0:0:0:0:
304,272,50287,1,0,0:0:0:0:
320,240,50359,1,0,0:0:0:0:
336,160,50503,6,0,L|336:80,1,80
272,32,50792,1,0,0:0:0:0:
192,48,50936,1,0,0:0:0:0:
144,112,51080,1,0,0:0:0:0:
240,240,51369,6,0,P|304:272|336:256,1,80
384,240,51657,1,0,0:0:0:0:
464,208,51801,2,0,P|496:160|480:96,1,120
456,72,52090,1,0,0:0:0:0:
376,88,52234,6,0,P|320:120|272:112,1,80
264,128,52450,1,0,0:0:0:0:
224,128,52523,1,0,0:0:0:0:
192,112,52595,1,0,0:0:0:0:
160,88,52667,1,0,0:0:0:0:
120,96,52739,2,0,P|64:128|56:192,1,120
88,248,53099,1,0,0:0:0:0:
144,192,53244,2,0,P|216:208|256:288,1,160
184,336,53676,5,0,0:0:0:0:
264,280,53821,1,0,0:0:0:0:
224,192,53965,2,0,P|248:144|248:96,1,80
168,72,54253,2,0,P|200:112|256:128,1,80
312,256,54542,5,0,0:0:0:0:
264,104,54686,1,0,0:0:0:0:
208,256,54830,1,0,0:0:0:0:
344,168,54974,1,0,0:0:0:0:
184,168,55119,1,0,0:0:0:0:
272,304,55263,5,0,0:0:0:0:
120,256,55407,1,0,0:0:0:0:
256,176,55551,1,0,0:0:0:0:
208,328,55696,1,0,0:0:0:0:
160,176,55840,1,0,0:0:0:0:
248,80,55984,6,0,L|256:32,4,40
208,88,56345,1,0,0:0:0:0:
176,112,56417,1,0,0:0:0:0:
160,152,56489,1,0,0:0:0:0:
160,192,56561,1,0,0:0:0:0:
176,224,56633,1,0,0:0:0:0:
200,256,56705,1,0,0:0:0:0:
240,272,56777,1,0,0:0:0:0:
280,272,56849,2,0,L|328:264,3,40
256,272,57138,6,0,L|120:240,1,120.000004577637
56,160,57426,1,0,0:0:0:0:
168,120,57571,2,0,P|224:80|248:24,1,120.000004577637
296,144,57859,1,0,0:0:0:0:
392,72,58003,2,0,P|456:48|480:0,2,120.000004577637
288,16,58436,1,0,0:0:0:0:
184,80,58580,1,0,0:0:0:0:
72,32,58724,2,0,P|48:88|56:152,1,120.000004577637
72,264,59013,2,0,L|16:376,2,120.000004577637
168,192,59446,5,0,0:0:0:0:
152,312,59590,1,0,0:0:0:0:
256,256,59734,1,0,0:0:0:0:
256,136,59878,1,0,0:0:0:0:
280,80,59950,1,0,0:0:0:0:
336,48,60023,2,0,B|392:72|392:72|376:112|408:168,1,120.000004577637
280,168,60311,2,0,B|256:216|256:216|296:248|280:320,1,120.000004577637
384,208,60599,5,0,0:0:0:0:
440,312,60744,1,0,0:0:0:0:
328,280,60888,1,0,0:0:0:0:
440,232,61032,2,0,B|464:176|464:176|432:160|424:104,1,120.000004577637
344,40,61321,2,0,B|360:80|336:104|336:104|376:184,1,120.000004577637
368,176,61537,1,0,0:0:0:0:
376,216,61609,1,0,0:0:0:0:
312,280,61753,5,0,0:0:0:0:
128,128,62042,1,0,0:0:0:0:
152,368,62330,1,0,0:0:0:0:
160,248,62474,1,0,0:0:0:0:
248,168,62619,1,0,0:0:0:0:
360,200,62763,2,0,B|336:152|336:152|360:136|360:88,1,120.000004577637
248,56,63051,2,0,P|200:96|136:96,1,120.000004577637
48,24,63340,2,0,B|48:64|48:64|64:96|64:96|64:176,1,120.000004577637
168,200,63628,5,0,0:0:0:0:
88,288,63773,1,0,0:0:0:0:
208,264,63917,2,0,B|232:216|232:216|272:200|272:120,1,120.000004577637
208,64,64205,1,0,0:0:0:0:
168,176,64349,1,0,0:0:0:0:
384,288,64494,1,0,0:0:0:0:
192,144,64638,1,0,0:0:0:0:
328,344,64782,1,0,0:0:0:0:
256,120,64926,1,0,0:0:0:0:
240,360,65071,1,0,0:0:0:0:
96,296,65215,5,0,0:0:0:0:
48,64,65359,1,0,0:0:0:0:
272,144,65648,1,0,0:0:0:0:
376,360,65793,1,0,0:0:0:0:
320,80,66369,6,0,P|304:144|328:192,1,120.000004577637
432,248,66657,1,0,0:0:0:0:
336,320,66801,2,0,B|304:288|304:288|288:304|224:304,1,120.000004577637
184,192,67090,1,0,0:0:0:0:
128,296,67234,1,0,0:0:0:0:
232,240,67378,1,0,0:0:0:0:
120,200,67523,6,0,B|112:160|72:144|72:144|56:80,1,120.000004577637
128,0,67811,2,0,B|176:48|176:48|136:72|152:120,1,120.000004577637
264,152,68099,1,0,0:0:0:0:
344,256,68244,2,0,L|416:368,1,120.000004577637
264,256,68532,2,0,L|208:368,1,120.000004577637
160,240,68821,1,0,0:0:0:0:
224,128,68965,1,0,0:0:0:0:
224,128,69037,1,0,0:0:0:0:
224,128,69109,1,0,0:0:0:0:
336,88,69253,6,0,B|392:64|376:16|408:8|424:0,2,120.000004577637
232,32,69686,1,0,0:0:0:0:
264,160,69830,2,0,B|240:216|240:216|264:240|264:288,1,120.000004577637
368,352,70119,2,0,L|416:312,1,60.0000022888184
432,288,70263,1,0,0:0:0:0:
440,256,70335,1,0,0:0:0:0:
440,224,70407,1,0,0:0:0:0:
432,192,70479,1,0,0:0:0:0:
416,168,70551,1,0,0:0:0:0:
400,144,70624,1,0,0:0:0:0:
376,120,70696,1,0,0:0:0:0:
144,184,70984,6,0,L|88:64,1,120.000004577637
200,128,71273,2,0,L|264:256,1,120.000004577637
352,304,71561,1,0,0:0:0:0:
432,216,71705,1,0,0:0:0:0:
328,160,71849,2,0,L|248:272,1,120.000004577637
256,136,72138,2,0,L|328:32,1,120.000004577637
200,56,72426,1,0,0:0:0:0:
128,152,72571,2,0,B|104:200|104:200|136:232|128:280,1,120.000004577637
200,360,72859,2,0,P|240:304|232:232,1,120.000004577637
224,200,73075,1,0,0:0:0:0:
328,56,73292,6,0,L|400:24,2,60.0000022888184
296,112,73508,2,0,L|240:152,2,60.0000022888184
352,128,73724,2,0,L|416:136,2,60.0000022888184
320,136,73941,1,0,0:0:0:0:
296,152,74013,1,0,0:0:0:0:
280,176,74085,1,0,0:0:0:0:
264,200,74157,1,0,0:0:0:0:
248,224,74229,1,0,0:0:0:0:
224,240,74301,1,0,0:0:0:0:
200,256,74374,1,0,0:0:0:0:
168,264,74446,1,0,0:0:0:0:
104,32,74590,5,0,0:0:0:0:
232,232,74734,1,0,0:0:0:0:
0,168,74878,1,0,0:0:0:0:
224,72,75023,1,0,0:0:0:0:
136,296,75167,1,8,0:0:0:0:
104,56,75311,1,8,0:0:0:0:
264,232,75455,1,8,0:0:0:0:
264,232,75527,1,0,0:0:0:0:
264,232,75599,2,0,P|336:240|376:216,1,120.000004577637
296,128,75888,5,0,0:0:0:0:
240,232,76032,2,0,B|256:272|256:272|224:280|192:336,1,120.000004577637
120,232,76321,2,0,B|160:240|160:240|152:192|192:160,1,120.000004577637
264,80,76609,1,0,0:0:0:0:
320,72,76681,1,0,0:0:0:0:
376,80,76753,2,0,P|448:128|448:160,1,120.000004577637
336,184,77042,2,0,P|280:152|272:88,1,120.000004577637
368,32,77330,1,0,0:0:0:0:
360,152,77474,2,0,B|384:168|384:168|352:264,1,120.000004577637
240,296,77763,5,0,0:0:0:0:
160,208,77907,2,0,L|120:88,1,120.000004577637
192,0,78196,2,0,L|224:120,1,120.000004577637
312,256,78484,1,0,0:0:0:0:
320,88,78628,1,0,0:0:0:0:
200,208,78773,1,0,0:0:0:0:
368,184,78917,1,0,0:0:0:0:
416,280,79061,5,0,0:0:0:0:
320,344,79205,5,0,0:0:0:0:
200,344,79349,5,0,0:0:0:0:
96,280,79494,5,0,0:0:0:0:
256,64,95215,5,0,0:0:0:0:
312,128,95359,1,0,0:0:0:0:
168,208,95648,1,0,0:0:0:0:
208,272,95792,1,0,0:0:0:0:
368,288,96080,1,0,0:0:0:0:
312,232,96224,1,0,0:0:0:0:
208,112,96513,1,0,0:0:0:0:
192,192,96657,1,0,0:0:0:0:
408,112,98676,6,0,P|360:160|304:168,1,120.000004577637
224,80,98965,2,0,B|200:112|200:112|232:152|232:208,1,120.000004577637
304,280,99253,1,0,0:0:0:0:
424,296,99398,1,0,0:0:0:0:
360,192,99542,2,0,L|264:112,1,120.000004577637
152,104,99830,1,0,0:0:0:0:
128,224,99974,2,0,P|152:280|120:344,1,120.000004577637
132,332,100191,1,0,0:0:0:0:
132,332,100263,1,0,0:0:0:0:
48,248,100407,6,0,P|80:192|88:120,1,120.000004577637
192,80,100696,1,0,0:0:0:0:
248,184,100840,2,0,B|240:216|240:216|264:240|296:296,1,120.000004577637
360,192,101128,1,0,0:0:0:0:
472,224,101273,2,0,P|448:160|392:136,1,120.000004577637
404,137,101489,1,0,0:0:0:0:
404,137,101561,1,0,0:0:0:0:
248,112,101705,6,0,L|144:40,1,120.000004577637
184,192,101994,2,0,L|80:112,1,120.000004577637
88,118,102210,1,0,0:0:0:0:
88,118,102282,1,0,0:0:0:0:
16,256,102426,1,0,0:0:0:0:
152,336,102571,1,0,0:0:0:0:
200,192,102715,2,0,P|272:224|280:272,1,120.000004577637
232,320,103003,2,0,B|248:360|248:360|280:344|344:360,1,120.000004577637
432,240,103292,5,0,0:0:0:0:
176,64,103580,1,0,0:0:0:0:
288,360,103869,1,0,0:0:0:0:
144,312,104013,1,0,0:0:0:0:
40,168,104157,1,0,0:0:0:0:
344,88,104446,2,0,P|376:176|360:232,1,120.000004577637
224,248,104734,2,0,L|276:297,1,60.0000022888184
464,168,105023,1,0,0:0:0:0:
312,200,105167,2,0,B|288:224|288:224|264:200|176:200,1,120.000004577637
136,64,105455,5,0,0:0:0:0:
80,208,105599,1,0,0:0:0:0:
208,120,105744,1,0,0:0:0:0:
56,120,105888,1,0,0:0:0:0:
192,312,106032,5,0,0:0:0:0:
272,88,106176,1,0,0:0:0:0:
56,200,106321,1,0,0:0:0:0:
288,248,106465,1,0,0:0:0:0:
136,64,106609,1,0,0:0:0:0:
160,184,106753,6,0,L|248:248,1,60.0000022888184
256,256,106898,1,0,0:0:0:0:
336,32,107186,2,0,L|312:120,1,60.0000022888184
304,144,107330,1,0,0:0:0:0:
