osu file format v14

[General]
AudioFilename: Rubik's Cube.mp3
AudioLeadIn: 0
PreviewTime: 67224
Countdown: 0
SampleSet: Soft
StackLeniency: 0.7
Mode: 3
LetterboxInBreaks: 0
SpecialStyle: 0
WidescreenStoryboard: 0

[Editor]
DistanceSpacing: 1
BeatDivisor: 4
GridSize: 4
TimelineZoom: 1.4

[Metadata]
Title:Rubik's Cube
TitleUnicode:ルービックキューブ
Artist:Nanahoshi Kangengakudan feat. Hatsune Miku
ArtistUnicode:ナナホシ管弦楽団 feat. 初音 ミク
Creator:Harbyter
Version:NM
Source:
Tags:HujuniseikouyuuP 不純異性交遊P Vocaloid puxtu Takane6 Ichigaki
BeatmapID:516108
BeatmapSetID:170446

[Difficulty]
HPDrainRate:7
CircleSize:4
OverallDifficulty:7
ApproachRate:5
SliderMultiplier:1.4
SliderTickRate:1

[Events]
//Background and Video events
0,0,"rubik.jpg",0,0
//Break Periods
//Storyboard Layer 0 (Background)
//Storyboard Layer 1 (Fail)
//Storyboard Layer 2 (Pass)
//Storyboard Layer 3 (Foreground)
//Storyboard Sound Samples

[TimingPoints]
1362,344.827586206897,4,2,1,40,1,0
67568,-100,4,2,1,40,0,1
77741,-100,4,2,1,40,0,0
78603,-100,4,2,1,40,0,1
89637,-100,4,2,1,40,0,0
111706,-100,4,2,1,25,0,0
125499,-100,4,2,1,40,0,1
135672,-100,4,2,1,40,0,0
136534,-100,4,2,1,40,0,1
144810,-100,4,2,1,40,0,0
147568,-100,4,2,1,40,0,1
157741,-100,4,2,1,40,0,0
158603,-100,4,2,1,40,0,1
169637,-100,4,2,1,40,0,0

[HitObjects]
448,192,1362,128,8,1706:0:0:0:0:
64,192,1706,128,0,2051:0:0:0:0:
320,192,2051,128,8,2396:0:0:0:0:
192,192,2396,128,0,2741:0:0:0:0:
64,192,2741,128,8,3086:0:0:0:0:
448,192,3086,128,0,3430:0:0:0:0:
192,192,3430,128,8,3775:0:0:0:0:
320,192,3775,128,0,4120:0:0:0:0:
64,192,4120,128,8,4465:0:0:0:0:
448,192,4465,128,0,4810:0:0:0:0:
64,192,4810,128,8,5155:0:0:0:0:
448,192,5155,128,0,5499:0:0:0:0:
320,192,5499,128,8,5844:0:0:0:0:
192,192,5844,128,0,6189:0:0:0:0:
320,192,6189,1,8,0:0:0:0:
64,192,6534,1,4,0:0:0:0:
448,192,6534,1,4,0:0:0:0:
448,192,6879,1,8,0:0:0:0:
320,192,7051,1,0,0:0:0:0:
64,192,7224,1,0,0:0:0:0:
448,192,7396,1,0,0:0:0:0:
192,192,7568,1,8,0:0:0:0:
320,192,7741,1,0,0:0:0:0:
64,192,7913,1,8,0:0:0:0:
448,192,8086,1,0,0:0:0:0:
192,192,8258,1,8,0:0:0:0:
64,192,8430,1,0,0:0:0:0:
448,192,8603,1,0,0:0:0:0:
192,192,8775,1,0,0:0:0:0:
448,192,8948,1,8,0:0:0:0:
64,192,9120,1,8,0:0:0:0:
320,192,9293,1,8,0:0:0:0:
64,192,9465,1,0,0:0:0:0:
448,192,9637,1,8,0:0:0:0:
320,192,9810,1,0,0:0:0:0:
64,192,9982,1,0,0:0:0:0:
192,192,10155,1,0,0:0:0:0:
64,192,10327,1,8,0:0:0:0:
320,192,10499,1,0,0:0:0:0:
448,192,10672,1,8,0:0:0:0:
192,192,10844,1,0,0:0:0:0:
320,192,11017,1,8,0:0:0:0:
64,192,11189,1,0,0:0:0:0:
192,192,11362,1,0,0:0:0:0:
64,192,11534,1,0,0:0:0:0:
192,192,11706,1,8,0:0:0:0:
448,192,11879,1,8,0:0:0:0:
320,192,12051,128,8,12396:0:0:0:0:
64,192,12051,1,8,0:0:0:0:
192,192,12396,1,4,0:0:0:0:
448,192,12396,1,4,0:0:0:0:
64,192,12741,1,2,0:0:0:0:
448,192,12741,1,0,1:0:0:0:
192,192,13086,1,8,0:0:0:0:
64,192,13430,1,2,0:0:0:0:
448,192,13430,1,0,1:0:0:0:
320,192,13775,1,8,0:0:0:0:
64,192,14120,1,2,0:0:0:0:
448,192,14120,1,0,1:0:0:0:
320,192,14465,1,8,0:0:0:0:
64,192,14810,1,8,0:0:0:0:
448,192,14810,1,0,1:0:0:0:
192,192,15155,1,8,0:0:0:0:
320,192,15499,1,2,0:0:0:0:
448,192,15499,1,0,1:0:0:0:
192,192,15844,1,8,0:0:0:0:
320,192,16189,1,2,0:0:0:0:
448,192,16189,1,0,1:0:0:0:
64,192,16534,1,8,0:0:0:0:
192,192,16879,1,2,0:0:0:0:
320,192,16879,1,0,1:0:0:0:
64,192,17224,1,8,0:0:0:0:
192,192,17568,1,8,0:0:0:0:
320,192,17568,128,0,17913:1:0:0:0:
448,192,17913,1,4,0:0:0:0:
64,192,17913,1,4,0:0:0:0:
192,192,18258,1,2,0:0:0:0:
320,192,18258,1,0,1:0:0:0:
448,192,18603,1,8,0:0:0:0:
192,192,18948,1,2,0:0:0:0:
320,192,18948,1,0,1:0:0:0:
448,192,19293,1,8,0:0:0:0:
64,192,19637,1,2,0:0:0:0:
320,192,19637,1,0,1:0:0:0:
192,192,19982,1,8,0:0:0:0:
64,192,20327,1,8,0:0:0:0:
320,192,20327,1,0,1:0:0:0:
448,192,20672,1,8,0:0:0:0:
64,192,21017,1,2,0:0:0:0:
320,192,21017,1,0,1:0:0:0:
192,192,21362,1,8,0:0:0:0:
448,192,21706,1,2,0:0:0:0:
64,192,21706,1,0,1:0:0:0:
320,192,22051,1,8,0:0:0:0:
192,192,22396,1,2,0:0:0:0:
320,192,22396,1,0,1:0:0:0:
448,192,22741,1,8,0:0:0:0:
64,192,22913,1,8,1:0:0:0:
192,192,23086,1,8,1:0:0:0:
320,192,23086,1,8,0:0:0:0:
448,192,23258,1,8,0:0:0:0:
64,192,23430,1,4,0:0:0:0:
192,192,23430,1,4,0:0:0:0:
320,192,23775,1,2,0:0:0:0:
448,192,23948,1,2,0:0:0:0:
320,192,24120,1,2,0:0:0:0:
192,192,24465,1,0,0:0:0:0:
320,192,24465,1,0,1:0:0:0:
64,192,24810,1,8,0:0:0:0:
448,192,24810,1,8,0:0:0:0:
192,192,25155,1,2,0:0:0:0:
64,192,25327,1,2,0:0:0:0:
192,192,25499,1,2,0:0:0:0:
192,192,25844,1,0,1:0:0:0:
320,192,25844,1,0,0:0:0:0:
64,192,26189,1,8,0:0:0:0:
448,192,26189,1,8,0:0:0:0:
64,192,26534,1,2,0:0:0:0:
448,192,26706,1,2,0:0:0:0:
64,192,26879,1,2,0:0:0:0:
192,192,27224,1,0,0:0:0:0:
320,192,27224,1,0,1:0:0:0:
64,192,27568,1,8,0:0:0:0:
448,192,27568,1,8,0:0:0:0:
448,192,27913,1,2,0:0:0:0:
64,192,28086,1,2,0:0:0:0:
448,192,28258,1,2,0:0:0:0:
320,192,28603,1,8,0:0:0:0:
192,192,28603,128,0,28948:1:0:0:0:
64,192,28948,1,4,0:0:0:0:
448,192,28948,1,4,0:0:0:0:
320,192,29120,1,2,0:0:0:0:
64,192,29293,1,2,0:0:0:0:
320,192,29465,1,2,0:0:0:0:
64,192,29637,1,8,0:0:0:0:
320,192,29810,1,0,0:0:0:0:
64,192,29982,1,8,0:0:0:0:
320,192,30155,1,0,0:0:0:0:
64,192,30327,1,8,0:0:0:0:
448,192,30327,1,8,0:0:0:0:
320,192,30499,1,2,0:0:0:0:
192,192,30672,1,2,0:0:0:0:
448,192,30844,1,2,0:0:0:0:
192,192,31017,1,8,0:0:0:0:
448,192,31189,1,8,0:0:0:0:
192,192,31362,1,8,0:0:0:0:
448,192,31534,1,8,0:0:0:0:
64,192,31706,1,8,0:0:0:0:
320,192,31706,1,8,0:0:0:0:
192,192,31879,1,2,0:0:0:0:
448,192,32051,1,2,0:0:0:0:
64,192,32224,1,2,0:0:0:0:
448,192,32396,1,8,0:0:0:0:
64,192,32568,1,0,0:0:0:0:
448,192,32741,1,8,0:0:0:0:
64,192,32913,1,0,0:0:0:0:
192,192,33086,1,8,0:0:0:0:
448,192,33086,1,0,1:0:0:0:
192,192,33430,1,8,0:0:0:0:
448,192,33430,1,0,1:0:0:0:
448,192,33775,1,4,3:0:0:0:
64,192,33775,128,4,34120:3:0:0:0:
320,192,34120,1,2,3:0:0:0:
192,192,34293,1,2,3:0:0:0:
320,192,34465,1,4,0:0:0:0:
448,192,34465,1,4,0:0:0:0:
64,192,34810,1,2,0:0:0:0:
448,192,34810,1,0,1:0:0:0:
192,192,35155,1,8,0:0:0:0:
64,192,35499,1,2,0:0:0:0:
448,192,35499,1,0,1:0:0:0:
192,192,35844,1,8,0:0:0:0:
320,192,36189,1,2,0:0:0:0:
448,192,36189,1,0,1:0:0:0:
192,192,36534,1,8,0:0:0:0:
448,192,36879,1,2,0:0:0:0:
64,192,36879,1,0,1:0:0:0:
320,192,37224,1,8,0:0:0:0:
64,192,37568,1,2,0:0:0:0:
448,192,37568,1,0,1:0:0:0:
320,192,37913,1,8,0:0:0:0:
64,192,38258,1,2,0:0:0:0:
448,192,38258,1,0,1:0:0:0:
192,192,38603,1,8,0:0:0:0:
64,192,38948,1,2,0:0:0:0:
192,192,38948,1,0,1:0:0:0:
448,192,39293,1,8,0:0:0:0:
192,192,39465,1,0,0:0:0:0:
320,192,39637,1,8,0:0:0:0:
64,192,39810,1,8,0:0:0:0:
448,192,39982,1,4,0:0:0:0:
192,192,39982,1,4,0:0:0:0:
64,192,40327,1,2,0:0:0:0:
192,192,40327,1,0,1:0:0:0:
448,192,40672,1,8,0:0:0:0:
64,192,41017,1,2,0:0:0:0:
192,192,41017,1,0,1:0:0:0:
192,192,41362,1,8,0:0:0:0:
320,192,41706,1,2,0:0:0:0:
448,192,41706,1,0,1:0:0:0:
192,192,42051,1,8,0:0:0:0:
448,192,42396,1,2,0:0:0:0:
64,192,42396,1,0,1:0:0:0:
192,192,42741,1,8,0:0:0:0:
320,192,43086,1,2,0:0:0:0:
448,192,43086,1,0,1:0:0:0:
64,192,43430,1,8,0:0:0:0:
320,192,43775,1,2,0:0:0:0:
448,192,43775,1,0,1:0:0:0:
192,192,44120,1,8,0:0:0:0:
64,192,44465,1,2,0:0:0:0:
192,192,44465,1,0,1:0:0:0:
448,192,44810,1,8,1:0:0:0:
320,192,44982,1,8,0:0:0:0:
192,192,45155,128,8,45499:0:0:0:0:
64,192,45499,1,4,0:0:0:0:
448,192,45499,1,4,0:0:0:0:
320,192,45672,1,0,0:0:0:0:
64,192,45844,1,2,0:0:0:0:
448,192,45844,1,0,1:0:0:0:
192,192,46189,1,8,0:0:0:0:
320,192,46362,1,0,0:0:0:0:
448,192,46534,1,0,1:0:0:0:
64,192,46534,1,2,0:0:0:0:
64,192,46879,1,8,0:0:0:0:
448,192,46879,1,8,0:0:0:0:
192,192,47224,1,2,0:0:0:0:
320,192,47224,1,0,1:0:0:0:
64,192,47568,1,8,0:0:0:0:
448,192,47741,1,0,0:0:0:0:
64,192,47913,1,0,1:0:0:0:
448,192,48258,1,8,0:0:0:0:
64,192,48258,1,8,0:0:0:0:
320,192,48430,1,0,0:0:0:0:
448,192,48603,1,0,1:0:0:0:
64,192,48948,1,8,0:0:0:0:
448,192,48948,1,8,0:0:0:0:
192,192,49120,1,0,0:0:0:0:
64,192,49293,1,0,1:0:0:0:
448,192,49637,1,8,0:0:0:0:
64,192,49982,1,2,0:0:0:0:
320,192,49982,1,0,1:0:0:0:
192,192,50327,1,8,0:0:0:0:
192,192,50672,1,8,0:0:0:0:
320,192,50672,1,0,1:0:0:0:
448,192,50844,1,8,0:0:0:0:
64,192,51017,1,4,0:0:0:0:
192,192,51017,1,4,0:0:0:0:
320,192,51362,1,2,0:0:0:0:
448,192,51362,1,0,1:0:0:0:
64,192,51706,1,8,0:0:0:0:
192,192,51879,1,0,0:0:0:0:
64,192,52051,1,8,0:0:0:0:
192,192,52224,1,0,0:0:0:0:
320,192,52396,1,8,0:0:0:0:
448,192,52396,1,8,0:0:0:0:
64,192,52741,1,2,0:0:0:0:
192,192,52741,1,0,1:0:0:0:
448,192,53086,1,8,0:0:0:0:
320,192,53258,1,0,0:0:0:0:
448,192,53430,1,8,0:0:0:0:
320,192,53603,1,0,0:0:0:0:
64,192,53775,1,8,0:0:0:0:
448,192,53775,1,0,0:0:0:0:
192,192,54120,1,0,1:0:0:0:
64,192,54465,1,0,0:0:0:0:
448,192,54465,1,8,0:0:0:0:
320,192,54810,1,0,1:0:0:0:
64,192,55155,1,8,0:0:0:0:
448,192,55155,1,8,0:0:0:0:
192,192,55499,1,2,0:0:0:0:
320,192,55499,1,0,1:0:0:0:
64,192,55844,1,8,0:0:0:0:
448,192,55844,1,8,0:0:0:0:
192,192,56017,1,4,3:0:0:0:
320,192,56017,1,0,0:0:0:0:
64,192,56189,1,2,0:0:0:0:
448,192,56189,1,0,1:0:0:0:
192,192,56534,1,0,1:0:0:0:
448,192,56706,1,0,1:0:0:0:
192,192,56879,1,0,1:0:0:0:
448,192,57051,1,0,1:0:0:0:
64,192,57224,1,4,0:0:0:0:
320,192,57224,1,0,1:0:0:0:
192,192,57568,1,0,1:0:0:0:
64,192,57741,1,0,1:0:0:0:
448,192,57913,1,0,1:0:0:0:
320,192,58086,1,0,1:0:0:0:
64,192,58258,1,4,0:0:0:0:
448,192,58258,1,0,1:0:0:0:
192,192,58603,128,8,58948:0:0:0:0:
448,192,58948,128,8,59293:0:0:0:0:
64,192,59293,1,4,1:0:0:0:
192,192,59637,1,2,0:0:0:0:
320,192,59982,1,8,0:0:0:0:
192,192,60327,1,2,0:0:0:0:
448,192,60672,1,8,0:0:0:0:
320,192,60844,1,0,0:0:0:0:
192,192,61017,1,2,0:0:0:0:
64,192,61189,1,0,0:0:0:0:
192,192,61362,1,12,0:3:0:0:
192,192,61706,1,4,0:0:0:0:
320,192,61706,1,4,0:0:0:0:
64,192,62051,1,2,3:0:0:0:
64,192,62224,1,2,3:0:0:0:
320,192,62396,1,2,3:0:0:0:
448,192,62568,128,4,62913:0:0:0:0:
64,192,62913,1,4,3:0:0:0:
192,192,63086,1,8,3:0:0:0:
320,192,63258,1,4,3:0:0:0:
448,192,63430,1,12,3:0:0:0:
448,192,63603,1,0,1:0:0:0:
192,192,63775,1,0,1:0:0:0:
64,192,63948,128,4,64293:0:0:0:0:
448,192,64293,1,0,1:0:0:0:
320,192,64465,1,4,3:0:0:0:
192,192,64637,1,8,3:0:0:0:
448,192,64810,1,8,3:0:0:0:
64,192,64810,128,0,65155:1:0:0:0:
192,192,65155,128,8,65499:3:0:0:0:
320,192,65499,128,8,65844:3:0:0:0:
448,192,65844,128,8,66189:3:0:0:0:
64,192,66189,1,8,3:0:0:0:
192,192,66448,1,8,3:0:0:0:
320,192,66448,1,8,3:0:0:0:
192,192,66706,1,8,1:0:0:0:
320,192,66706,1,8,1:0:0:0:
64,192,67224,1,8,0:0:0:0:
448,192,67224,128,0,67568:1:0:0:0:
192,192,67568,128,4,67913:0:0:0:0:
64,192,67568,1,4,0:0:0:0:
320,192,67913,128,4,68258:3:0:0:0:
448,192,67913,1,0,1:0:0:0:
448,192,68258,128,8,68603:3:0:0:0:
192,192,68258,1,0,0:0:0:0:
320,192,68603,128,4,68948:3:0:0:0:
64,192,68603,1,0,1:0:0:0:
192,192,68948,1,8,3:0:0:0:
320,192,69120,1,0,0:0:0:0:
448,192,69293,1,4,3:0:0:0:
320,192,69465,1,0,0:0:0:0:
192,192,69637,1,8,3:0:0:0:
64,192,69810,1,0,0:0:0:0:
192,192,69982,1,4,3:0:0:0:
320,192,70155,1,0,0:0:0:0:
448,192,70327,1,8,3:0:0:0:
64,192,70327,1,0,0:0:0:0:
192,192,70499,1,0,0:0:0:0:
320,192,70672,1,4,3:0:0:0:
64,192,70844,1,0,0:0:0:0:
448,192,71017,1,8,3:0:0:0:
192,192,71362,1,4,3:0:0:0:
320,192,71362,1,0,1:0:0:0:
64,192,71706,1,4,3:0:0:0:
448,192,71706,1,4,3:0:0:0:
320,192,71879,1,8,3:0:0:0:
192,192,72051,1,4,3:0:0:0:
64,192,72224,1,4,0:0:0:0:
448,192,72224,1,4,0:0:0:0:
64,192,72568,128,0,73086:1:0:0:0:
448,192,73086,128,4,73430:0:0:0:0:
320,192,73603,128,8,73948:0:0:0:0:
448,192,74120,128,8,74465:0:0:0:0:
192,192,74637,128,8,74982:0:0:0:0:
64,192,75155,128,8,75499:0:0:0:0:
192,192,75672,128,8,76017:0:0:0:0:
320,192,76189,128,8,76534:1:0:0:0:
448,192,76706,128,4,77224:3:0:0:0:
64,192,77224,1,8,3:0:0:0:
192,192,77396,1,8,3:0:0:0:
320,192,77396,1,0,1:0:0:0:
64,192,77568,1,4,3:0:0:0:
448,192,77568,1,0,1:0:0:0:
448,192,77741,1,4,0:0:0:0:
64,192,77741,1,4,0:0:0:0:
448,192,78086,128,8,78603:0:0:0:0:
64,192,78086,1,0,1:0:0:0:
192,192,78603,128,4,78948:0:0:0:0:
64,192,78603,1,4,0:0:0:0:
64,192,78948,1,4,3:0:0:0:
448,192,78948,128,0,79293:1:0:0:0:
320,192,79293,128,8,79637:3:0:0:0:
192,192,79293,1,0,0:0:0:0:
64,192,79637,1,4,3:0:0:0:
64,192,79810,1,0,0:0:0:0:
192,192,79982,1,8,3:0:0:0:
320,192,80155,1,0,0:0:0:0:
64,192,80327,1,4,3:0:0:0:
192,192,80499,1,0,0:0:0:0:
320,192,80672,1,8,3:0:0:0:
448,192,80844,1,0,0:0:0:0:
448,192,81017,1,4,3:0:0:0:
320,192,81189,1,0,0:0:0:0:
64,192,81362,1,8,3:0:0:0:
448,192,81362,1,0,0:0:0:0:
320,192,81534,1,0,0:0:0:0:
192,192,81706,1,4,3:0:0:0:
64,192,81879,1,0,3:0:0:0:
192,192,82051,1,8,3:0:0:0:
64,192,82396,1,4,3:0:0:0:
448,192,82396,1,0,1:0:0:0:
64,192,82741,1,4,3:0:0:0:
448,192,82741,1,0,0:0:0:0:
192,192,82913,1,8,3:0:0:0:
320,192,83086,1,4,3:0:0:0:
64,192,83258,1,4,0:0:0:0:
448,192,83258,1,4,0:0:0:0:
448,192,83603,1,0,1:0:0:0:
64,192,83775,1,0,1:0:0:0:
448,192,83948,1,0,1:0:0:0:
192,192,84120,1,4,3:0:0:0:
64,192,84465,1,2,0:0:0:0:
448,192,84465,1,0,1:0:0:0:
320,192,84810,1,8,0:0:0:0:
64,192,85155,1,2,0:0:0:0:
448,192,85155,1,0,1:0:0:0:
320,192,85499,1,8,0:0:0:0:
64,192,85844,1,2,0:0:0:0:
192,192,85844,1,0,1:0:0:0:
448,192,86103,1,4,3:0:0:0:
320,192,86189,1,4,3:0:0:0:
192,192,86534,1,8,3:0:0:0:
320,192,86534,1,0,3:0:0:0:
448,192,86879,1,8,0:0:0:0:
192,192,86879,1,0,0:0:0:0:
64,192,87051,1,8,0:0:0:0:
64,192,87224,1,2,0:0:0:0:
192,192,87396,1,8,0:0:0:0:
192,192,87568,1,2,0:0:0:0:
320,192,87741,1,8,0:0:0:0:
320,192,87913,1,2,0:0:0:0:
448,192,88086,1,8,0:0:0:0:
448,192,88258,1,2,0:0:0:0:
64,192,88430,1,8,0:0:0:0:
64,192,88603,1,2,0:0:0:0:
192,192,88775,1,8,0:0:0:0:
192,192,88948,1,2,0:0:0:0:
320,192,89120,1,8,0:0:0:0:
448,192,89293,1,8,0:0:0:0:
320,192,89465,1,8,0:0:0:0:
192,192,89637,1,4,0:0:0:0:
448,192,89637,1,4,0:0:0:0:
64,192,89982,1,2,0:0:0:0:
448,192,89982,1,0,1:0:0:0:
192,192,90327,1,8,0:0:0:0:
64,192,90672,1,2,0:0:0:0:
448,192,90672,1,0,1:0:0:0:
320,192,91017,1,8,0:0:0:0:
64,192,91362,1,2,0:0:0:0:
448,192,91362,1,0,1:0:0:0:
320,192,91706,1,8,0:0:0:0:
64,192,92051,1,8,0:0:0:0:
448,192,92051,1,0,1:0:0:0:
448,192,92396,1,8,0:0:0:0:
64,192,92741,1,2,0:0:0:0:
320,192,92741,1,0,1:0:0:0:
448,192,93086,1,8,0:0:0:0:
64,192,93430,1,2,0:0:0:0:
320,192,93430,1,0,1:0:0:0:
192,192,93775,1,8,0:0:0:0:
320,192,94120,1,2,0:0:0:0:
448,192,94120,1,0,1:0:0:0:
192,192,94465,1,8,0:0:0:0:
448,192,94810,1,8,0:0:0:0:
320,192,94810,1,0,1:0:0:0:
192,192,94982,1,8,0:0:0:0:
64,192,95155,1,4,0:0:0:0:
448,192,95155,1,4,0:0:0:0:
192,192,95499,1,2,0:0:0:0:
320,192,95499,1,0,1:0:0:0:
448,192,95844,1,8,0:0:0:0:
64,192,96189,1,2,0:0:0:0:
448,192,96189,1,0,1:0:0:0:
320,192,96534,1,8,0:0:0:0:
64,192,96879,1,2,0:0:0:0:
192,192,96879,1,0,1:0:0:0:
320,192,97224,1,8,0:0:0:0:
320,192,97568,1,8,0:0:0:0:
448,192,97568,1,0,1:0:0:0:
64,192,97913,1,8,0:0:0:0:
192,192,98258,1,2,0:0:0:0:
320,192,98258,1,0,1:0:0:0:
192,192,98603,1,8,0:0:0:0:
64,192,98948,1,2,0:0:0:0:
448,192,98948,1,0,1:0:0:0:
320,192,99293,1,8,0:0:0:0:
192,192,99637,1,2,0:0:0:0:
448,192,99637,1,0,1:0:0:0:
64,192,99982,1,8,0:0:0:0:
320,192,100155,1,8,1:0:0:0:
192,192,100327,1,8,0:0:0:0:
448,192,100327,1,8,1:0:0:0:
64,192,100499,1,8,0:0:0:0:
320,192,100672,1,4,0:0:0:0:
448,192,100672,1,4,0:0:0:0:
64,192,101017,1,2,0:0:0:0:
192,192,101189,1,2,0:0:0:0:
64,192,101362,1,2,0:0:0:0:
192,192,101706,1,0,0:0:0:0:
320,192,101706,1,0,1:0:0:0:
320,192,102051,1,8,0:0:0:0:
448,192,102051,1,8,0:0:0:0:
448,192,102396,1,2,0:0:0:0:
320,192,102568,1,2,0:0:0:0:
448,192,102741,1,2,0:0:0:0:
192,192,103086,1,0,0:0:0:0:
320,192,103086,1,0,1:0:0:0:
64,192,103430,1,8,0:0:0:0:
192,192,103430,1,8,0:0:0:0:
448,192,103775,1,2,0:0:0:0:
192,192,103948,1,2,0:0:0:0:
320,192,104120,1,2,0:0:0:0:
64,192,104465,1,0,0:0:0:0:
448,192,104465,1,0,1:0:0:0:
64,192,104810,1,8,0:0:0:0:
448,192,104810,1,8,0:0:0:0:
192,192,105155,1,2,0:0:0:0:
448,192,105327,1,2,0:0:0:0:
320,192,105499,1,2,0:0:0:0:
192,192,105844,1,8,0:0:0:0:
448,192,105844,128,0,106189:1:0:0:0:
64,192,106189,1,4,0:0:0:0:
192,192,106189,1,4,0:0:0:0:
320,192,106362,1,2,0:0:0:0:
192,192,106534,1,8,0:0:0:0:
448,192,106706,1,2,0:0:0:0:
192,192,106879,1,8,0:0:0:0:
320,192,106879,1,8,0:0:0:0:
64,192,107224,1,2,0:0:0:0:
192,192,107224,1,0,1:0:0:0:
320,192,107568,1,8,0:0:0:0:
448,192,107568,1,8,0:0:0:0:
192,192,107741,1,2,0:0:0:0:
320,192,107913,1,8,0:0:0:0:
64,192,108086,1,2,0:0:0:0:
320,192,108258,1,8,0:0:0:0:
448,192,108258,1,8,0:0:0:0:
320,192,108603,1,0,1:0:0:0:
448,192,108603,1,2,0:0:0:0:
64,192,108948,1,8,0:0:0:0:
448,192,108948,1,8,0:0:0:0:
320,192,109120,1,2,0:0:0:0:
448,192,109293,1,8,0:0:0:0:
192,192,109465,1,2,0:0:0:0:
64,192,109637,1,8,0:0:0:0:
320,192,109637,1,8,0:0:0:0:
64,192,109982,1,2,0:0:0:0:
320,192,109982,1,0,1:0:0:0:
192,192,110327,1,8,0:0:0:0:
448,192,110327,1,8,0:0:0:0:
64,192,110499,1,2,0:0:0:0:
320,192,110672,1,8,0:0:0:0:
64,192,110844,1,2,0:0:0:0:
192,192,111017,1,8,0:0:0:0:
448,192,111017,1,8,0:0:0:0:
448,192,111362,1,0,1:0:0:0:
192,192,111362,128,0,111706:0:0:0:0:
64,192,111706,128,2,113086:0:0:0:0:
448,192,111706,128,2,113086:0:0:0:0:
320,192,113086,128,2,114465:0:0:0:0:
192,192,114465,128,2,115844:0:0:0:0:
448,192,114465,128,2,115844:0:0:0:0:
64,192,115844,128,2,117224:0:0:0:0:
192,192,117224,128,2,118603:0:0:0:0:
320,192,118603,128,2,119982:0:0:0:0:
192,192,119982,128,2,121362:0:0:0:0:
448,192,119982,128,2,121362:0:0:0:0:
320,192,121362,128,2,122741:0:0:0:0:
64,192,122741,128,2,122913:0:0:0:0:
192,192,122913,128,2,123086:0:0:0:0:
320,192,123086,128,2,123258:0:0:0:0:
448,192,123258,128,2,124896:0:0:0:0:
448,192,125155,1,8,0:0:0:0:
64,192,125155,128,0,125499:1:0:0:0:
448,192,125499,128,4,125844:0:0:0:0:
192,192,125499,1,4,0:0:0:0:
64,192,125844,1,4,3:0:0:0:
192,192,125844,128,0,126189:1:0:0:0:
320,192,126189,1,8,3:0:0:0:
448,192,126189,128,0,126534:0:0:0:0:
64,192,126534,1,4,3:0:0:0:
192,192,126534,128,0,126879:1:0:0:0:
448,192,126879,1,8,3:0:0:0:
64,192,127051,1,0,0:0:0:0:
448,192,127224,1,4,3:0:0:0:
64,192,127396,1,0,0:0:0:0:
320,192,127568,1,8,3:0:0:0:
192,192,127741,1,0,0:0:0:0:
320,192,127913,1,4,3:0:0:0:
192,192,128086,1,0,0:0:0:0:
64,192,128258,1,8,3:0:0:0:
448,192,128258,1,0,0:0:0:0:
192,192,128430,1,0,0:0:0:0:
320,192,128603,1,4,3:0:0:0:
448,192,128775,1,0,0:0:0:0:
320,192,128948,1,8,3:0:0:0:
192,192,129293,1,4,3:0:0:0:
320,192,129293,1,0,1:0:0:0:
192,192,129637,1,4,3:0:0:0:
448,192,129637,1,0,1:0:0:0:
64,192,129810,1,8,3:0:0:0:
320,192,129982,1,4,3:0:0:0:
64,192,130155,1,4,0:0:0:0:
192,192,130155,1,4,0:0:0:0:
448,192,130499,128,0,131017:1:0:0:0:
64,192,131017,128,4,131362:0:0:0:0:
320,192,131534,128,8,131879:0:0:0:0:
192,192,132051,128,8,132396:0:0:0:0:
448,192,132568,128,8,132913:0:0:0:0:
64,192,133086,128,8,133430:0:0:0:0:
192,192,133603,128,8,133948:0:0:0:0:
448,192,134120,128,8,134465:1:0:0:0:
320,192,134637,128,4,135155:3:0:0:0:
64,192,135155,1,8,3:0:0:0:
192,192,135327,1,8,3:0:0:0:
448,192,135499,1,4,3:0:0:0:
64,192,135499,1,0,0:0:0:0:
192,192,135672,1,4,0:0:0:0:
320,192,135672,1,4,0:0:0:0:
64,192,136017,1,8,0:0:0:0:
448,192,136189,1,8,0:0:0:0:
64,192,136362,1,8,0:0:0:0:
192,192,136534,128,4,136879:0:0:0:0:
448,192,136534,1,4,0:0:0:0:
320,192,136879,128,4,137224:3:0:0:0:
64,192,136879,1,0,1:0:0:0:
192,192,137224,128,8,137568:3:0:0:0:
448,192,137224,1,0,0:0:0:0:
320,192,137568,1,4,3:0:0:0:
320,192,137741,1,0,0:0:0:0:
192,192,137913,1,8,3:0:0:0:
64,192,138086,1,0,0:0:0:0:
192,192,138258,1,4,3:0:0:0:
64,192,138430,1,0,0:0:0:0:
320,192,138603,1,8,3:0:0:0:
448,192,138775,1,0,0:0:0:0:
320,192,138948,1,4,3:0:0:0:
448,192,139120,1,0,0:0:0:0:
64,192,139293,1,8,3:0:0:0:
192,192,139293,1,0,0:0:0:0:
320,192,139465,1,0,0:0:0:0:
448,192,139637,1,4,3:0:0:0:
192,192,139810,1,0,0:0:0:0:
448,192,139982,1,8,3:0:0:0:
192,192,140327,1,4,3:0:0:0:
320,192,140327,1,0,1:0:0:0:
64,192,140672,1,4,3:0:0:0:
448,192,140672,1,0,0:0:0:0:
320,192,140844,1,8,3:0:0:0:
192,192,141017,1,4,3:0:0:0:
64,192,141189,1,4,0:0:0:0:
448,192,141189,1,4,0:0:0:0:
64,192,141534,1,0,1:0:0:0:
448,192,141706,1,0,1:0:0:0:
64,192,141879,1,0,1:0:0:0:
320,192,142051,1,4,3:0:0:0:
64,192,142396,1,2,0:0:0:0:
448,192,142396,1,0,1:0:0:0:
192,192,142741,1,8,0:0:0:0:
64,192,143086,1,2,0:0:0:0:
320,192,143086,1,0,1:0:0:0:
448,192,143430,1,8,0:0:0:0:
192,192,143775,1,2,0:0:0:0:
320,192,143775,1,0,1:0:0:0:
448,192,144034,1,4,3:0:0:0:
320,192,144120,1,4,3:0:0:0:
192,192,144465,1,8,3:0:0:0:
320,192,144465,1,0,1:0:0:0:
64,192,144810,1,8,0:0:0:0:
448,192,144810,1,0,0:0:0:0:
192,192,144982,1,8,0:0:0:0:
192,192,145155,1,2,0:0:0:0:
320,192,145327,1,8,0:0:0:0:
320,192,145499,1,2,0:0:0:0:
448,192,145672,1,8,0:0:0:0:
448,192,145844,1,2,0:0:0:0:
192,192,146017,1,8,0:0:0:0:
192,192,146189,1,2,0:0:0:0:
64,192,146362,1,8,0:0:0:0:
64,192,146534,1,2,0:0:0:0:
192,192,146706,1,8,0:0:0:0:
192,192,146879,1,2,0:0:0:0:
320,192,147051,1,8,0:0:0:0:
448,192,147224,1,8,0:0:0:0:
192,192,147396,1,8,0:0:0:0:
320,192,147568,1,4,0:0:0:0:
64,192,147568,1,4,0:0:0:0:
192,192,147913,1,4,3:0:0:0:
448,192,147913,1,0,1:0:0:0:
320,192,148258,1,8,3:0:0:0:
64,192,148603,1,4,3:0:0:0:
192,192,148603,1,0,1:0:0:0:
64,192,148948,1,8,3:0:0:0:
192,192,149120,1,0,0:0:0:0:
320,192,149293,1,4,3:0:0:0:
448,192,149293,1,0,1:0:0:0:
192,192,149465,1,0,0:0:0:0:
64,192,149637,1,8,3:0:0:0:
320,192,149810,1,0,0:0:0:0:
192,192,149982,1,4,3:0:0:0:
448,192,149982,1,0,1:0:0:0:
64,192,150155,1,0,0:0:0:0:
448,192,150327,1,8,3:0:0:0:
64,192,150499,1,0,0:0:0:0:
192,192,150672,1,4,3:0:0:0:
320,192,150844,1,0,0:0:0:0:
448,192,151017,1,8,3:0:0:0:
320,192,151189,1,8,3:0:0:0:
192,192,151362,1,4,3:0:0:0:
64,192,151534,1,8,3:0:0:0:
448,192,151534,1,0,0:0:0:0:
320,192,151706,1,4,3:0:0:0:
192,192,151879,1,8,3:0:0:0:
64,192,152224,1,4,0:0:0:0:
448,192,152224,1,4,0:0:0:0:
64,192,152568,1,0,1:0:0:0:
448,192,152568,128,0,153086:0:0:0:0:
64,192,153086,128,4,153430:0:0:0:0:
448,192,153603,128,8,153948:0:0:0:0:
64,192,154120,128,8,154465:0:0:0:0:
448,192,154637,128,8,154982:0:0:0:0:
192,192,155155,128,8,155499:0:0:0:0:
320,192,155672,128,8,156017:0:0:0:0:
192,192,156189,128,8,156534:1:0:0:0:
448,192,156706,128,4,157224:3:0:0:0:
320,192,157224,1,8,3:0:0:0:
192,192,157396,1,8,3:0:0:0:
64,192,157568,1,4,3:0:0:0:
448,192,157568,1,0,0:0:0:0:
64,192,157741,1,4,0:0:0:0:
448,192,157741,1,4,0:0:0:0:
320,192,158086,1,8,0:0:0:0:
192,192,158258,1,8,0:0:0:0:
320,192,158430,1,8,0:0:0:0:
192,192,158603,1,4,0:0:0:0:
64,192,158603,128,4,158948:0:0:0:0:
320,192,158948,1,4,3:0:0:0:
448,192,158948,128,0,159293:1:0:0:0:
192,192,159293,1,8,3:0:0:0:
192,192,159465,1,8,3:0:0:0:
320,192,159637,1,4,3:0:0:0:
448,192,159810,128,0,160327:0:0:0:0:
192,192,159982,1,8,3:0:0:0:
320,192,160327,1,4,3:0:0:0:
192,192,160499,1,0,0:0:0:0:
64,192,160672,1,8,3:0:0:0:
192,192,160844,1,8,3:0:0:0:
320,192,161017,1,4,3:0:0:0:
320,192,161189,1,4,3:0:0:0:
64,192,161362,1,8,3:0:0:0:
448,192,161534,1,4,3:0:0:0:
64,192,161706,1,4,3:0:0:0:
448,192,161879,1,8,3:0:0:0:
192,192,162051,1,8,3:0:0:0:
64,192,162224,1,8,3:0:0:0:
320,192,162396,1,4,3:0:0:0:
192,192,162568,1,8,3:0:0:0:
64,192,162741,1,4,3:0:0:0:
448,192,162741,1,4,3:0:0:0:
320,192,162913,1,8,3:0:0:0:
192,192,163086,1,4,3:0:0:0:
64,192,163258,1,4,0:0:0:0:
448,192,163258,1,4,0:0:0:0:
320,192,163430,1,0,1:0:0:0:
64,192,163603,1,0,1:0:0:0:
320,192,163775,1,0,1:0:0:0:
192,192,163948,1,0,1:0:0:0:
448,192,164120,1,4,3:0:0:0:
64,192,164465,1,2,0:0:0:0:
192,192,164465,1,0,1:0:0:0:
320,192,164810,1,4,3:0:0:0:
192,192,165155,1,2,0:0:0:0:
448,192,165155,1,0,1:0:0:0:
448,192,165499,1,8,0:3:0:0:
64,192,165844,1,8,3:0:0:0:
192,192,165844,1,0,1:0:0:0:
448,192,166103,1,4,3:0:0:0:
320,192,166189,1,8,3:0:0:0:
320,192,166534,1,4,3:0:0:0:
192,192,166534,1,0,1:0:0:0:
64,192,166879,1,4,3:0:0:0:
448,192,166879,1,4,3:0:0:0:
320,192,167051,1,8,0:0:0:0:
320,192,167224,1,2,0:0:0:0:
192,192,167396,1,8,0:0:0:0:
192,192,167568,1,2,0:0:0:0:
64,192,167741,1,8,0:0:0:0:
64,192,167913,1,2,0:0:0:0:
448,192,168086,1,8,0:0:0:0:
448,192,168258,1,2,0:0:0:0:
320,192,168430,1,8,0:0:0:0:
320,192,168603,1,2,0:0:0:0:
448,192,168775,1,8,0:0:0:0:
448,192,168948,1,2,0:0:0:0:
64,192,169120,1,8,0:0:0:0:
448,192,169293,1,8,0:0:0:0:
64,192,169465,1,8,0:0:0:0:
192,192,169637,1,4,0:0:0:0:
320,192,169637,1,4,0:0:0:0:
64,192,169982,1,2,0:0:0:0:
448,192,169982,1,0,1:0:0:0:
320,192,170327,1,8,0:0:0:0:
192,192,170499,1,8,0:0:0:0:
320,192,170672,1,8,0:0:0:0:
64,192,171017,1,8,0:0:0:0:
448,192,171017,1,8,0:0:0:0:
192,192,171362,1,2,0:0:0:0:
320,192,171362,1,0,1:0:0:0:
64,192,171706,1,8,0:0:0:0:
448,192,171879,1,8,0:0:0:0:
64,192,172051,1,8,0:0:0:0:
192,192,172396,1,8,0:0:0:0:
320,192,172396,1,8,0:0:0:0:
64,192,172741,1,2,0:0:0:0:
448,192,172741,1,0,1:0:0:0:
192,192,173086,1,8,0:0:0:0:
448,192,173258,1,8,0:0:0:0:
192,192,173430,1,8,0:0:0:0:
320,192,173775,1,8,0:0:0:0:
448,192,173775,1,8,0:0:0:0:
64,192,174120,1,2,0:0:0:0:
192,192,174120,1,0,1:0:0:0:
448,192,174465,1,8,0:0:0:0:
320,192,174637,1,8,0:0:0:0:
448,192,174810,1,8,0:0:0:0:
64,192,174982,1,8,0:0:0:0:
320,192,175155,1,4,0:0:0:0:
448,192,175155,1,4,0:0:0:0:
64,192,175499,1,2,0:0:0:0:
192,192,175499,1,0,1:0:0:0:
448,192,175844,1,8,0:0:0:0:
320,192,176017,1,2,0:0:0:0:
448,192,176189,1,8,0:0:0:0:
320,192,176362,1,2,0:0:0:0:
64,192,176534,1,8,0:0:0:0:
192,192,176534,1,8,0:0:0:0:
192,192,176879,1,2,0:0:0:0:
64,192,176879,1,0,1:0:0:0:
448,192,177224,1,8,0:0:0:0:
64,192,177396,1,2,0:0:0:0:
448,192,177568,1,8,0:0:0:0:
64,192,177741,1,2,0:0:0:0:
192,192,177913,1,8,0:0:0:0:
320,192,177913,1,8,0:0:0:0:
64,192,178258,1,2,0:0:0:0:
448,192,178258,1,0,1:0:0:0:
192,192,178603,1,8,0:0:0:0:
448,192,178775,1,2,0:0:0:0:
192,192,178948,1,8,0:0:0:0:
448,192,179120,1,2,0:0:0:0:
64,192,179293,1,8,0:0:0:0:
320,192,179293,1,8,0:0:0:0:
192,192,179637,1,2,0:0:0:0:
448,192,179637,1,0,1:0:0:0:
64,192,179982,1,8,0:0:0:0:
320,192,180155,1,8,1:0:0:0:
64,192,180327,1,8,1:0:0:0:
448,192,180327,1,8,0:0:0:0:
320,192,180499,1,8,0:0:0:0:
64,192,180672,1,4,0:0:0:0:
192,192,180672,1,4,0:0:0:0:
320,192,180844,1,8,0:0:0:0:
448,192,181017,1,8,0:0:0:0:
320,192,181189,1,8,0:0:0:0:
192,192,181362,1,2,0:0:0:0:
64,192,181362,1,0,1:0:0:0:
192,192,181706,1,2,0:0:0:0:
64,192,181706,1,0,1:0:0:0:
320,192,182051,1,8,0:0:0:0:
448,192,182051,1,8,0:0:0:0:
192,192,182224,1,2,0:0:0:0:
64,192,182396,1,8,0:0:0:0:
192,192,182568,1,2,0:0:0:0:
320,192,182741,1,8,0:0:0:0:
448,192,182741,1,8,0:0:0:0:
320,192,183086,1,2,0:0:0:0:
448,192,183086,1,0,1:0:0:0:
192,192,183430,1,8,0:0:0:0:
320,192,183430,1,8,0:0:0:0:
64,192,183603,1,8,0:0:0:0:
448,192,183775,1,8,0:0:0:0:
320,192,183948,1,8,0:0:0:0:
192,192,184120,1,0,1:0:0:0:
64,192,184120,1,2,0:0:0:0:
64,192,184465,1,2,0:0:0:0:
192,192,184465,1,0,1:0:0:0:
448,192,184810,1,8,0:0:0:0:
192,192,184810,1,8,0:0:0:0:
320,192,184982,1,2,0:0:0:0:
448,192,185155,1,8,0:0:0:0:
64,192,185327,1,2,0:0:0:0:
192,192,185499,1,8,0:0:0:0:
448,192,185499,1,8,0:0:0:0:
192,192,185844,1,2,0:0:0:0:
448,192,185844,1,0,1:0:0:0:
64,192,186189,1,4,3:0:0:0:
320,192,186189,1,0,0:0:0:0:
448,192,186362,1,4,3:0:0:0:
192,192,186534,1,4,3:0:0:0:
448,192,186706,1,4,3:0:0:0:
64,192,186879,1,4,0:0:0:0:
320,192,186879,1,0,0:0:0:0:
192,192,187051,1,4,3:0:0:0:
64,192,187224,1,4,0:0:0:0:
192,192,187396,1,4,3:0:0:0:
64,192,187568,1,4,3:0:0:0:
448,192,187568,1,0,0:0:0:0:
320,192,187741,1,4,3:0:0:0:
64,192,187913,1,4,3:0:0:0:
320,192,188086,1,4,3:0:0:0:
192,192,188258,1,4,0:0:0:0:
448,192,188258,1,2,0:0:0:0:
64,192,188430,1,4,3:0:0:0:
448,192,188603,1,4,0:0:0:0:
64,192,188775,1,4,3:0:0:0:
320,192,188948,1,4,0:0:0:0:
448,192,189034,1,8,3:0:0:0:
192,192,189293,1,4,3:0:0:0:
320,192,189379,1,8,3:0:0:0:
192,192,189637,1,4,0:0:0:0:
64,192,189724,1,8,3:0:0:0:
320,192,189982,1,4,0:0:0:0:
192,192,190068,1,8,3:0:0:0:
320,192,190327,1,4,3:0:0:0:
448,192,190413,1,8,3:0:0:0:
192,192,190672,1,12,3:0:0:0:
64,192,190758,1,8,3:0:0:0:
448,192,191017,1,8,3:0:0:0:
320,192,191103,1,4,3:0:0:0:
64,192,191362,1,4,3:0:0:0:
192,192,191448,1,8,3:0:0:0:
448,192,191706,1,4,3:0:0:0:
64,192,191706,1,4,3:0:0:0:
320,192,191879,1,4,3:0:0:0:
192,192,192051,1,4,3:0:0:0:
448,192,192224,1,8,3:0:0:0:
320,192,192224,1,8,3:0:0:0:
192,192,192568,1,4,3:0:0:0:
320,192,192568,1,4,3:0:0:0:
64,192,192913,128,4,193517:0:0:0:0:
448,192,192913,128,4,193517:0:0:0:0:
