osu file format v14

[General]
AudioFilename: Rubik's Cube.mp3
AudioLeadIn: 0
PreviewTime: 67224
Countdown: 0
SampleSet: Soft
StackLeniency: 0.7
Mode: 3
LetterboxInBreaks: 0
SpecialStyle: 0
WidescreenStoryboard: 0

[Editor]
DistanceSpacing: 1
BeatDivisor: 4
GridSize: 4
TimelineZoom: 1.6

[Metadata]
Title:Rubik's Cube
TitleUnicode:ルービックキューブ
Artist:Nanahoshi Kangengakudan feat. Hatsune Miku
ArtistUnicode:ナナホシ管弦楽団 feat. 初音 ミク
Creator:Harbyter
Version:MX
Source:
Tags:HujuniseikouyuuP 不純異性交遊P Vocaloid puxtu Takane6 Ichigaki
BeatmapID:512734
BeatmapSetID:170446

[Difficulty]
HPDrainRate:8
CircleSize:4
OverallDifficulty:8
ApproachRate:5
SliderMultiplier:1.4
SliderTickRate:1

[Events]
//Background and Video events
0,0,"rubik.jpg",0,0
//Break Periods
//Storyboard Layer 0 (Background)
//Storyboard Layer 1 (Fail)
//Storyboard Layer 2 (Pass)
//Storyboard Layer 3 (Foreground)
//Storyboard Sound Samples

[TimingPoints]
1362,344.827586206897,4,2,1,40,1,0
67568,-100,4,2,1,40,0,1
77741,-100,4,2,1,40,0,0
78603,-100,4,2,1,40,0,1
89637,-100,4,2,1,40,0,0
111706,-100,4,2,1,25,0,0
125155,-100,4,2,1,40,0,0
125499,-100,4,2,1,40,0,1
135672,-100,4,2,1,40,0,0
136534,-100,4,2,1,40,0,1
144810,-100,4,2,1,40,0,0
147568,-100,4,2,1,40,0,1
157741,-100,4,2,1,40,0,0
158603,-100,4,2,1,40,0,1
169637,-100,4,2,1,40,0,0

[HitObjects]
64,192,1362,5,8,0:0:0:0:
448,192,1534,1,0,0:0:0:0:
64,192,1706,1,0,0:0:0:0:
448,192,1879,1,0,0:0:0:0:
320,192,2051,1,8,0:0:0:0:
192,192,2224,1,0,0:0:0:0:
320,192,2396,1,0,0:0:0:0:
192,192,2568,1,0,0:0:0:0:
448,192,2741,1,8,0:0:0:0:
64,192,2913,1,0,0:0:0:0:
448,192,3086,1,0,0:0:0:0:
64,192,3258,1,0,0:0:0:0:
192,192,3430,1,8,0:0:0:0:
320,192,3603,1,0,0:0:0:0:
192,192,3775,1,0,0:0:0:0:
320,192,3948,1,0,0:0:0:0:
64,192,4120,1,8,0:0:0:0:
192,192,4293,1,0,0:0:0:0:
320,192,4465,1,0,0:0:0:0:
448,192,4637,1,0,0:0:0:0:
192,192,4810,1,8,0:0:0:0:
64,192,4982,1,0,0:0:0:0:
192,192,5155,1,0,0:0:0:0:
64,192,5327,1,0,0:0:0:0:
320,192,5499,1,8,0:0:0:0:
192,192,5672,1,0,0:0:0:0:
64,192,5844,1,0,0:0:0:0:
192,192,6017,1,0,0:0:0:0:
448,192,6189,1,8,0:0:0:0:
64,192,6189,1,0,0:0:0:0:
64,192,6534,1,4,0:0:0:0:
320,192,6534,1,4,0:0:0:0:
448,192,6534,1,0,0:0:0:0:
64,192,6879,1,8,0:0:0:0:
448,192,6879,1,8,0:0:0:0:
448,192,7051,1,0,0:0:0:0:
320,192,7137,1,0,0:0:0:0:
448,192,7224,1,0,0:0:0:0:
192,192,7396,1,0,0:0:0:0:
320,192,7482,1,0,0:0:0:0:
192,192,7568,1,8,0:0:0:0:
64,192,7741,1,0,0:0:0:0:
192,192,7827,1,0,0:0:0:0:
64,192,7913,1,8,0:0:0:0:
448,192,8086,1,0,0:0:0:0:
64,192,8172,1,0,0:0:0:0:
448,192,8258,1,8,0:0:0:0:
64,192,8430,1,0,0:0:0:0:
448,192,8517,1,0,0:0:0:0:
64,192,8603,1,0,0:0:0:0:
320,192,8775,1,0,0:0:0:0:
192,192,8862,1,0,0:0:0:0:
320,192,8948,1,8,0:0:0:0:
64,192,9120,1,8,0:0:0:0:
448,192,9120,1,8,0:0:0:0:
64,192,9293,1,8,0:0:0:0:
448,192,9293,1,8,0:0:0:0:
320,192,9465,1,0,0:0:0:0:
64,192,9551,1,0,0:0:0:0:
320,192,9637,1,8,0:0:0:0:
192,192,9810,1,0,0:0:0:0:
448,192,9810,1,0,0:0:0:0:
192,192,9982,1,0,0:0:0:0:
448,192,9982,1,0,0:0:0:0:
64,192,10155,1,0,0:0:0:0:
192,192,10241,1,0,0:0:0:0:
64,192,10327,1,8,0:0:0:0:
192,192,10499,1,0,0:0:0:0:
320,192,10586,1,0,0:0:0:0:
192,192,10672,1,8,0:0:0:0:
320,192,10844,1,0,0:0:0:0:
448,192,10930,1,0,0:0:0:0:
320,192,11017,1,8,0:0:0:0:
448,192,11189,1,0,0:0:0:0:
192,192,11275,1,0,0:0:0:0:
448,192,11362,1,0,0:0:0:0:
64,192,11534,1,0,0:0:0:0:
320,192,11620,1,0,0:0:0:0:
448,192,11706,1,8,0:0:0:0:
64,192,11706,1,0,0:0:0:0:
320,192,11793,1,4,3:0:0:0:
192,192,11879,1,8,0:0:0:0:
64,192,11965,1,4,3:0:0:0:
448,192,12051,128,8,12396:0:0:0:0:
320,192,12051,1,8,0:0:0:0:
64,192,12396,1,4,0:0:0:0:
320,192,12396,1,4,0:0:0:0:
192,192,12568,1,0,0:0:0:0:
64,192,12741,1,2,0:0:0:0:
448,192,12741,1,0,1:0:0:0:
192,192,12913,1,0,0:0:0:0:
448,192,13086,1,8,0:0:0:0:
64,192,13086,1,8,0:0:0:0:
320,192,13258,1,0,0:0:0:0:
192,192,13430,1,2,0:0:0:0:
64,192,13430,1,0,1:0:0:0:
320,192,13603,1,0,0:0:0:0:
192,192,13775,1,8,0:0:0:0:
448,192,13775,1,8,0:0:0:0:
64,192,13948,1,0,0:0:0:0:
192,192,14120,1,2,0:0:0:0:
320,192,14120,1,0,1:0:0:0:
64,192,14293,1,0,0:0:0:0:
320,192,14465,1,8,0:0:0:0:
192,192,14465,1,8,0:0:0:0:
448,192,14637,1,2,0:0:0:0:
64,192,14810,1,8,0:0:0:0:
320,192,14810,1,0,1:0:0:0:
448,192,14982,1,2,0:0:0:0:
192,192,15155,1,8,0:0:0:0:
320,192,15155,1,8,0:0:0:0:
64,192,15327,1,0,0:0:0:0:
192,192,15499,1,2,0:0:0:0:
320,192,15499,1,0,1:0:0:0:
64,192,15672,1,0,0:0:0:0:
320,192,15844,1,8,0:0:0:0:
448,192,15844,1,8,0:0:0:0:
192,192,16017,1,0,0:0:0:0:
64,192,16189,1,2,0:0:0:0:
320,192,16189,1,0,1:0:0:0:
192,192,16362,1,0,0:0:0:0:
64,192,16534,1,8,0:0:0:0:
448,192,16534,1,8,0:0:0:0:
320,192,16706,1,0,0:0:0:0:
192,192,16879,1,2,0:0:0:0:
448,192,16879,1,0,1:0:0:0:
320,192,17051,1,0,0:0:0:0:
64,192,17224,1,8,0:0:0:0:
192,192,17224,1,8,0:0:0:0:
448,192,17396,1,2,0:0:0:0:
192,192,17568,1,8,0:0:0:0:
64,192,17568,1,0,1:0:0:0:
448,192,17655,1,8,0:0:0:0:
64,192,17741,1,8,0:0:0:0:
448,192,17827,1,8,0:0:0:0:
64,192,17913,1,4,0:0:0:0:
192,192,17913,1,4,0:0:0:0:
320,192,17913,1,0,0:0:0:0:
192,192,18086,1,0,0:0:0:0:
320,192,18258,1,2,0:0:0:0:
64,192,18258,1,0,1:0:0:0:
320,192,18430,1,0,0:0:0:0:
448,192,18603,1,8,0:0:0:0:
192,192,18603,1,8,0:0:0:0:
448,192,18775,1,0,0:0:0:0:
320,192,18948,1,2,0:0:0:0:
192,192,18948,1,0,1:0:0:0:
320,192,19120,1,0,0:0:0:0:
192,192,19293,1,8,0:0:0:0:
448,192,19293,1,8,0:0:0:0:
192,192,19465,1,0,0:0:0:0:
64,192,19637,1,2,0:0:0:0:
320,192,19637,1,0,1:0:0:0:
64,192,19810,1,0,0:0:0:0:
448,192,19982,1,8,0:0:0:0:
192,192,19982,1,8,0:0:0:0:
448,192,20155,1,2,0:0:0:0:
64,192,20327,1,8,0:0:0:0:
320,192,20327,1,0,1:0:0:0:
64,192,20499,1,2,0:0:0:0:
320,192,20672,1,8,0:0:0:0:
448,192,20672,1,8,0:0:0:0:
320,192,20844,1,0,0:0:0:0:
192,192,21017,1,2,0:0:0:0:
64,192,21017,1,0,1:0:0:0:
192,192,21189,1,0,0:0:0:0:
64,192,21362,1,8,0:0:0:0:
320,192,21362,1,8,0:0:0:0:
64,192,21534,1,0,0:0:0:0:
192,192,21706,1,2,0:0:0:0:
448,192,21706,1,0,1:0:0:0:
192,192,21879,1,0,0:0:0:0:
320,192,22051,1,8,0:0:0:0:
64,192,22051,1,8,0:0:0:0:
320,192,22224,1,0,0:0:0:0:
192,192,22396,1,2,0:0:0:0:
448,192,22396,1,0,1:0:0:0:
448,192,22568,1,0,0:0:0:0:
64,192,22741,1,8,0:0:0:0:
320,192,22741,1,8,0:0:0:0:
192,192,22913,1,8,1:0:0:0:
448,192,22913,1,8,0:0:0:0:
192,192,23086,1,8,1:0:0:0:
448,192,23086,1,8,0:0:0:0:
64,192,23258,1,8,0:0:0:0:
320,192,23258,1,0,1:0:0:0:
192,192,23344,1,8,0:0:0:0:
64,192,23430,1,4,0:0:0:0:
320,192,23430,1,4,0:0:0:0:
448,192,23430,1,0,0:0:0:0:
192,192,23517,1,0,0:0:0:0:
448,192,23603,1,0,0:0:0:0:
320,192,23689,1,0,0:0:0:0:
192,192,23775,1,2,0:0:0:0:
64,192,23862,1,0,0:0:0:0:
192,192,23948,1,0,0:0:0:0:
448,192,24034,1,0,0:0:0:0:
320,192,24120,1,8,0:0:0:0:
64,192,24206,1,0,0:0:0:0:
192,192,24293,1,0,0:0:0:0:
448,192,24379,1,0,0:0:0:0:
320,192,24465,1,2,0:0:0:0:
64,192,24551,1,0,0:0:0:0:
192,192,24637,1,0,0:0:0:0:
448,192,24724,1,0,0:0:0:0:
320,192,24810,1,8,0:0:0:0:
448,192,24896,1,0,0:0:0:0:
320,192,24982,1,0,0:0:0:0:
192,192,25068,1,0,0:0:0:0:
64,192,25155,1,2,0:0:0:0:
192,192,25241,1,0,0:0:0:0:
320,192,25327,1,0,0:0:0:0:
64,192,25413,1,0,0:0:0:0:
320,192,25499,1,8,0:0:0:0:
448,192,25586,1,0,0:0:0:0:
320,192,25672,1,2,0:0:0:0:
64,192,25758,1,0,0:0:0:0:
320,192,25844,1,8,0:0:0:0:
448,192,25930,1,0,0:0:0:0:
320,192,26017,1,2,0:0:0:0:
64,192,26103,1,0,0:0:0:0:
192,192,26189,1,8,0:0:0:0:
64,192,26275,1,0,0:0:0:0:
192,192,26362,1,0,0:0:0:0:
320,192,26448,1,0,0:0:0:0:
448,192,26534,1,2,0:0:0:0:
192,192,26620,1,0,0:0:0:0:
448,192,26706,1,0,0:0:0:0:
64,192,26793,1,0,0:0:0:0:
192,192,26879,1,8,0:0:0:0:
448,192,26965,1,0,0:0:0:0:
320,192,27051,1,0,0:0:0:0:
64,192,27137,1,0,0:0:0:0:
192,192,27224,1,2,0:0:0:0:
448,192,27310,1,0,0:0:0:0:
320,192,27396,1,0,0:0:0:0:
64,192,27482,1,0,0:0:0:0:
192,192,27568,1,8,0:0:0:0:
64,192,27655,1,0,0:0:0:0:
320,192,27741,1,0,0:0:0:0:
64,192,27827,1,0,0:0:0:0:
192,192,27913,1,2,0:0:0:0:
64,192,27999,1,0,0:0:0:0:
320,192,28086,1,0,0:0:0:0:
448,192,28172,1,0,0:0:0:0:
320,192,28258,1,8,0:0:0:0:
64,192,28344,1,0,0:0:0:0:
448,192,28430,1,2,0:0:0:0:
320,192,28517,1,0,0:0:0:0:
64,192,28603,1,8,0:0:0:0:
448,192,28603,1,0,1:0:0:0:
192,192,28689,1,8,0:0:0:0:
64,192,28775,1,8,0:0:0:0:
320,192,28862,1,8,0:0:0:0:
64,192,28948,1,4,0:0:0:0:
192,192,28948,1,4,0:0:0:0:
448,192,28948,1,0,0:0:0:0:
320,192,29034,1,0,0:0:0:0:
448,192,29120,1,0,0:0:0:0:
320,192,29206,1,0,0:0:0:0:
192,192,29293,1,2,0:0:0:0:
64,192,29293,1,0,1:0:0:0:
320,192,29379,1,0,0:0:0:0:
64,192,29465,1,0,0:0:0:0:
192,192,29551,1,0,0:0:0:0:
320,192,29637,1,8,0:0:0:0:
448,192,29637,1,8,0:0:0:0:
192,192,29724,1,0,0:0:0:0:
64,192,29810,1,0,0:0:0:0:
192,192,29896,1,0,0:0:0:0:
320,192,29982,1,2,0:0:0:0:
448,192,29982,1,0,1:0:0:0:
192,192,30068,1,0,0:0:0:0:
64,192,30155,1,0,0:0:0:0:
192,192,30241,1,0,0:0:0:0:
448,192,30327,1,8,0:0:0:0:
64,192,30327,1,8,0:0:0:0:
192,192,30413,1,0,0:0:0:0:
64,192,30499,1,0,0:0:0:0:
320,192,30586,1,0,0:0:0:0:
192,192,30672,1,2,0:0:0:0:
448,192,30672,1,0,1:0:0:0:
64,192,30758,1,0,0:0:0:0:
448,192,30844,1,0,0:0:0:0:
320,192,30930,1,0,0:0:0:0:
192,192,31017,1,8,0:0:0:0:
64,192,31017,1,8,0:0:0:0:
320,192,31103,1,0,0:0:0:0:
448,192,31189,1,2,0:0:0:0:
320,192,31275,1,0,0:0:0:0:
192,192,31362,1,8,0:0:0:0:
64,192,31362,1,0,1:0:0:0:
320,192,31448,1,0,0:0:0:0:
448,192,31534,1,2,0:0:0:0:
320,192,31620,1,0,0:0:0:0:
192,192,31706,1,8,0:0:0:0:
448,192,31706,1,8,0:0:0:0:
320,192,31793,1,0,0:0:0:0:
448,192,31879,1,0,0:0:0:0:
320,192,31965,1,0,0:0:0:0:
192,192,32051,1,2,0:0:0:0:
64,192,32051,1,0,1:0:0:0:
320,192,32137,1,0,0:0:0:0:
64,192,32224,1,0,0:0:0:0:
192,192,32310,1,0,0:0:0:0:
320,192,32396,1,8,0:0:0:0:
64,192,32396,1,8,0:0:0:0:
448,192,32482,1,0,0:0:0:0:
64,192,32568,1,0,0:0:0:0:
192,192,32655,1,0,0:0:0:0:
64,192,32741,1,2,0:0:0:0:
320,192,32741,1,0,1:0:0:0:
448,192,32827,1,0,0:0:0:0:
320,192,32913,1,0,0:0:0:0:
192,192,32999,1,0,0:0:0:0:
448,192,33086,1,8,0:0:0:0:
64,192,33086,1,0,1:0:0:0:
320,192,33172,1,0,0:0:0:0:
192,192,33258,1,0,0:0:0:0:
320,192,33344,1,0,0:0:0:0:
448,192,33430,1,8,0:0:0:0:
64,192,33430,1,0,1:0:0:0:
320,192,33517,1,0,0:0:0:0:
192,192,33603,1,0,0:0:0:0:
64,192,33689,1,0,0:0:0:0:
192,192,33775,1,4,3:0:0:0:
448,192,33775,1,8,3:0:0:0:
320,192,33862,1,0,0:0:0:0:
64,192,33948,1,4,3:0:0:0:
192,192,34005,1,4,3:0:0:0:
320,192,34063,1,4,3:0:0:0:
448,192,34120,1,2,3:0:0:0:
192,192,34206,1,0,0:0:0:0:
320,192,34293,1,2,3:0:0:0:
448,192,34293,1,0,0:0:0:0:
64,192,34379,1,2,3:0:0:0:
192,192,34379,1,0,0:0:0:0:
320,192,34465,1,4,0:0:0:0:
448,192,34465,1,4,0:0:0:0:
192,192,34637,1,0,0:0:0:0:
320,192,34724,1,0,0:0:0:0:
448,192,34810,1,2,0:0:0:0:
64,192,34810,1,0,1:0:0:0:
192,192,34896,1,0,0:0:0:0:
448,192,35068,1,0,0:0:0:0:
64,192,35155,1,8,0:0:0:0:
192,192,35155,1,8,0:0:0:0:
448,192,35327,1,0,0:0:0:0:
320,192,35413,1,0,0:0:0:0:
192,192,35499,1,2,0:0:0:0:
64,192,35499,1,0,1:0:0:0:
320,192,35672,1,0,0:0:0:0:
64,192,35844,1,8,0:0:0:0:
448,192,35844,1,8,0:0:0:0:
448,192,36017,1,0,0:0:0:0:
320,192,36103,1,0,0:0:0:0:
64,192,36189,1,2,0:0:0:0:
192,192,36189,1,0,1:0:0:0:
64,192,36362,1,0,0:0:0:0:
192,192,36448,1,0,0:0:0:0:
320,192,36534,1,8,0:0:0:0:
448,192,36534,1,8,0:0:0:0:
320,192,36706,1,0,0:0:0:0:
192,192,36879,1,2,0:0:0:0:
448,192,36879,1,0,1:0:0:0:
64,192,37224,1,8,0:0:0:0:
448,192,37224,1,8,0:0:0:0:
320,192,37396,1,0,0:0:0:0:
64,192,37568,1,2,0:0:0:0:
448,192,37568,1,0,1:0:0:0:
192,192,37655,1,0,0:0:0:0:
320,192,37827,1,0,0:0:0:0:
64,192,37913,1,8,0:0:0:0:
448,192,37913,1,8,0:0:0:0:
192,192,38086,1,0,0:0:0:0:
64,192,38172,1,0,0:0:0:0:
320,192,38258,1,2,0:0:0:0:
448,192,38258,1,0,1:0:0:0:
448,192,38430,1,0,0:0:0:0:
192,192,38603,1,8,0:0:0:0:
320,192,38603,1,8,0:0:0:0:
64,192,38775,1,0,0:0:0:0:
320,192,38948,1,2,0:0:0:0:
448,192,38948,1,0,1:0:0:0:
192,192,39120,1,0,0:0:0:0:
64,192,39293,1,8,0:0:0:0:
448,192,39293,1,8,0:0:0:0:
320,192,39465,1,0,0:0:0:0:
192,192,39637,1,8,0:0:0:0:
448,192,39637,1,0,1:0:0:0:
64,192,39724,1,8,0:0:0:0:
320,192,39810,1,8,0:0:0:0:
64,192,39896,1,8,0:0:0:0:
192,192,39982,1,4,0:0:0:0:
448,192,39982,1,4,0:0:0:0:
320,192,39982,1,0,0:0:0:0:
192,192,40155,1,0,0:0:0:0:
448,192,40241,1,0,0:0:0:0:
64,192,40327,1,2,0:0:0:0:
320,192,40327,1,0,1:0:0:0:
448,192,40499,1,0,0:0:0:0:
320,192,40586,1,0,0:0:0:0:
192,192,40672,1,8,0:0:0:0:
64,192,40672,1,8,0:0:0:0:
320,192,40758,1,0,0:0:0:0:
448,192,40844,1,0,0:0:0:0:
192,192,41017,1,2,0:0:0:0:
320,192,41017,1,0,1:0:0:0:
448,192,41189,1,0,0:0:0:0:
192,192,41362,1,8,0:0:0:0:
64,192,41362,1,8,0:0:0:0:
192,192,41534,1,0,0:0:0:0:
320,192,41620,1,0,0:0:0:0:
448,192,41706,1,2,0:0:0:0:
64,192,41706,1,0,1:0:0:0:
448,192,41879,1,0,0:0:0:0:
320,192,42051,1,8,0:0:0:0:
192,192,42051,1,8,0:0:0:0:
64,192,42137,1,0,0:0:0:0:
448,192,42224,1,0,0:0:0:0:
192,192,42396,1,2,0:0:0:0:
64,192,42396,1,0,1:0:0:0:
448,192,42741,1,8,0:0:0:0:
64,192,42741,1,8,0:0:0:0:
192,192,42913,1,0,0:0:0:0:
320,192,42999,1,0,0:0:0:0:
64,192,43086,1,2,0:0:0:0:
448,192,43086,1,0,1:0:0:0:
320,192,43172,1,0,0:0:0:0:
192,192,43344,1,0,0:0:0:0:
320,192,43430,1,8,0:0:0:0:
448,192,43430,1,8,0:0:0:0:
192,192,43603,1,0,0:0:0:0:
64,192,43775,1,2,0:0:0:0:
320,192,43775,1,0,1:0:0:0:
64,192,43948,1,0,0:0:0:0:
320,192,44120,1,8,0:0:0:0:
448,192,44120,1,8,0:0:0:0:
448,192,44293,1,0,0:0:0:0:
64,192,44465,1,2,0:0:0:0:
320,192,44465,1,0,1:0:0:0:
320,192,44637,1,0,0:0:0:0:
192,192,44810,1,8,1:0:0:0:
448,192,44810,1,8,0:0:0:0:
192,192,44982,1,8,0:0:0:0:
64,192,45155,1,8,0:0:0:0:
448,192,45155,1,0,1:0:0:0:
192,192,45241,1,8,0:0:0:0:
320,192,45327,1,8,0:0:0:0:
192,192,45413,1,8,0:0:0:0:
64,192,45499,1,4,0:0:0:0:
448,192,45499,1,4,0:0:0:0:
320,192,45586,1,0,0:0:0:0:
448,192,45672,1,0,0:0:0:0:
320,192,45758,1,0,0:0:0:0:
64,192,45844,1,2,0:0:0:0:
192,192,45844,1,0,1:0:0:0:
320,192,45930,1,0,0:0:0:0:
320,192,46103,1,0,0:0:0:0:
64,192,46189,1,8,0:0:0:0:
448,192,46189,1,8,0:0:0:0:
320,192,46275,1,0,0:0:0:0:
64,192,46362,1,0,0:0:0:0:
192,192,46448,1,0,0:0:0:0:
320,192,46534,1,2,0:0:0:0:
448,192,46534,1,0,1:0:0:0:
448,192,46706,1,0,0:0:0:0:
64,192,46879,1,8,0:0:0:0:
192,192,46879,1,8,0:0:0:0:
448,192,46965,1,0,0:0:0:0:
64,192,47051,1,0,0:0:0:0:
448,192,47137,1,0,0:0:0:0:
192,192,47224,1,2,0:0:0:0:
320,192,47224,1,0,1:0:0:0:
448,192,47310,1,0,0:0:0:0:
192,192,47396,1,0,0:0:0:0:
448,192,47482,1,0,0:0:0:0:
192,192,47568,1,8,0:0:0:0:
320,192,47568,1,8,0:0:0:0:
64,192,47655,1,0,0:0:0:0:
192,192,47741,1,0,0:0:0:0:
320,192,47827,1,0,0:0:0:0:
64,192,47913,1,0,1:0:0:0:
448,192,47913,1,2,0:0:0:0:
64,192,48258,1,8,0:0:0:0:
320,192,48258,1,8,0:0:0:0:
192,192,48430,1,0,0:0:0:0:
320,192,48517,1,0,0:0:0:0:
448,192,48603,1,2,0:0:0:0:
64,192,48603,1,0,1:0:0:0:
320,192,48689,1,0,0:0:0:0:
64,192,48862,1,0,0:0:0:0:
192,192,48948,1,8,0:0:0:0:
320,192,48948,1,8,0:0:0:0:
448,192,49034,1,0,0:0:0:0:
320,192,49206,1,0,0:0:0:0:
192,192,49293,1,2,0:0:0:0:
64,192,49293,1,0,1:0:0:0:
320,192,49465,1,0,0:0:0:0:
64,192,49637,1,8,0:0:0:0:
448,192,49637,1,8,0:0:0:0:
192,192,49810,1,0,0:0:0:0:
320,192,49810,1,0,0:0:0:0:
64,192,49982,1,2,0:0:0:0:
448,192,49982,1,0,1:0:0:0:
64,192,50155,1,0,0:0:0:0:
192,192,50155,1,0,0:0:0:0:
320,192,50327,1,8,0:0:0:0:
448,192,50327,1,8,0:0:0:0:
192,192,50499,1,8,0:0:0:0:
320,192,50499,1,0,0:0:0:0:
64,192,50672,1,8,0:0:0:0:
192,192,50672,1,0,1:0:0:0:
320,192,50758,1,8,0:0:0:0:
448,192,50758,1,0,1:0:0:0:
64,192,50844,1,8,0:0:0:0:
192,192,50844,1,0,1:0:0:0:
64,192,51017,1,4,0:0:0:0:
320,192,51017,1,4,0:0:0:0:
448,192,51189,1,0,0:0:0:0:
320,192,51275,1,0,0:0:0:0:
192,192,51362,1,2,0:0:0:0:
64,192,51362,1,0,1:0:0:0:
320,192,51448,1,0,0:0:0:0:
448,192,51534,1,0,0:0:0:0:
320,192,51620,1,0,0:0:0:0:
192,192,51706,1,8,0:0:0:0:
64,192,51706,1,8,0:0:0:0:
320,192,51793,1,0,0:0:0:0:
192,192,51879,1,0,0:0:0:0:
320,192,51965,1,0,0:0:0:0:
64,192,52051,1,2,0:0:0:0:
448,192,52051,1,0,0:0:0:0:
192,192,52137,1,0,0:0:0:0:
320,192,52224,1,0,0:0:0:0:
64,192,52396,1,8,0:0:0:0:
448,192,52396,1,8,0:0:0:0:
192,192,52482,1,0,0:0:0:0:
320,192,52568,1,0,0:0:0:0:
448,192,52655,1,0,0:0:0:0:
64,192,52741,1,2,0:0:0:0:
320,192,52741,1,0,1:0:0:0:
192,192,52827,1,0,0:0:0:0:
320,192,52913,1,0,0:0:0:0:
448,192,52999,1,0,0:0:0:0:
64,192,53086,1,8,0:0:0:0:
192,192,53086,1,8,0:0:0:0:
320,192,53258,1,0,0:0:0:0:
192,192,53344,1,0,0:0:0:0:
64,192,53430,1,2,0:0:0:0:
448,192,53430,1,0,1:0:0:0:
320,192,53775,1,8,0:0:0:0:
448,192,53775,1,8,0:0:0:0:
320,192,53948,1,2,0:0:0:0:
192,192,54120,1,2,0:0:0:0:
448,192,54120,1,0,1:0:0:0:
192,192,54293,1,2,0:0:0:0:
64,192,54465,1,2,0:0:0:0:
320,192,54465,1,8,0:0:0:0:
64,192,54637,1,2,0:0:0:0:
320,192,54810,1,2,0:0:0:0:
192,192,54810,1,0,1:0:0:0:
448,192,54982,1,2,0:0:0:0:
192,192,55155,1,8,0:0:0:0:
64,192,55155,1,8,0:0:0:0:
192,192,55327,1,0,0:0:0:0:
320,192,55499,1,2,0:0:0:0:
448,192,55499,1,0,1:0:0:0:
320,192,55672,1,0,0:0:0:0:
64,192,55844,1,8,0:0:0:0:
448,192,55844,1,8,0:0:0:0:
192,192,56017,1,4,3:0:0:0:
320,192,56017,1,0,0:0:0:0:
448,192,56189,1,2,0:0:0:0:
64,192,56189,1,0,1:0:0:0:
64,192,56534,1,0,0:0:0:0:
448,192,56534,1,0,1:0:0:0:
192,192,56706,1,0,0:0:0:0:
320,192,56706,1,0,1:0:0:0:
64,192,56879,1,0,0:0:0:0:
448,192,56879,1,0,1:0:0:0:
192,192,57051,1,0,0:0:0:0:
320,192,57051,1,0,1:0:0:0:
64,192,57224,1,4,0:0:0:0:
448,192,57224,1,0,1:0:0:0:
192,192,57224,1,0,0:0:0:0:
192,192,57568,1,0,0:0:0:0:
320,192,57568,1,0,1:0:0:0:
192,192,57741,1,0,0:0:0:0:
320,192,57741,1,0,1:0:0:0:
320,192,57913,1,0,0:0:0:0:
448,192,57913,1,0,1:0:0:0:
64,192,58086,1,0,0:0:0:0:
192,192,58086,1,0,1:0:0:0:
64,192,58258,1,4,0:0:0:0:
320,192,58258,1,0,0:0:0:0:
448,192,58258,1,0,1:0:0:0:
64,192,58603,1,8,0:0:0:0:
448,192,58603,1,0,1:0:0:0:
192,192,58689,1,8,3:0:0:0:
320,192,58775,1,8,0:0:0:0:
448,192,58862,1,8,3:0:0:0:
64,192,58948,1,8,0:0:0:0:
320,192,58948,1,0,1:0:0:0:
448,192,59034,1,8,3:0:0:0:
64,192,59120,1,8,0:0:0:0:
448,192,59206,1,4,3:0:0:0:
64,192,59293,1,4,1:0:0:0:
192,192,59293,1,4,0:0:0:0:
320,192,59293,1,0,0:0:0:0:
448,192,59465,1,0,0:0:0:0:
320,192,59637,1,2,0:0:0:0:
192,192,59637,1,0,1:0:0:0:
192,192,59810,1,0,0:0:0:0:
320,192,59982,1,8,0:0:0:0:
448,192,59982,1,8,0:0:0:0:
192,192,60155,1,0,0:0:0:0:
448,192,60327,1,2,0:0:0:0:
64,192,60327,1,0,1:0:0:0:
64,192,60499,1,0,0:0:0:0:
320,192,60672,1,8,0:0:0:0:
448,192,60672,1,8,0:0:0:0:
192,192,60844,1,0,0:0:0:0:
320,192,60844,1,0,0:0:0:0:
64,192,61017,1,2,0:0:0:0:
192,192,61017,1,0,1:0:0:0:
448,192,61189,128,0,61706:0:0:0:0:
192,192,61362,1,8,3:0:0:0:
64,192,61362,1,4,3:0:0:0:
320,192,61706,1,4,0:0:0:0:
192,192,61706,1,4,0:0:0:0:
192,192,62051,1,2,3:0:0:0:
64,192,62051,1,0,0:0:0:0:
448,192,62137,1,2,3:0:0:0:
64,192,62224,1,2,3:0:0:0:
448,192,62310,1,2,3:0:0:0:
64,192,62396,1,2,3:0:0:0:
320,192,62568,128,4,62913:0:0:0:0:
448,192,62568,1,0,0:0:0:0:
64,192,62913,1,4,3:0:0:0:
192,192,62999,1,4,3:0:0:0:
320,192,63086,1,8,3:0:0:0:
448,192,63172,1,4,3:0:0:0:
320,192,63258,1,4,3:0:0:0:
64,192,63430,1,12,3:0:0:0:
320,192,63430,1,0,1:0:0:0:
192,192,63517,1,0,1:0:0:0:
320,192,63603,1,0,1:0:0:0:
192,192,63689,1,0,1:0:0:0:
320,192,63775,1,0,1:0:0:0:
192,192,63948,128,4,64293:0:0:0:0:
448,192,63948,1,0,0:0:0:0:
448,192,64293,1,0,1:0:0:0:
320,192,64379,1,0,1:0:0:0:
448,192,64465,1,4,3:0:0:0:
64,192,64465,1,0,1:0:0:0:
320,192,64551,1,12,3:0:0:0:
192,192,64551,1,0,1:0:0:0:
64,192,64637,1,8,3:0:0:0:
448,192,64637,1,0,1:0:0:0:
64,192,64810,1,8,3:0:0:0:
448,192,64810,1,0,1:0:0:0:
448,192,64982,1,4,3:0:0:0:
320,192,65068,1,4,3:0:0:70:
448,192,65155,1,8,3:0:0:0:
64,192,65327,1,4,3:0:0:0:
192,192,65413,1,4,3:0:0:70:
64,192,65499,1,8,3:0:0:0:
320,192,65672,1,4,3:0:0:0:
192,192,65758,1,4,3:0:0:70:
320,192,65844,1,8,3:0:0:0:
192,192,66017,1,4,3:0:0:0:
320,192,66017,1,0,1:0:0:0:
64,192,66103,1,4,3:0:0:0:
448,192,66103,1,0,1:0:0:0:
320,192,66189,1,8,3:0:0:0:
192,192,66189,1,0,1:0:0:0:
64,192,66448,1,8,3:0:0:0:
448,192,66448,1,0,1:0:0:0:
64,192,66706,1,8,1:0:0:0:
448,192,66706,1,8,1:0:0:0:
448,192,67224,1,8,0:0:0:0:
64,192,67224,1,0,1:0:0:0:
320,192,67310,1,8,0:0:0:0:
192,192,67396,1,8,0:0:0:0:
320,192,67482,1,8,0:0:0:0:
64,192,67568,1,4,0:0:0:0:
448,192,67568,1,4,0:0:0:0:
64,192,67741,1,0,0:0:0:0:
192,192,67827,1,0,0:0:0:0:
320,192,67913,1,4,3:0:0:0:
448,192,67913,1,0,1:0:0:0:
192,192,67999,1,0,0:0:0:0:
320,192,68086,1,0,0:0:0:0:
192,192,68172,1,0,0:0:0:0:
64,192,68258,1,8,3:0:0:0:
448,192,68258,1,0,0:0:0:0:
320,192,68430,1,8,0:3:0:0:
64,192,68603,128,4,68775:3:0:0:0:
448,192,68603,1,0,1:0:0:0:
448,192,68775,128,0,69120:0:0:0:0:
64,192,68948,1,8,3:0:0:0:
192,192,68948,1,0,0:0:0:0:
320,192,69120,128,0,69293:0:0:0:0:
192,192,69293,128,4,69465:3:0:0:0:
448,192,69293,1,0,1:0:0:0:
320,192,69465,128,0,69637:0:0:0:0:
448,192,69637,128,8,69810:3:0:0:0:
64,192,69637,1,0,0:0:0:0:
192,192,69724,1,0,0:0:0:0:
320,192,69810,128,8,69982:0:3:0:0:
64,192,69896,1,0,0:0:0:0:
192,192,69982,128,4,70155:3:0:0:0:
448,192,69982,1,0,1:0:0:0:
64,192,70155,128,0,70327:0:0:0:0:
320,192,70327,1,8,3:0:0:0:
192,192,70327,1,0,0:0:0:0:
448,192,70499,1,0,0:0:0:0:
64,192,70499,1,0,0:0:0:0:
448,192,70672,1,4,3:0:0:0:
64,192,70672,1,0,1:0:0:0:
320,192,70758,1,0,0:0:0:0:
192,192,70844,1,0,0:0:0:0:
320,192,70930,1,0,0:0:0:0:
448,192,71017,1,8,3:0:0:0:
64,192,71017,1,0,0:0:0:0:
192,192,71103,1,0,0:0:0:0:
320,192,71189,1,8,3:0:0:0:
192,192,71275,1,0,0:0:0:0:
448,192,71362,1,4,3:0:0:0:
64,192,71362,1,0,1:0:0:0:
192,192,71534,1,8,3:0:0:0:
64,192,71706,1,4,3:0:0:0:
448,192,71706,1,4,3:0:0:0:
320,192,71879,1,8,3:0:0:0:
192,192,71879,1,0,0:0:0:0:
320,192,72224,128,4,72741:0:0:0:0:
448,192,72224,128,4,72741:0:0:0:0:
64,192,72224,1,0,0:0:0:0:
64,192,72568,1,0,1:0:0:0:
192,192,72655,1,0,1:0:0:0:
64,192,72741,1,0,1:0:0:0:
192,192,72827,1,0,1:0:0:0:
320,192,72913,1,0,1:0:0:0:
448,192,72999,1,0,1:0:0:0:
320,192,73086,1,4,0:0:0:0:
64,192,73086,1,4,0:0:0:0:
192,192,73172,1,0,0:0:0:0:
64,192,73258,1,0,0:0:0:0:
192,192,73344,1,0,0:0:0:0:
64,192,73430,1,8,1:0:0:0:
64,192,73603,1,0,0:0:0:0:
448,192,73689,1,0,0:0:0:0:
64,192,73775,1,8,3:0:0:0:
448,192,73862,1,0,0:0:0:0:
64,192,73948,1,4,3:0:0:0:
64,192,74120,1,8,1:0:0:0:
320,192,74206,1,0,0:0:0:0:
64,192,74293,1,0,0:0:0:0:
320,192,74379,1,0,0:0:0:0:
64,192,74465,1,0,1:0:0:0:
192,192,74637,1,0,0:0:0:0:
448,192,74724,1,0,0:0:0:0:
192,192,74810,1,8,1:0:0:0:
448,192,74896,1,0,0:0:0:0:
192,192,74982,1,0,0:0:0:0:
448,192,75155,1,8,3:0:0:0:
192,192,75241,1,0,0:0:0:0:
448,192,75327,1,4,3:0:0:0:
192,192,75413,1,0,0:0:0:0:
448,192,75499,1,8,1:0:0:0:
448,192,75672,1,0,0:0:0:0:
320,192,75758,1,0,0:0:0:0:
448,192,75844,1,0,1:0:0:0:
320,192,75930,1,0,0:0:0:0:
448,192,76017,1,0,0:0:0:0:
448,192,76189,1,8,1:0:0:0:
64,192,76275,1,0,0:0:0:0:
448,192,76362,1,8,3:0:0:0:
192,192,76448,1,0,0:0:0:0:
448,192,76534,1,4,3:0:0:0:
64,192,76706,128,4,77224:3:0:0:0:
448,192,76879,1,4,3:0:0:0:
320,192,76965,1,4,3:0:0:0:
192,192,77051,1,4,3:0:0:0:
320,192,77224,1,8,3:0:0:0:
64,192,77396,1,8,3:0:0:0:
448,192,77396,1,0,0:0:0:0:
192,192,77568,1,4,3:0:0:0:
320,192,77568,1,0,0:0:0:0:
64,192,77741,1,4,0:0:0:0:
448,192,77741,1,4,0:0:0:0:
192,192,77913,1,0,1:0:0:0:
320,192,77999,1,0,1:0:0:0:
64,192,78086,1,8,0:0:0:0:
192,192,78086,1,0,1:0:0:0:
448,192,78172,1,8,0:0:0:0:
64,192,78258,1,8,0:0:0:0:
192,192,78344,1,0,1:0:0:0:
448,192,78430,1,8,0:0:0:0:
320,192,78430,1,0,1:0:0:0:
64,192,78517,1,8,0:0:0:0:
448,192,78603,128,4,78775:0:0:0:0:
320,192,78603,1,4,0:0:0:0:
64,192,78775,1,0,0:0:0:0:
192,192,78862,1,0,0:0:0:0:
448,192,78948,128,4,79120:3:0:0:0:
320,192,78948,1,0,1:0:0:0:
64,192,79120,1,0,0:0:0:0:
192,192,79206,1,0,0:0:0:0:
320,192,79293,1,8,3:0:0:0:
448,192,79293,128,0,79465:0:0:0:0:
64,192,79465,1,8,3:0:0:0:
192,192,79551,1,0,0:0:0:0:
448,192,79637,1,4,3:0:0:0:
320,192,79637,1,0,1:0:0:0:
192,192,79810,1,0,0:0:0:0:
64,192,79982,1,8,3:0:0:0:
448,192,79982,128,0,80155:0:0:0:0:
192,192,80155,128,0,80327:0:0:0:0:
64,192,80327,128,4,80499:3:0:0:0:
320,192,80327,1,0,1:0:0:0:
448,192,80499,128,0,80844:0:0:0:0:
320,192,80586,1,0,0:0:0:0:
192,192,80672,1,0,0:0:0:0:
64,192,80672,1,0,0:0:0:0:
320,192,80758,1,0,0:0:0:0:
64,192,80844,128,8,81017:3:0:0:0:
320,192,80930,1,0,0:0:0:0:
192,192,81017,128,4,81189:3:0:0:0:
448,192,81017,1,0,0:0:0:0:
320,192,81189,128,0,81362:0:0:0:0:
192,192,81362,1,8,3:0:0:0:
64,192,81362,1,0,0:0:0:0:
320,192,81534,1,0,0:0:0:0:
64,192,81706,1,4,3:0:0:0:
448,192,81706,1,0,1:0:0:0:
192,192,81793,1,0,0:0:0:0:
320,192,81879,1,0,0:0:0:0:
192,192,81965,1,0,0:0:0:0:
64,192,82051,1,8,3:0:0:0:
448,192,82051,1,0,0:0:0:0:
320,192,82137,1,0,0:0:0:0:
192,192,82224,1,8,3:0:0:0:
320,192,82310,1,0,0:0:0:0:
64,192,82396,1,4,3:0:0:0:
448,192,82396,1,0,1:0:0:0:
192,192,82568,1,8,3:0:0:0:
320,192,82655,1,0,0:0:0:0:
64,192,82741,1,4,3:0:0:0:
448,192,82741,1,0,0:0:0:0:
192,192,82913,1,8,3:0:0:0:
320,192,82913,1,0,0:0:0:0:
64,192,83258,128,4,83603:0:0:0:0:
448,192,83258,128,4,83603:0:0:0:0:
320,192,83258,1,0,0:0:0:0:
192,192,83603,1,0,1:0:0:0:
320,192,83689,1,0,1:0:0:0:
64,192,83775,1,0,1:0:0:0:
192,192,83775,1,0,0:0:0:0:
448,192,83862,1,0,1:0:0:0:
64,192,83948,1,0,1:0:0:0:
448,192,84034,1,0,1:0:0:0:
192,192,84120,1,4,3:0:0:0:
64,192,84120,1,0,0:0:0:0:
320,192,84293,1,0,0:0:0:0:
64,192,84465,1,2,0:0:0:0:
448,192,84465,1,0,1:0:0:0:
192,192,84637,1,0,0:0:0:0:
64,192,84810,1,8,0:0:0:0:
448,192,84810,1,8,0:0:0:0:
320,192,84982,1,0,0:0:0:0:
192,192,85155,1,2,0:0:0:0:
64,192,85155,1,0,1:0:0:0:
192,192,85327,1,0,0:0:0:0:
64,192,85499,1,8,0:0:0:0:
448,192,85499,1,8,0:0:0:0:
192,192,85672,1,0,0:0:0:0:
320,192,85844,1,2,0:0:0:0:
64,192,85844,1,0,1:0:0:0:
448,192,86017,1,8,3:0:0:0:
192,192,86103,1,4,3:0:0:0:
320,192,86189,1,4,3:0:0:0:
448,192,86189,1,0,0:0:0:0:
192,192,86362,1,8,3:0:0:0:
320,192,86362,1,0,0:0:0:0:
448,192,86534,1,8,3:0:0:0:
64,192,86534,1,0,3:0:0:0:
320,192,86706,1,8,3:0:0:0:
192,192,86793,1,4,3:0:0:0:
64,192,86879,1,8,0:0:0:0:
448,192,86879,1,0,0:0:0:0:
64,192,87051,1,8,0:0:0:0:
448,192,87137,1,0,0:0:0:0:
64,192,87224,1,2,0:0:0:0:
448,192,87396,1,8,0:0:0:0:
64,192,87482,1,0,0:0:0:0:
448,192,87568,1,2,0:0:0:0:
192,192,87741,1,8,0:0:0:0:
320,192,87827,1,0,0:0:0:0:
192,192,87913,1,2,0:0:0:0:
448,192,88086,1,8,0:0:0:0:
320,192,88172,1,0,0:0:0:0:
448,192,88258,1,2,0:0:0:0:
320,192,88430,1,8,0:0:0:0:
192,192,88517,1,0,0:0:0:0:
320,192,88603,1,2,0:0:0:0:
64,192,88775,1,8,0:0:0:0:
192,192,88775,1,0,0:0:0:0:
320,192,88862,1,0,0:0:0:0:
64,192,88948,1,2,0:0:0:0:
448,192,89120,1,8,0:0:0:0:
320,192,89120,1,0,1:0:0:0:
64,192,89206,1,8,0:0:0:0:
448,192,89293,1,8,0:0:0:0:
64,192,89379,1,8,0:0:0:0:
448,192,89465,1,8,0:0:0:0:
64,192,89551,1,8,0:0:0:0:
320,192,89637,1,4,0:0:0:0:
448,192,89637,1,4,0:0:0:0:
192,192,89810,1,0,0:0:0:0:
64,192,89982,1,2,0:0:0:0:
448,192,89982,1,0,1:0:0:0:
320,192,90155,1,0,0:0:0:0:
64,192,90327,1,8,0:0:0:0:
192,192,90327,1,8,0:0:0:0:
320,192,90499,1,0,0:0:0:0:
192,192,90672,1,2,0:0:0:0:
448,192,90672,1,0,1:0:0:0:
64,192,90844,1,0,0:0:0:0:
192,192,91017,1,8,0:0:0:0:
320,192,91017,1,8,0:0:0:0:
448,192,91189,1,0,0:0:0:0:
64,192,91362,1,2,0:0:0:0:
320,192,91362,1,0,1:0:0:0:
448,192,91534,1,0,0:0:0:0:
192,192,91706,1,8,0:0:0:0:
320,192,91706,1,8,0:0:0:0:
448,192,91879,1,2,0:0:0:0:
192,192,92051,1,8,0:0:0:0:
64,192,92051,1,0,1:0:0:0:
320,192,92224,1,2,0:0:0:0:
192,192,92396,1,8,0:0:0:0:
448,192,92396,1,8,0:0:0:0:
64,192,92568,1,0,0:0:0:0:
192,192,92741,1,2,0:0:0:0:
320,192,92741,1,0,1:0:0:0:
64,192,92913,1,0,0:0:0:0:
320,192,93086,1,8,0:0:0:0:
448,192,93086,1,8,0:0:0:0:
192,192,93258,1,0,0:0:0:0:
64,192,93430,1,2,0:0:0:0:
448,192,93430,1,0,1:0:0:0:
320,192,93603,1,0,0:0:0:0:
64,192,93775,1,8,0:0:0:0:
448,192,93775,1,8,0:0:0:0:
192,192,93948,1,0,0:0:0:0:
320,192,94120,1,2,0:0:0:0:
448,192,94120,1,0,1:0:0:0:
192,192,94293,1,0,0:0:0:0:
64,192,94465,1,8,0:0:0:0:
320,192,94465,1,8,0:0:0:0:
192,192,94637,1,2,0:0:0:0:
320,192,94810,1,8,0:0:0:0:
448,192,94810,1,0,1:0:0:0:
64,192,94896,1,8,0:0:0:0:
448,192,94982,1,8,0:0:0:0:
64,192,95068,1,8,0:0:0:0:
448,192,95155,1,4,0:0:0:0:
320,192,95155,1,4,0:0:0:0:
192,192,95155,1,0,0:0:0:0:
448,192,95327,1,0,0:0:0:0:
320,192,95499,1,2,0:0:0:0:
192,192,95499,1,0,1:0:0:0:
192,192,95672,1,0,0:0:0:0:
64,192,95844,1,8,0:0:0:0:
320,192,95844,1,8,0:0:0:0:
320,192,96017,1,0,0:0:0:0:
64,192,96189,1,2,0:0:0:0:
192,192,96189,1,0,1:0:0:0:
64,192,96362,1,0,0:0:0:0:
320,192,96534,1,8,0:0:0:0:
448,192,96534,1,8,0:0:0:0:
320,192,96706,1,0,0:0:0:0:
192,192,96879,1,2,0:0:0:0:
448,192,96879,1,0,1:0:0:0:
192,192,97051,1,0,0:0:0:0:
320,192,97224,1,8,0:0:0:0:
448,192,97224,1,8,0:0:0:0:
448,192,97396,1,2,0:0:0:0:
64,192,97568,1,8,0:0:0:0:
320,192,97568,1,0,1:0:0:0:
64,192,97741,1,2,0:0:0:0:
192,192,97913,1,8,0:0:0:0:
320,192,97913,1,8,0:0:0:0:
192,192,98086,1,0,0:0:0:0:
320,192,98258,1,2,0:0:0:0:
448,192,98258,1,0,1:0:0:0:
320,192,98430,1,0,0:0:0:0:
448,192,98603,1,8,0:0:0:0:
192,192,98603,1,8,0:0:0:0:
448,192,98775,1,0,0:0:0:0:
64,192,98948,1,2,0:0:0:0:
320,192,98948,1,0,1:0:0:0:
320,192,99120,1,0,0:0:0:0:
64,192,99293,1,8,0:0:0:0:
192,192,99293,1,8,0:0:0:0:
192,192,99465,1,0,0:0:0:0:
64,192,99637,1,2,0:0:0:0:
320,192,99637,1,0,1:0:0:0:
64,192,99810,1,0,0:0:0:0:
192,192,99982,1,8,0:0:0:0:
320,192,99982,1,8,0:0:0:0:
64,192,100155,1,8,1:0:0:0:
448,192,100155,1,8,0:0:0:0:
192,192,100327,1,8,0:0:0:0:
320,192,100327,1,8,1:0:0:0:
64,192,100499,1,8,0:0:0:0:
320,192,100499,1,0,1:0:0:0:
192,192,100586,1,8,0:0:0:0:
64,192,100672,1,4,0:0:0:0:
320,192,100672,1,4,0:0:0:0:
448,192,100672,1,0,0:0:0:0:
192,192,100758,1,0,0:0:0:0:
320,192,100844,1,0,0:0:0:0:
448,192,100930,1,0,0:0:0:0:
320,192,101017,1,2,0:0:0:0:
192,192,101103,1,0,0:0:0:0:
320,192,101189,1,0,0:0:0:0:
448,192,101275,1,0,0:0:0:0:
64,192,101362,1,8,0:0:0:0:
192,192,101448,1,0,0:0:0:0:
320,192,101534,1,0,0:0:0:0:
448,192,101620,1,0,0:0:0:0:
64,192,101706,1,2,0:0:0:0:
192,192,101793,1,0,0:0:0:0:
320,192,101879,1,0,0:0:0:0:
448,192,101965,1,0,0:0:0:0:
64,192,102051,1,8,0:0:0:0:
448,192,102137,1,0,0:0:0:0:
64,192,102224,1,0,0:0:0:0:
448,192,102310,1,0,0:0:0:0:
320,192,102396,1,2,0:0:0:0:
64,192,102482,1,0,0:0:0:0:
320,192,102568,1,0,0:0:0:0:
64,192,102655,1,0,0:0:0:0:
448,192,102741,1,8,0:0:0:0:
320,192,102827,1,0,0:0:0:0:
192,192,102913,1,2,0:0:0:0:
64,192,102999,1,0,0:0:0:0:
448,192,103086,1,8,0:0:0:0:
320,192,103172,1,0,0:0:0:0:
192,192,103258,1,2,0:0:0:0:
64,192,103344,1,0,0:0:0:0:
192,192,103430,1,8,0:0:0:0:
320,192,103517,1,0,0:0:0:0:
448,192,103603,1,0,0:0:0:0:
320,192,103689,1,0,0:0:0:0:
192,192,103775,1,2,0:0:0:0:
320,192,103862,1,0,0:0:0:0:
192,192,103948,1,0,0:0:0:0:
320,192,104034,1,0,0:0:0:0:
64,192,104120,1,8,0:0:0:0:
320,192,104206,1,0,0:0:0:0:
448,192,104293,1,0,0:0:0:0:
320,192,104379,1,0,0:0:0:0:
64,192,104465,1,2,0:0:0:0:
320,192,104551,1,0,0:0:0:0:
448,192,104637,1,0,0:0:0:0:
320,192,104724,1,0,0:0:0:0:
192,192,104810,1,8,0:0:0:0:
64,192,104896,1,0,0:0:0:0:
320,192,104982,1,0,0:0:0:0:
448,192,105068,1,0,0:0:0:0:
192,192,105155,1,2,0:0:0:0:
64,192,105241,1,0,0:0:0:0:
320,192,105327,1,0,0:0:0:0:
448,192,105413,1,0,0:0:0:0:
64,192,105499,1,8,0:0:0:0:
192,192,105586,1,0,0:0:0:0:
320,192,105672,1,2,0:0:0:0:
448,192,105758,1,0,0:0:0:0:
64,192,105844,1,8,0:0:0:0:
192,192,105844,1,0,1:0:0:0:
448,192,105930,1,8,0:0:0:0:
64,192,106017,1,8,0:0:0:0:
448,192,106103,1,8,0:0:0:0:
192,192,106189,1,4,0:0:0:0:
64,192,106189,1,4,0:0:0:0:
320,192,106189,1,0,0:0:0:0:
448,192,106275,1,0,0:0:0:0:
320,192,106362,1,0,0:0:0:0:
448,192,106448,1,0,0:0:0:0:
320,192,106534,1,2,0:0:0:0:
64,192,106534,1,0,1:0:0:0:
192,192,106620,1,0,0:0:0:0:
320,192,106706,1,0,0:0:0:0:
192,192,106793,1,0,0:0:0:0:
64,192,106879,1,8,0:0:0:0:
448,192,106879,1,8,0:0:0:0:
192,192,106965,1,0,0:0:0:0:
320,192,107051,1,0,0:0:0:0:
192,192,107137,1,0,0:0:0:0:
64,192,107224,1,2,0:0:0:0:
448,192,107224,1,0,1:0:0:0:
192,192,107310,1,0,0:0:0:0:
320,192,107396,1,0,0:0:0:0:
192,192,107482,1,0,0:0:0:0:
320,192,107568,1,8,0:0:0:0:
448,192,107568,1,8,0:0:0:0:
192,192,107655,1,0,0:0:0:0:
64,192,107741,1,0,0:0:0:0:
320,192,107827,1,0,0:0:0:0:
192,192,107913,1,2,0:0:0:0:
64,192,107913,1,0,1:0:0:0:
448,192,107999,1,0,0:0:0:0:
192,192,108086,1,0,0:0:0:0:
448,192,108172,1,0,0:0:0:0:
64,192,108258,1,8,0:0:0:0:
320,192,108258,1,8,0:0:0:0:
192,192,108344,1,0,0:0:0:0:
448,192,108430,1,2,0:0:0:0:
192,192,108517,1,0,0:0:0:0:
64,192,108603,1,8,0:0:0:0:
320,192,108603,1,0,1:0:0:0:
192,192,108689,1,0,0:0:0:0:
448,192,108775,1,2,0:0:0:0:
192,192,108862,1,0,0:0:0:0:
64,192,108948,1,8,0:0:0:0:
320,192,108948,1,8,0:0:0:0:
448,192,109034,1,0,0:0:0:0:
320,192,109120,1,0,0:0:0:0:
192,192,109206,1,0,0:0:0:0:
64,192,109293,1,2,0:0:0:0:
448,192,109293,1,0,1:0:0:0:
320,192,109379,1,0,0:0:0:0:
192,192,109465,1,0,0:0:0:0:
64,192,109551,1,0,0:0:0:0:
320,192,109637,1,8,0:0:0:0:
448,192,109637,1,8,0:0:0:0:
64,192,109724,1,0,0:0:0:0:
448,192,109810,1,0,0:0:0:0:
64,192,109896,1,0,0:0:0:0:
320,192,109982,1,2,0:0:0:0:
448,192,109982,1,0,1:0:0:0:
64,192,110068,1,0,0:0:0:0:
448,192,110155,1,0,0:0:0:0:
64,192,110241,1,0,0:0:0:0:
192,192,110327,1,8,0:0:0:0:
448,192,110327,1,8,0:0:0:0:
320,192,110413,1,0,0:0:0:0:
192,192,110499,1,0,0:0:0:0:
64,192,110586,1,0,0:0:0:0:
448,192,110672,1,2,0:0:0:0:
192,192,110672,1,0,1:0:0:0:
320,192,110758,1,0,0:0:0:0:
448,192,110844,1,0,0:0:0:0:
320,192,110930,1,0,0:0:0:0:
64,192,111017,1,8,0:0:0:0:
192,192,111017,1,8,0:0:0:0:
320,192,111103,1,0,0:0:0:0:
192,192,111189,1,0,0:0:0:0:
320,192,111275,1,0,0:0:0:0:
64,192,111362,1,0,1:0:0:0:
192,192,111362,1,0,0:0:0:0:
448,192,111448,1,0,1:0:0:0:
64,192,111534,1,0,1:0:0:0:
448,192,111620,1,0,1:0:0:0:
64,192,111706,1,2,0:0:0:0:
320,192,111879,1,2,0:0:0:0:
448,192,111965,1,2,0:0:0:0:
192,192,112051,1,2,0:0:0:0:
64,192,112137,1,2,0:0:0:0:
320,192,112310,1,2,0:0:0:0:
448,192,112396,1,2,0:0:0:0:
64,192,112568,1,2,0:0:0:0:
192,192,112741,1,2,0:0:0:0:
320,192,112913,128,2,113258:0:0:0:0:
448,192,113258,128,2,113775:0:0:0:0:
64,192,113775,128,2,113948:0:0:0:0:
320,192,114120,1,2,0:0:0:0:
448,192,114293,1,2,0:0:0:0:
320,192,114465,1,2,0:0:0:0:
192,192,114637,1,2,0:0:0:0:
64,192,114810,1,2,0:0:0:0:
448,192,114982,1,2,0:0:0:0:
320,192,115155,1,2,0:0:0:0:
192,192,115327,1,2,0:0:0:0:
320,192,115499,1,2,0:0:0:0:
448,192,115672,128,2,115930:0:0:0:0:
320,192,116017,1,2,0:0:0:0:
192,192,116189,1,2,0:0:0:0:
64,192,116362,128,2,117224:0:0:0:0:
448,192,117224,1,2,0:0:0:0:
320,192,117310,1,2,0:0:0:0:
192,192,117396,1,2,0:0:0:0:
64,192,117482,1,2,0:0:0:0:
448,192,117568,1,2,0:0:0:0:
320,192,117741,1,2,0:0:0:0:
192,192,117827,1,2,0:0:0:0:
64,192,117913,1,2,0:0:0:0:
448,192,117999,1,2,0:0:0:0:
320,192,118086,1,2,0:0:0:0:
192,192,118258,1,2,0:0:0:0:
64,192,118344,1,2,0:0:0:0:
448,192,118430,1,2,0:0:0:0:
320,192,118517,1,2,0:0:0:0:
192,192,118603,1,2,0:0:0:0:
64,192,118775,1,2,0:0:0:0:
448,192,118862,1,2,0:0:0:0:
320,192,118948,1,2,0:0:0:0:
192,192,119034,1,2,0:0:0:0:
64,192,119120,1,2,0:0:0:0:
448,192,119293,1,2,0:0:0:0:
320,192,119379,1,2,0:0:0:0:
192,192,119465,1,2,0:0:0:0:
64,192,119551,1,2,0:0:0:0:
448,192,119637,1,2,0:0:0:0:
320,192,119810,1,2,0:0:0:0:
192,192,119896,1,2,0:0:0:0:
64,192,119982,1,2,0:0:0:0:
448,192,120068,1,2,0:0:0:0:
320,192,120155,1,2,0:0:0:0:
192,192,120327,1,2,0:0:0:0:
64,192,120413,1,2,0:0:0:0:
448,192,120499,1,2,0:0:0:0:
320,192,120586,1,2,0:0:0:0:
192,192,120672,1,2,0:0:0:0:
448,192,120844,128,2,121189:0:0:0:0:
320,192,121189,1,2,0:0:0:0:
192,192,121362,1,2,0:0:0:0:
64,192,121534,1,2,0:0:0:0:
192,192,121706,1,2,0:0:0:0:
320,192,121879,128,2,123775:0:0:0:0:
64,192,125155,1,8,0:0:0:0:
192,192,125155,1,0,1:0:0:0:
448,192,125241,1,8,0:0:0:0:
64,192,125327,1,8,0:0:0:0:
448,192,125413,1,8,0:0:0:0:
64,192,125499,1,4,0:0:0:0:
192,192,125499,1,4,0:0:0:0:
320,192,125499,1,0,0:0:0:0:
320,192,125672,1,0,0:0:0:0:
448,192,125758,1,0,0:0:0:0:
64,192,125844,1,4,3:0:0:0:
192,192,125844,1,0,1:0:0:0:
448,192,125930,1,0,0:0:0:0:
320,192,126017,1,0,0:0:0:0:
192,192,126103,1,0,0:0:0:0:
64,192,126189,1,8,3:0:0:0:
448,192,126189,1,0,0:0:0:0:
320,192,126362,1,8,3:0:0:0:
448,192,126534,1,4,3:0:0:0:
64,192,126534,128,0,126706:1:0:0:0:
448,192,126706,128,0,127051:0:0:0:0:
320,192,126879,1,8,3:0:0:0:
192,192,126879,1,0,0:0:0:0:
64,192,127051,128,0,127224:0:0:0:0:
448,192,127224,128,4,127396:3:0:0:0:
320,192,127224,1,0,1:0:0:0:
64,192,127396,128,0,127568:0:0:0:0:
448,192,127568,128,8,127741:3:0:0:0:
320,192,127568,1,0,0:0:0:0:
192,192,127655,1,0,0:0:0:0:
64,192,127741,128,8,127913:3:0:0:0:
192,192,127827,1,0,0:0:0:0:
448,192,127913,128,4,128086:3:0:0:0:
320,192,127913,1,0,1:0:0:0:
64,192,128086,128,0,128258:0:0:0:0:
448,192,128258,1,8,3:0:0:0:
320,192,128258,1,0,0:0:0:0:
192,192,128430,1,0,0:0:0:0:
64,192,128603,1,0,1:0:0:0:
448,192,128603,1,4,3:0:0:0:
192,192,128689,1,0,0:0:0:0:
448,192,128775,1,0,0:0:0:0:
320,192,128862,1,0,0:0:0:0:
448,192,128948,1,8,3:0:0:0:
64,192,128948,1,0,0:0:0:0:
192,192,129034,1,0,0:0:0:0:
64,192,129120,1,8,3:0:0:0:
320,192,129206,1,0,0:0:0:0:
64,192,129293,1,4,3:0:0:0:
448,192,129293,1,0,1:0:0:0:
192,192,129465,1,8,3:0:0:0:
64,192,129637,1,4,3:0:0:0:
448,192,129637,1,0,1:0:0:0:
192,192,129810,1,8,3:0:0:0:
320,192,129810,1,0,0:0:0:0:
64,192,130155,128,4,130586:0:0:0:0:
448,192,130155,128,4,130586:0:0:0:0:
192,192,130155,1,0,0:0:0:0:
320,192,130499,1,0,1:0:0:0:
192,192,130586,1,0,1:0:0:0:
448,192,130672,1,0,1:0:0:0:
320,192,130672,1,0,0:0:0:0:
64,192,130758,1,0,1:0:0:0:
448,192,130844,1,0,1:0:0:0:
64,192,130930,1,0,1:0:0:0:
448,192,131017,1,4,0:0:0:0:
320,192,131017,1,4,0:0:0:0:
192,192,131103,1,0,0:0:0:0:
64,192,131189,1,0,0:0:0:0:
192,192,131275,1,0,0:0:0:0:
64,192,131362,1,8,1:0:0:0:
64,192,131534,1,0,0:0:0:0:
448,192,131620,1,0,0:0:0:0:
320,192,131706,1,8,3:0:0:0:
448,192,131793,1,0,0:0:0:0:
320,192,131879,1,4,3:0:0:0:
320,192,132051,1,8,1:0:0:0:
192,192,132137,1,0,0:0:0:0:
64,192,132224,1,0,0:0:0:0:
192,192,132310,1,0,0:0:0:0:
320,192,132396,1,0,1:0:0:0:
320,192,132568,1,0,0:0:0:0:
192,192,132655,1,0,0:0:0:0:
320,192,132741,1,8,1:0:0:0:
192,192,132827,1,0,0:0:0:0:
320,192,132913,1,0,0:0:0:0:
320,192,133086,1,8,3:0:0:0:
448,192,133172,1,0,0:0:0:0:
320,192,133258,1,4,3:0:0:0:
64,192,133344,1,0,0:0:0:0:
192,192,133430,1,8,1:0:0:0:
192,192,133603,1,0,0:0:0:0:
320,192,133689,1,0,0:0:0:0:
192,192,133775,1,0,1:0:0:0:
320,192,133862,1,0,0:0:0:0:
448,192,133948,1,0,0:0:0:0:
448,192,134120,1,8,1:0:0:0:
64,192,134206,1,0,0:0:0:0:
448,192,134293,1,0,0:0:0:0:
64,192,134379,1,0,0:0:0:0:
448,192,134465,1,8,3:0:0:0:
448,192,134637,128,4,135155:3:0:0:0:
64,192,134810,1,4,3:0:0:0:
192,192,134896,1,4,3:0:0:0:
320,192,134982,1,4,3:0:0:0:
64,192,135155,1,8,3:0:0:0:
192,192,135155,1,0,0:0:0:0:
320,192,135327,1,8,3:0:0:0:
192,192,135327,1,0,0:0:0:0:
320,192,135499,1,4,3:0:0:0:
448,192,135499,1,0,0:0:0:0:
448,192,135672,1,4,0:0:0:0:
64,192,135672,1,4,0:0:0:0:
448,192,135844,1,0,1:0:0:0:
320,192,135930,1,0,1:0:0:0:
448,192,136017,1,8,0:0:0:0:
64,192,136017,1,0,1:0:0:0:
192,192,136103,1,8,0:0:0:0:
320,192,136189,1,8,0:0:0:0:
192,192,136275,1,0,1:0:0:0:
64,192,136362,1,8,0:0:0:0:
448,192,136362,1,0,1:0:0:0:
320,192,136448,1,8,0:0:0:0:
64,192,136534,128,4,136706:0:0:0:0:
448,192,136534,1,4,0:0:0:0:
192,192,136706,1,0,0:0:0:0:
320,192,136793,1,0,0:0:0:0:
192,192,136879,128,4,137051:3:0:0:0:
64,192,136879,1,0,1:0:0:0:
320,192,137051,1,0,0:0:0:0:
448,192,137137,1,0,0:0:0:0:
320,192,137224,128,8,137396:3:0:0:0:
192,192,137224,1,0,0:0:0:0:
448,192,137396,1,8,3:0:0:0:
192,192,137482,1,0,0:0:0:0:
320,192,137568,1,4,3:0:0:0:
64,192,137568,1,0,1:0:0:0:
192,192,137741,1,0,0:0:0:0:
320,192,137913,128,8,138086:3:0:0:0:
64,192,137913,1,0,0:0:0:0:
192,192,138086,128,0,138258:0:0:0:0:
64,192,138258,128,4,138430:3:0:0:0:
320,192,138258,1,0,1:0:0:0:
448,192,138430,128,0,138775:0:0:0:0:
192,192,138517,1,0,0:0:0:0:
64,192,138603,1,0,0:0:0:0:
320,192,138603,1,0,0:0:0:0:
192,192,138689,1,0,0:0:0:0:
320,192,138775,128,8,138948:3:0:0:0:
64,192,138862,1,0,0:0:0:0:
192,192,138948,128,4,139120:3:0:0:0:
448,192,138948,1,0,1:0:0:0:
64,192,139120,128,0,139293:0:0:0:0:
448,192,139293,1,8,3:0:0:0:
320,192,139293,1,0,0:0:0:0:
192,192,139465,1,0,0:0:0:0:
192,192,139637,1,4,3:0:0:0:
64,192,139637,1,0,1:0:0:0:
448,192,139724,1,0,0:0:0:0:
320,192,139810,1,0,0:0:0:0:
64,192,139896,1,0,0:0:0:0:
192,192,139982,1,8,3:0:0:0:
448,192,139982,1,0,0:0:0:0:
320,192,140068,1,0,0:0:0:0:
448,192,140155,1,8,3:0:0:0:
192,192,140241,1,0,0:0:0:0:
64,192,140327,1,4,3:0:0:0:
448,192,140327,1,0,1:0:0:0:
320,192,140499,1,8,3:0:0:0:
192,192,140586,1,8,3:0:0:0:
64,192,140672,1,4,3:0:0:0:
448,192,140672,1,0,0:0:0:0:
320,192,140844,1,8,3:0:0:0:
192,192,140844,1,0,0:0:0:0:
64,192,141189,128,4,141534:0:0:0:0:
448,192,141189,128,4,141534:0:0:0:0:
320,192,141189,1,0,0:0:0:0:
192,192,141534,1,0,1:0:0:0:
320,192,141620,1,0,1:0:0:0:
64,192,141706,1,0,1:0:0:0:
192,192,141706,1,0,0:0:0:0:
448,192,141793,1,0,1:0:0:0:
64,192,141879,1,0,1:0:0:0:
448,192,141965,1,0,1:0:0:0:
192,192,142051,1,4,3:0:0:0:
64,192,142051,1,0,0:0:0:0:
320,192,142224,1,0,0:0:0:0:
192,192,142396,1,2,0:0:0:0:
448,192,142396,1,0,1:0:0:0:
320,192,142568,1,0,0:0:0:0:
64,192,142741,1,8,0:0:0:0:
192,192,142741,1,8,0:0:0:0:
448,192,142913,1,0,0:0:0:0:
192,192,143086,1,2,0:0:0:0:
320,192,143086,1,0,1:0:0:0:
64,192,143258,1,0,0:0:0:0:
320,192,143430,1,8,0:0:0:0:
448,192,143430,1,8,0:0:0:0:
320,192,143603,1,0,0:0:0:0:
64,192,143775,1,2,0:0:0:0:
448,192,143775,1,0,1:0:0:0:
192,192,143948,1,8,3:0:0:0:
320,192,144034,1,4,3:0:0:0:
192,192,144120,1,4,3:0:0:0:
64,192,144120,1,0,0:0:0:0:
320,192,144293,1,8,3:0:0:0:
192,192,144465,1,8,3:0:0:0:
448,192,144465,1,0,1:0:0:0:
320,192,144637,1,8,3:0:0:0:
192,192,144724,1,4,3:0:0:0:
64,192,144810,1,8,0:0:0:0:
448,192,144810,1,0,0:0:0:0:
64,192,144982,1,8,0:0:0:0:
448,192,145068,1,0,0:0:0:0:
64,192,145155,1,2,0:0:0:0:
320,192,145327,1,8,0:0:0:0:
192,192,145413,1,0,0:0:0:0:
320,192,145499,1,2,0:0:0:0:
448,192,145672,1,8,0:0:0:0:
64,192,145758,1,0,0:0:0:0:
448,192,145844,1,2,0:0:0:0:
320,192,146017,1,8,0:0:0:0:
192,192,146103,1,0,0:0:0:0:
320,192,146189,1,2,0:0:0:0:
64,192,146362,1,8,0:0:0:0:
320,192,146448,1,0,0:0:0:0:
64,192,146534,1,2,0:0:0:0:
448,192,146706,1,8,0:0:0:0:
192,192,146793,1,0,0:0:0:0:
448,192,146879,1,2,0:0:0:0:
192,192,147051,1,8,0:0:0:0:
64,192,147051,1,0,1:0:0:0:
320,192,147137,1,8,0:0:0:0:
448,192,147224,1,8,0:0:0:0:
320,192,147310,1,8,0:0:0:0:
192,192,147396,1,8,0:0:0:0:
320,192,147482,1,8,0:0:0:0:
64,192,147568,1,4,0:0:0:0:
192,192,147568,1,4,0:0:0:0:
320,192,147741,1,0,0:0:0:0:
64,192,147827,1,0,0:0:0:0:
320,192,147913,1,4,3:0:0:0:
192,192,147913,1,0,1:0:0:0:
448,192,147999,1,0,0:0:0:0:
320,192,148086,1,0,0:0:0:0:
64,192,148172,1,0,0:0:0:0:
192,192,148258,1,8,3:0:0:0:
448,192,148258,1,0,0:0:0:0:
320,192,148430,1,8,3:0:0:0:
64,192,148603,1,4,3:0:0:0:
192,192,148603,1,0,1:0:0:0:
320,192,148775,128,0,149120:0:0:0:0:
448,192,148948,1,0,0:0:0:0:
64,192,148948,1,8,3:0:0:0:
192,192,149120,128,0,149293:0:0:0:0:
320,192,149293,128,4,149465:3:0:0:0:
64,192,149293,1,0,1:0:0:0:
448,192,149465,128,0,149637:0:0:0:0:
320,192,149637,128,8,149810:3:0:0:0:
192,192,149637,1,0,0:0:0:0:
64,192,149724,1,0,0:0:0:0:
192,192,149810,128,8,149982:3:0:0:0:
448,192,149896,1,0,0:0:0:0:
320,192,149982,128,4,150155:3:0:0:0:
64,192,149982,1,0,1:0:0:0:
448,192,150155,128,0,150327:0:0:0:0:
64,192,150327,1,8,3:0:0:0:
192,192,150327,1,0,0:0:0:0:
320,192,150499,1,0,0:0:0:0:
64,192,150672,1,4,3:0:0:0:
448,192,150672,1,0,1:0:0:0:
320,192,150758,1,0,0:0:0:0:
192,192,150844,1,0,0:0:0:0:
320,192,150930,1,0,0:0:0:0:
448,192,151017,1,8,3:0:0:0:
64,192,151017,1,0,0:0:0:0:
320,192,151103,1,0,0:0:0:0:
192,192,151189,1,8,3:0:0:0:
64,192,151275,1,0,0:0:0:0:
448,192,151362,1,4,3:0:0:0:
192,192,151362,1,0,1:0:0:0:
320,192,151534,1,8,3:0:0:0:
448,192,151706,1,4,3:0:0:0:
64,192,151706,1,0,1:0:0:0:
192,192,151879,1,8,3:0:0:0:
320,192,151879,1,0,1:0:0:0:
64,192,152224,128,4,152568:0:0:0:0:
448,192,152224,128,4,152568:0:0:0:0:
320,192,152224,1,0,0:0:0:0:
192,192,152568,1,0,1:0:0:0:
320,192,152655,1,0,1:0:0:0:
64,192,152741,1,0,0:0:0:0:
192,192,152741,1,0,1:0:0:0:
448,192,152827,1,0,1:0:0:0:
64,192,152913,1,0,1:0:0:0:
448,192,152999,1,0,1:0:0:0:
192,192,153086,1,4,0:0:0:0:
64,192,153086,128,4,153258:0:0:0:0:
448,192,153258,1,0,0:0:0:0:
320,192,153344,1,0,0:0:0:0:
192,192,153430,1,8,1:0:0:0:
448,192,153603,128,0,153775:0:0:0:0:
320,192,153775,1,8,3:0:0:0:
192,192,153862,1,0,0:0:0:0:
64,192,153948,1,4,3:0:0:0:
320,192,154120,128,8,154293:1:0:0:0:
448,192,154293,1,0,0:0:0:0:
192,192,154379,1,0,0:0:0:0:
64,192,154465,1,0,1:0:0:0:
192,192,154637,128,0,154810:0:0:0:0:
448,192,154810,1,8,1:0:0:0:
320,192,154896,1,0,0:0:0:0:
192,192,154982,1,0,0:0:0:0:
64,192,155155,128,8,155327:3:0:0:0:
448,192,155327,1,4,3:0:0:0:
320,192,155413,1,0,0:0:0:0:
192,192,155499,1,8,1:0:0:0:
64,192,155672,128,0,155844:0:0:0:0:
448,192,155844,1,0,1:0:0:0:
320,192,155930,1,0,0:0:0:0:
192,192,156017,1,0,0:0:0:0:
448,192,156189,128,8,156362:3:0:0:0:
64,192,156362,1,0,0:0:0:0:
192,192,156448,1,0,0:0:0:0:
320,192,156534,1,8,3:0:0:0:
64,192,156706,128,4,157051:3:0:0:0:
192,192,156879,1,4,3:0:0:0:
320,192,156965,1,4,3:0:0:0:
448,192,157051,128,4,157224:3:0:0:0:
320,192,157224,128,4,157396:3:0:0:0:
64,192,157396,1,8,3:0:0:0:
192,192,157396,128,0,157568:0:0:0:0:
448,192,157568,1,4,3:0:0:0:
320,192,157568,128,0,157741:0:0:0:0:
64,192,157741,128,4,158086:0:0:0:0:
448,192,157741,128,4,158086:0:0:0:0:
192,192,157913,1,0,1:0:0:0:
320,192,157999,1,0,1:0:0:0:
192,192,158086,1,8,0:0:0:0:
320,192,158172,1,8,0:0:0:0:
64,192,158258,1,8,0:0:0:0:
192,192,158258,1,0,1:0:0:0:
448,192,158344,1,0,1:0:0:0:
320,192,158430,1,8,0:0:0:0:
192,192,158517,1,8,0:0:0:0:
320,192,158603,1,4,0:0:0:0:
448,192,158603,1,4,0:0:0:0:
192,192,158775,1,0,0:0:0:0:
64,192,158862,1,0,0:0:0:0:
448,192,158948,1,4,3:0:0:0:
320,192,158948,1,0,1:0:0:0:
192,192,159120,1,0,0:0:0:0:
320,192,159206,1,0,0:0:0:0:
448,192,159293,1,8,3:0:0:0:
64,192,159293,1,0,0:0:0:0:
320,192,159465,1,8,3:0:0:0:
448,192,159637,1,4,3:0:0:0:
192,192,159637,1,0,1:0:0:0:
448,192,159810,128,0,160155:0:0:0:0:
192,192,159982,1,8,3:0:0:0:
64,192,159982,1,0,0:0:0:0:
320,192,160155,128,0,160327:0:0:0:0:
192,192,160327,128,4,160499:3:0:0:0:
64,192,160327,1,0,1:0:0:0:
448,192,160499,128,0,160672:0:0:0:0:
64,192,160586,1,0,3:0:0:0:
320,192,160672,128,8,160844:3:0:0:0:
192,192,160672,1,0,0:0:0:0:
448,192,160758,1,0,0:0:0:0:
64,192,160844,128,8,161017:3:0:0:0:
320,192,160930,1,0,3:0:0:0:
192,192,161017,128,4,161189:3:0:0:0:
448,192,161017,1,0,1:0:0:0:
320,192,161189,128,4,161362:3:0:0:0:
64,192,161189,1,0,0:0:0:0:
192,192,161362,1,8,3:0:0:0:
448,192,161362,1,0,1:0:0:0:
64,192,161534,1,4,3:0:0:0:
448,192,161534,1,0,1:0:0:0:
192,192,161706,1,4,3:0:0:0:
64,192,161706,1,0,1:0:0:0:
448,192,161793,1,4,3:0:0:0:
320,192,161793,1,0,1:0:0:0:
192,192,161879,1,8,3:0:0:0:
64,192,161965,1,4,3:0:0:0:
448,192,162051,1,8,3:0:0:0:
320,192,162051,1,0,1:0:0:0:
64,192,162137,1,4,3:0:0:0:
192,192,162137,1,0,1:0:0:0:
448,192,162224,1,8,3:0:0:0:
64,192,162310,1,4,3:0:0:0:
192,192,162310,1,0,1:0:0:0:
320,192,162396,1,4,3:0:0:0:
448,192,162396,1,0,1:0:0:0:
192,192,162568,1,8,3:0:0:0:
320,192,162568,1,0,0:0:0:0:
64,192,162741,1,4,3:0:0:0:
448,192,162741,1,4,3:0:0:0:
192,192,162913,1,8,3:0:0:0:
320,192,162913,1,8,3:0:0:0:
64,192,163086,1,4,3:0:0:0:
448,192,163086,1,4,3:0:0:0:
64,192,163258,128,4,163603:0:0:0:0:
448,192,163258,128,4,163603:0:0:0:0:
192,192,163258,1,0,0:0:0:0:
320,192,163430,1,0,1:0:0:0:
192,192,163517,1,0,1:0:0:0:
320,192,163603,1,0,1:0:0:0:
192,192,163689,1,0,1:0:0:0:
64,192,163775,1,0,1:0:0:0:
320,192,163775,1,0,0:0:0:0:
448,192,163862,1,0,1:0:0:0:
64,192,163948,1,0,1:0:0:0:
448,192,164034,1,0,1:0:0:0:
64,192,164120,1,4,3:0:0:0:
320,192,164120,1,0,0:0:0:0:
192,192,164293,1,0,0:0:0:0:
64,192,164465,1,2,0:0:0:0:
192,192,164465,1,0,1:0:0:0:
320,192,164637,1,0,0:0:0:0:
320,192,164810,1,4,3:0:0:0:
448,192,164810,1,0,0:0:0:0:
192,192,164982,1,0,0:0:0:0:
320,192,165068,1,0,0:0:0:0:
64,192,165155,1,2,0:0:0:0:
448,192,165155,1,0,1:0:0:0:
320,192,165327,1,8,0:3:0:0:
192,192,165413,1,4,0:3:0:0:
64,192,165499,1,8,0:3:0:0:
448,192,165499,1,0,0:0:0:0:
192,192,165672,1,8,3:0:0:0:
320,192,165758,1,4,3:0:0:0:
64,192,165844,1,8,3:0:0:0:
448,192,165844,1,0,1:0:0:0:
320,192,166017,1,8,3:0:0:0:
192,192,166103,1,4,3:0:0:0:
320,192,166189,1,8,3:0:0:0:
448,192,166189,1,0,0:0:0:0:
64,192,166362,1,8,3:0:0:0:
192,192,166419,1,8,3:0:0:0:
320,192,166476,1,8,3:0:0:0:
64,192,166534,1,4,3:0:0:0:
448,192,166534,1,0,1:0:0:0:
192,192,166620,1,0,1:0:0:0:
320,192,166706,1,4,3:0:0:0:
64,192,166706,1,0,1:0:0:0:
64,192,166879,1,4,3:0:0:0:
448,192,166879,1,4,3:0:0:0:
192,192,167051,1,8,0:0:0:0:
320,192,167137,1,0,0:0:0:0:
64,192,167224,1,2,0:0:0:0:
192,192,167224,1,0,1:0:0:0:
448,192,167396,1,8,0:0:0:0:
192,192,167482,1,0,0:0:0:0:
320,192,167568,1,2,0:0:0:0:
448,192,167568,1,0,1:0:0:0:
64,192,167741,1,8,0:0:0:0:
320,192,167827,1,0,0:0:0:0:
192,192,167913,1,2,0:0:0:0:
448,192,167913,1,0,1:0:0:0:
320,192,168086,1,8,0:0:0:0:
64,192,168172,1,0,0:0:0:0:
192,192,168258,1,2,0:0:0:0:
320,192,168258,1,0,1:0:0:0:
448,192,168430,1,8,0:0:0:0:
320,192,168517,1,0,0:0:0:0:
64,192,168603,1,2,0:0:0:0:
192,192,168603,1,0,0:0:0:0:
64,192,168775,1,8,0:0:0:0:
192,192,168862,1,0,0:0:0:0:
320,192,168948,1,2,0:0:0:0:
448,192,168948,1,0,0:0:0:0:
64,192,169120,1,8,0:0:0:0:
320,192,169120,1,0,1:0:0:0:
448,192,169206,1,8,0:0:0:0:
64,192,169293,1,8,0:0:0:0:
448,192,169379,1,8,0:0:0:0:
64,192,169465,1,8,0:0:0:0:
448,192,169551,1,8,0:0:0:0:
64,192,169637,1,4,0:0:0:0:
320,192,169637,1,4,0:0:0:0:
192,192,169637,1,0,0:0:0:0:
448,192,169810,1,0,0:0:0:0:
64,192,169982,1,2,0:0:0:0:
192,192,169982,1,0,1:0:0:0:
320,192,170155,1,0,0:0:0:0:
448,192,170327,1,8,0:0:0:0:
192,192,170327,1,8,0:0:0:0:
320,192,170499,1,0,0:0:0:0:
448,192,170672,1,2,0:0:0:0:
64,192,170672,1,0,1:0:0:0:
192,192,170844,1,0,0:0:0:0:
448,192,171017,1,8,0:0:0:0:
320,192,171017,1,8,0:0:0:0:
192,192,171189,1,0,0:0:0:0:
64,192,171362,1,2,0:0:0:0:
448,192,171362,1,0,1:0:0:0:
192,192,171534,1,0,0:0:0:0:
64,192,171706,1,8,0:0:0:0:
320,192,171706,1,8,0:0:0:0:
192,192,171879,1,2,0:0:0:0:
448,192,172051,1,8,0:0:0:0:
320,192,172051,1,0,1:0:0:0:
192,192,172224,1,2,0:0:0:0:
64,192,172396,1,8,0:0:0:0:
320,192,172396,1,8,0:0:0:0:
448,192,172568,1,0,0:0:0:0:
64,192,172741,1,2,0:0:0:0:
192,192,172741,1,0,1:0:0:0:
320,192,172913,1,0,0:0:0:0:
448,192,173086,1,8,0:0:0:0:
192,192,173086,1,8,0:0:0:0:
320,192,173258,1,0,0:0:0:0:
64,192,173430,1,2,0:0:0:0:
448,192,173430,1,0,1:0:0:0:
192,192,173603,1,0,0:0:0:0:
448,192,173775,1,8,0:0:0:0:
64,192,173775,1,8,0:0:0:0:
320,192,173948,1,0,0:0:0:0:
448,192,174120,1,2,0:0:0:0:
192,192,174120,1,0,1:0:0:0:
320,192,174293,1,0,0:0:0:0:
64,192,174465,1,8,0:0:0:0:
448,192,174465,1,8,0:0:0:0:
192,192,174637,1,2,0:0:0:0:
64,192,174810,1,8,0:0:0:0:
320,192,174810,1,0,1:0:0:0:
448,192,174896,1,8,0:0:0:0:
64,192,174982,1,8,0:0:0:0:
448,192,175068,1,8,0:0:0:0:
64,192,175155,1,4,0:0:0:0:
320,192,175155,1,4,0:0:0:0:
192,192,175155,1,0,0:0:0:0:
448,192,175241,1,0,0:0:0:0:
320,192,175327,1,0,0:0:0:0:
448,192,175413,1,0,0:0:0:0:
192,192,175499,1,2,0:0:0:0:
64,192,175586,1,0,0:0:0:0:
448,192,175672,1,0,0:0:0:0:
320,192,175758,1,0,0:0:0:0:
64,192,175844,1,8,0:0:0:0:
320,192,175930,1,0,0:0:0:0:
448,192,176017,1,0,0:0:0:0:
320,192,176103,1,0,0:0:0:0:
64,192,176189,1,2,0:0:0:0:
320,192,176275,1,0,0:0:0:0:
448,192,176362,1,0,0:0:0:0:
320,192,176448,1,0,0:0:0:0:
64,192,176534,1,8,0:0:0:0:
192,192,176620,1,0,0:0:0:0:
448,192,176706,1,0,0:0:0:0:
192,192,176793,1,0,0:0:0:0:
320,192,176879,1,2,0:0:0:0:
448,192,176965,1,0,0:0:0:0:
192,192,177051,1,0,0:0:0:0:
448,192,177137,1,0,0:0:0:0:
192,192,177224,1,8,0:0:0:0:
64,192,177310,1,0,0:0:0:0:
192,192,177396,1,2,0:0:0:0:
448,192,177482,1,0,0:0:0:0:
192,192,177568,1,8,0:0:0:0:
64,192,177655,1,0,0:0:0:0:
192,192,177741,1,2,0:0:0:0:
320,192,177827,1,0,0:0:0:0:
64,192,177913,1,8,0:0:0:0:
448,192,177999,1,0,0:0:0:0:
320,192,178086,1,0,0:0:0:0:
192,192,178172,1,0,0:0:0:0:
64,192,178258,1,2,0:0:0:0:
192,192,178344,1,0,0:0:0:0:
320,192,178430,1,0,0:0:0:0:
64,192,178517,1,0,0:0:0:0:
320,192,178603,1,8,0:0:0:0:
448,192,178689,1,0,0:0:0:0:
192,192,178775,1,0,0:0:0:0:
64,192,178862,1,0,0:0:0:0:
320,192,178948,1,2,0:0:0:0:
448,192,179034,1,0,0:0:0:0:
192,192,179120,1,0,0:0:0:0:
320,192,179206,1,0,0:0:0:0:
192,192,179293,1,8,0:0:0:0:
320,192,179379,1,0,0:0:0:0:
448,192,179465,1,0,0:0:0:0:
320,192,179551,1,0,0:0:0:0:
192,192,179637,1,2,0:0:0:0:
64,192,179724,1,0,0:0:0:0:
448,192,179810,1,0,0:0:0:0:
320,192,179896,1,0,0:0:0:0:
192,192,179982,1,8,0:0:0:0:
64,192,179982,1,8,0:0:0:0:
320,192,180155,1,8,1:0:0:0:
448,192,180155,1,8,0:0:0:0:
320,192,180327,1,8,1:0:0:0:
448,192,180327,1,8,0:0:0:0:
64,192,180499,1,8,0:0:0:0:
192,192,180499,1,0,1:0:0:0:
448,192,180586,1,8,0:0:0:0:
64,192,180672,1,4,0:0:0:0:
192,192,180672,1,4,0:0:0:0:
320,192,180672,1,0,0:0:0:0:
448,192,180758,1,0,0:0:0:0:
320,192,180844,1,0,0:0:0:0:
192,192,180930,1,0,0:0:0:0:
64,192,181017,1,2,0:0:0:0:
448,192,181017,1,0,1:0:0:0:
320,192,181103,1,0,0:0:0:0:
192,192,181189,1,0,0:0:0:0:
320,192,181275,1,0,0:0:0:0:
64,192,181362,1,8,0:0:0:0:
448,192,181362,1,8,0:0:0:0:
320,192,181448,1,0,0:0:0:0:
192,192,181534,1,0,0:0:0:0:
320,192,181620,1,0,0:0:0:0:
64,192,181706,1,2,0:0:0:0:
448,192,181706,1,0,1:0:0:0:
192,192,181793,1,0,0:0:0:0:
320,192,181879,1,0,0:0:0:0:
448,192,181965,1,0,0:0:0:0:
320,192,182051,1,8,0:0:0:0:
64,192,182051,1,8,0:0:0:0:
192,192,182137,1,0,0:0:0:0:
64,192,182224,1,0,0:0:0:0:
192,192,182310,1,0,0:0:0:0:
320,192,182396,1,2,0:0:0:0:
64,192,182396,1,0,1:0:0:0:
448,192,182482,1,0,0:0:0:0:
320,192,182568,1,0,0:0:0:0:
192,192,182655,1,0,0:0:0:0:
64,192,182741,1,8,0:0:0:0:
320,192,182741,1,8,0:0:0:0:
448,192,182827,1,0,0:0:0:0:
320,192,182913,1,2,0:0:0:0:
192,192,182999,1,0,0:0:0:0:
64,192,183086,1,8,0:0:0:0:
320,192,183086,1,0,1:0:0:0:
192,192,183172,1,0,0:0:0:0:
448,192,183258,1,2,0:0:0:0:
192,192,183344,1,0,0:0:0:0:
448,192,183430,1,8,0:0:0:0:
64,192,183430,1,8,0:0:0:0:
320,192,183517,1,0,0:0:0:0:
64,192,183603,1,0,0:0:0:0:
320,192,183689,1,0,0:0:0:0:
64,192,183775,1,2,0:0:0:0:
448,192,183775,1,0,1:0:0:0:
192,192,183862,1,0,0:0:0:0:
448,192,183948,1,0,0:0:0:0:
192,192,184034,1,0,0:0:0:0:
448,192,184120,1,8,0:0:0:0:
64,192,184120,1,8,0:0:0:0:
192,192,184206,1,0,0:0:0:0:
448,192,184293,1,0,0:0:0:0:
192,192,184379,1,0,0:0:0:0:
448,192,184465,1,2,0:0:0:0:
64,192,184465,1,0,1:0:0:0:
320,192,184551,1,0,0:0:0:0:
448,192,184637,1,0,0:0:0:0:
192,192,184724,1,0,0:0:0:0:
64,192,184810,1,8,0:0:0:0:
448,192,184810,1,8,0:0:0:0:
320,192,184896,1,0,0:0:0:0:
448,192,184982,1,0,0:0:0:0:
64,192,185068,1,0,0:0:0:0:
192,192,185155,1,2,0:0:0:0:
320,192,185155,1,0,1:0:0:0:
448,192,185241,1,0,0:0:0:0:
320,192,185327,1,0,0:0:0:0:
192,192,185413,1,0,0:0:0:0:
64,192,185499,1,8,0:0:0:0:
448,192,185499,1,8,0:0:0:0:
320,192,185586,1,0,0:0:0:0:
448,192,185672,1,2,0:0:0:0:
64,192,185758,1,0,0:0:0:0:
192,192,185844,1,8,0:0:0:0:
320,192,185844,1,8,0:0:0:0:
448,192,185930,1,0,0:0:0:0:
320,192,186017,1,2,0:0:0:0:
192,192,186103,1,0,0:0:0:0:
320,192,186189,1,4,3:0:0:0:
448,192,186189,1,0,0:0:0:0:
64,192,186189,1,0,1:0:0:0:
192,192,186275,1,8,3:0:0:0:
448,192,186362,1,4,3:0:0:0:
64,192,186448,1,4,3:0:0:0:
320,192,186534,1,4,3:0:0:0:
448,192,186534,1,0,0:0:0:0:
192,192,186620,1,8,3:0:0:0:
448,192,186706,1,4,3:0:0:0:
64,192,186793,1,4,3:0:0:0:
320,192,186879,1,4,0:0:0:0:
448,192,186879,1,0,0:0:0:0:
192,192,186965,1,8,3:0:0:0:
448,192,187051,1,4,3:0:0:0:
64,192,187137,1,4,3:0:0:0:
320,192,187224,1,4,0:0:0:0:
448,192,187224,1,0,0:0:0:0:
192,192,187310,1,8,3:0:0:0:
448,192,187396,1,4,3:0:0:0:
64,192,187482,1,4,3:0:0:0:
448,192,187568,1,4,3:0:0:0:
320,192,187568,1,0,0:0:0:0:
192,192,187655,1,8,3:0:0:0:
320,192,187741,1,4,3:0:0:0:
64,192,187827,1,4,3:0:0:0:
448,192,187913,1,4,3:0:0:0:
320,192,187913,1,0,0:0:0:0:
192,192,187999,1,8,3:0:0:0:
320,192,188086,1,4,3:0:0:0:
64,192,188172,1,4,3:0:0:0:
448,192,188258,1,4,0:0:0:0:
320,192,188258,1,2,0:0:0:0:
192,192,188344,1,8,3:0:0:0:
320,192,188430,1,4,3:0:0:0:
64,192,188517,1,4,3:0:0:0:
448,192,188603,1,4,0:0:0:0:
320,192,188603,1,2,0:0:0:0:
192,192,188689,1,8,3:0:0:0:
320,192,188775,1,4,3:0:0:0:
64,192,188862,1,4,3:0:0:0:
448,192,188948,1,4,0:0:0:0:
320,192,188948,1,0,0:0:0:0:
192,192,189034,1,8,3:0:0:0:
64,192,189034,1,0,0:0:0:0:
448,192,189120,1,4,3:0:0:0:
320,192,189206,1,4,3:0:0:0:
448,192,189293,1,4,3:0:0:0:
64,192,189293,1,0,0:0:0:0:
320,192,189379,1,8,3:0:0:0:
192,192,189379,1,0,0:0:0:0:
64,192,189465,1,4,3:0:0:0:
192,192,189551,1,4,3:0:0:0:
448,192,189637,1,4,0:0:0:0:
320,192,189637,1,0,0:0:0:0:
192,192,189724,1,8,3:0:0:0:
64,192,189724,1,0,0:0:0:0:
320,192,189810,1,4,3:0:0:0:
192,192,189896,1,4,3:0:0:0:
448,192,189982,1,4,0:0:0:0:
64,192,189982,1,0,0:0:0:0:
320,192,190068,1,8,3:0:0:0:
192,192,190068,1,0,0:0:0:0:
64,192,190155,1,4,3:0:0:0:
192,192,190241,1,4,3:0:0:0:
320,192,190327,1,4,3:0:0:0:
448,192,190327,1,0,0:0:0:0:
192,192,190413,1,8,3:0:0:0:
64,192,190413,1,0,0:0:0:0:
320,192,190499,1,4,3:0:0:0:
448,192,190586,1,4,3:0:0:0:
192,192,190672,1,12,3:0:0:0:
64,192,190758,1,8,3:0:0:0:
192,192,190844,1,12,3:0:0:0:
320,192,190930,1,4,3:0:0:0:
448,192,191017,1,8,3:0:0:0:
64,192,191017,1,0,0:0:0:0:
320,192,191103,1,4,3:0:0:0:
192,192,191189,1,4,3:0:0:0:
448,192,191275,1,4,3:0:0:0:
320,192,191362,1,4,3:0:0:0:
192,192,191362,1,0,0:0:0:0:
448,192,191448,1,8,3:0:0:0:
192,192,191534,1,4,3:0:0:0:
64,192,191620,1,4,3:0:0:0:
192,192,191706,1,4,3:0:0:0:
448,192,191706,1,0,0:0:0:0:
320,192,191793,1,8,3:0:0:0:
64,192,191879,1,4,3:0:0:0:
448,192,191965,1,8,3:0:0:0:
320,192,192051,1,4,3:0:0:0:
320,192,192224,1,8,3:0:0:0:
192,192,192224,1,8,3:0:0:0:
64,192,192568,1,4,3:0:0:0:
448,192,192568,1,4,3:0:0:0:
64,192,192913,128,4,193517:0:0:0:0:
448,192,192913,128,4,193517:0:0:0:0:
192,192,192913,128,0,193517:0:0:0:0:
