osu file format v14

[General]
AudioFilename: Meikaruza.mp3
AudioLeadIn: 1000
PreviewTime: 13250
Countdown: 0
SampleSet: Soft
StackLeniency: 0.7
Mode: 0
LetterboxInBreaks: 0
WidescreenStoryboard: 0

[Editor]
Bookmarks: 13250,38950,51750,64550,77350,102950,114950,128550,141350,154150,186050,217250,225350
DistanceSpacing: 1.1
BeatDivisor: 2
GridSize: 32
TimelineZoom: 1.8

[Metadata]
Title:Meikaruza
TitleUnicode:メイカルーザ
Artist:Nanahoshi Kangengakudan
ArtistUnicode:ナナホシ管弦楽団
Creator:pkk
Version:Easy
Source:
Tags:Iron Quality MONSTER BEERGARDEN jazz fujun isei kouyuu p fujuniseikouyuup 不純異性交遊p illicit sexual relations monaka モナカ
BeatmapID:701037
BeatmapSetID:302756

[Difficulty]
HPDrainRate:2.5
CircleSize:3
OverallDifficulty:2.5
ApproachRate:2.5
SliderMultiplier:0.450000005960465
SliderTickRate:1

[Events]
//Background and Video events
0,0,"BG.jpg",0,0
//Break Periods
2,103150,107850
2,109550,111050
2,211550,212950
//Storyboard Layer 0 (Background)
//Storyboard Layer 1 (Fail)
//Storyboard Layer 2 (Pass)
//Storyboard Layer 3 (Foreground)
//Storyboard Sound Samples

[TimingPoints]
550,200,4,2,1,50,1,0
12550,-100,4,2,1,70,0,0
13250,-100,4,2,1,70,0,1
25850,-100,4,2,1,60,0,0
26050,-100,4,2,1,70,0,1
37250,-100,4,2,1,50,0,0
64550,-100,4,2,1,60,0,0
76650,-100,4,2,1,70,0,0
76950,-100,4,2,1,50,0,0
77350,-100,4,2,1,70,0,1
89750,-100,4,2,1,60,0,0
90150,-100,4,2,1,70,0,1
101350,-100,4,2,1,50,0,0
102950,-100,4,2,1,40,0,0
115650,-100,4,2,1,55,0,0
141350,-100,4,2,1,60,0,0
153750,-100,4,2,1,40,0,0
154150,-100,4,2,1,40,0,0
154550,-100,4,2,1,70,0,1
166550,-100,4,2,1,60,0,0
166950,-100,4,2,1,70,0,1
178150,-100,4,2,1,50,0,0
178950,-100,4,2,1,60,0,0
179350,-100,4,2,1,65,0,0
179950,-100,4,2,1,70,0,1
182950,-100,4,2,1,50,0,1
183050,-100,4,2,1,70,0,1
184550,-100,4,2,1,60,0,0
186050,-100,4,2,1,70,0,1
198650,-100,4,2,1,60,0,0
198850,-100,4,2,1,70,0,1
211450,-100,4,2,1,20,0,0
214450,-100,4,2,1,60,0,0
224600,-100,4,2,1,5,0,0

[Colours]
Combo1 : 243,90,73
Combo2 : 98,210,166
Combo3 : 238,133,83
Combo4 : 75,118,188

[HitObjects]
216,46,550,6,0,P|171:118|221:186,1,180.000002384186,0|0,3:0|3:0,0:0:0:0:
310,143,1750,1,0,3:0:0:0:
399,186,2150,2,0,L|495:177,2,90.0000011920929,0|0|0,3:0|3:0|3:0,0:0:0:0:
310,143,3350,1,0,3:0:0:0:
220,101,3750,6,0,B|190:147|217:185|249:235|212:275,1,180.000002384186,0|0,3:0|3:0,0:0:0:0:
122,312,4950,1,0,3:0:0:0:
51,241,5350,2,0,L|33:144,1,90.0000011920929,0|0,3:0|3:0,0:0:0:0:
113,92,6150,2,0,L|129:180,1,90.0000011920929,0|8,3:0|3:1,0:0:0:0:
222,216,6950,6,0,B|283:201|283:201|331:228|331:228|396:213,1,180.000002384186,0|0,3:0|3:0,0:0:0:0:
445,131,8150,1,0,3:0:0:0:
386,50,8550,2,0,P|341:34|292:43,2,90.0000011920929,0|0|0,3:0|3:0|3:0,0:0:0:0:
445,131,9750,1,0,3:0:0:0:
374,201,10150,6,0,L|388:296,1,90.0000011920929,0|0,3:0|3:0,0:0:0:0:
294,326,10950,2,0,P|234:263|150:282,1,180.000002384186,0|0,3:0|3:0,0:0:0:0:
64,331,12150,1,0,3:0:0:0:
2,253,12550,2,0,L|12:163,1,90.0000011920929,8|0,0:0|3:0,0:0:0:0:
56,103,13250,6,0,P|103:130|167:116,1,112.500001490116,4|2,0:0|1:0,0:0:0:0:
228,50,14150,2,0,P|294:38|357:104,1,157.500002086163,2|4,1:0|1:2,0:0:0:0:
270,187,15350,1,2,1:0:0:0:
332,264,15750,2,0,P|398:276|461:210,1,157.500002086163,2|4,1:0|3:2,0:0:0:0:
421,99,16950,5,2,1:0:0:0:
332,143,17350,2,0,B|277:152|277:152|226:132|226:132|172:142,1,157.500002086163,2|4,1:0|3:2,0:0:0:0:
113,35,18550,1,2,1:2:0:0:
29,87,18950,2,0,P|6:166|57:224,1,157.500002086163,2|4,1:0|3:2,0:0:0:0:
172,227,20150,5,0,1:0:0:0:
245,160,20550,2,0,P|288:146|331:157,1,90.000001192093,0|0,1:0|1:0,0:0:0:0:
414,208,21350,2,0,P|430:163|417:112,1,90.000001192093,2|0,1:0|0:0,0:0:0:0:
346,58,22150,2,0,P|282:98|212:68,1,157.500002086163,0|4,3:0|3:2,0:0:0:0:
98,116,23350,6,0,L|3:106,2,90.000001192093,4|4|2,0:3|0:3|1:0,0:0:0:0:
187,158,24550,2,0,P|215:215|187:285,1,135.00000178814,0|8,1:0|0:0,0:0:0:0:
287,308,25550,2,0,L|408:289,1,112.500001490116,8|4,0:0|0:0,0:0:0:0:
468,188,26550,5,2,1:0:0:0:
399,116,26950,2,0,L|234:91,1,157.500002086163,2|4,1:0|3:2,0:0:0:0:
124,128,28150,1,2,1:0:0:0:
208,179,28550,2,0,P|232:250|181:310,1,157.500002086163,2|4,1:0|3:2,0:0:0:0:
63,278,29750,5,2,1:0:0:0:
8,195,30150,2,0,P|23:121|98:96,1,157.500002086163,2|4,1:0|0:0,0:0:0:0:
194,170,31350,1,0,1:0:0:0:
264,100,31750,2,0,B|299:82|346:104|381:131|432:94,1,157.500002086163,2|4,1:0|3:2,0:0:0:0:
507,187,32950,5,0,1:0:0:0:
451,269,33350,2,0,B|416:287|369:265|334:238|283:275,1,157.500002086163,2|4,1:0|3:2,0:0:0:0:
198,191,34550,1,2,1:0:0:0:
107,231,34950,2,0,P|64:162|101:87,1,157.500002086163,0|4,0:0|1:0,0:0:0:0:
256,192,35850,12,0,37250,0:0:0:0:
384,70,38350,6,0,L|409:183,1,112.500001490116,2|4,0:0|3:2,0:0:0:0:
353,291,39350,5,0,3:0:0:0:
276,228,39750,2,0,P|211:195|125:234,1,157.500002086163,0|2,3:0|3:2,0:0:0:0:
36,147,40950,1,2,3:2:0:0:
111,82,41350,2,0,L|205:98,1,90.000001192093,2|2,3:2|3:2,0:0:0:0:
274,162,42150,6,0,L|362:146,1,90.000001192093,0|0,0:0|3:0,0:0:0:0:
407,57,42950,2,0,P|456:113|447:198,1,157.500002086163,0|2,3:0|0:0,0:0:0:0:
357,267,44150,1,0,3:0:0:0:
278,206,44550,2,0,B|237:183|201:205|156:230|114:199,1,157.500002086163,0|4,3:0|3:2,0:0:0:0:
68,95,45750,5,0,3:0:0:0:
160,59,46150,2,0,L|249:99,1,90.000001192093,0|0,3:0|3:0,0:0:0:0:
333,58,46950,1,0,0:0:0:0:
429,79,47350,2,0,P|456:123|451:178,1,90.000001192093,2|0,3:2|3:0,0:0:0:0:
371,211,48150,2,0,P|344:255|349:310,1,90.000001192093,0|0,3:0|0:0,0:0:0:0:
251,328,48950,6,0,P|215:287|174:274,1,90.000001192093,10|8,0:0|0:0,0:0:0:0:
83,272,49750,1,0,0:0:0:0:
41,181,50150,1,0,3:0:0:0:
114,111,50550,2,0,L|216:133,1,90.000001192093,0|2,3:0|0:0,0:0:0:0:
291,87,51350,1,0,3:0:0:0:
389,96,51750,6,0,P|434:167|410:244,1,157.500002086163,2|2,0:0|0:0,0:0:0:0:
311,299,52950,2,0,L|213:288,1,90.000001192093,0|0,3:0|0:0,0:0:0:0:
242,192,53750,2,0,L|152:202,1,90.000001192093,0|0,3:0|0:0,0:0:0:0:
78,136,54550,1,2,0:0:0:0:
137,56,54950,6,0,B|176:36|221:59|266:85|323:58,1,180.000002384186,0|0,0:0|3:0,0:0:0:0:
408,35,56150,2,0,P|435:58|453:88,1,67.5000008940698,0|0,3:0|3:0,0:0:0:0:
405,199,56950,1,0,3:0:0:0:
314,159,57350,2,0,B|275:139|239:161|199:183|160:167,1,157.500002086163,0|2,3:0|3:2,0:0:0:0:
65,246,58550,5,0,3:0:0:0:
141,308,58950,2,0,B|186:313|186:313|241:288|241:288|278:297|304:283,1,157.500002086163,0|2,3:0|0:0,0:0:0:0:
364,187,60150,1,0,3:0:0:0:
447,240,60550,6,0,P|464:188|450:145,1,90.000001192093,2|2,0:0|3:2,0:0:0:0:
381,90,61350,2,0,B|343:107|298:83|298:83|246:108|197:86,1,180.000002384186,2|0,0:0|3:0,0:0:0:0:
128,30,62550,1,0,3:0:0:0:
40,76,62950,6,0,P|20:115|30:172,1,90.000001192093,4|0,0:0|3:0,0:0:0:0:
103,218,63750,2,0,P|123:179|113:122,1,90.000001192093,0|0,3:0|3:0,0:0:0:0:
193,69,64550,5,4,0:0:0:0:
280,115,64950,2,0,L|410:105,2,112.500001490116,14|8|6,0:0|0:0|3:2,0:0:0:0:
208,183,66350,2,0,L|78:173,2,112.500001490116,0|6|10,3:0|3:2|0:0,0:0:0:0:
276,254,67750,6,0,P|302:289|344:303,1,90.000001192093,4|6,3:2|0:0,0:0:0:0:
437,268,68550,2,0,P|468:198|441:137,1,135.00000178814,2|6,3:2|0:0,0:0:0:0:
325,64,69750,1,8,0:0:0:0:
245,122,70150,2,0,L|138:109,1,90.000001192093,0|0,3:0|3:0,0:0:0:0:
67,156,70950,5,6,0:0:0:0:
204,298,71750,1,6,0:0:0:0:
365,183,72550,2,0,P|415:176|466:199,2,90.000001192093,6|6|2,0:0|0:0|3:2,0:0:0:0:
281,235,73750,1,2,3:2:0:0:
201,176,74150,6,0,L|90:168,1,90.000001192093,6|14,3:2|0:0,0:0:0:0:
54,88,74950,2,0,L|165:80,1,90.000001192093,0|12,3:0|0:0,0:0:0:0:
237,48,75750,6,0,P|266:68|301:81,1,67.5000008940698,8|0,0:0|3:0,0:0:0:0:
386,39,76450,2,0,P|417:50|444:70,1,67.5000008940698,12|0,0:0|3:0,0:0:0:0:
419,216,77350,6,0,B|379:237|337:216|289:195|242:216,1,180.000002384186,4|2,3:2|0:0,0:0:0:0:
164,277,78550,1,4,0:0:0:0:
72,240,78950,2,0,P|32:163|74:78,1,180.000002384186,0|2,1:0|3:2,0:0:0:0:
158,44,80150,1,0,3:0:0:0:
226,115,80550,5,2,3:2:0:0:
317,77,80950,2,0,L|424:85,2,90.000001192093,0|2|0,3:0|0:0|3:0,0:0:0:0:
226,115,82150,2,0,P|184:137|126:135,1,90.000001192093,2|2,3:2|3:2,0:0:0:0:
48,105,82950,2,0,B|26:156|53:192|82:236|52:284,1,180.000002384186,2|6,3:2|0:0,0:0:0:0:
137,333,84150,5,2,3:2:0:0:
217,275,84550,2,0,L|319:266,1,90.000001192093,2|2,3:2|3:2,0:0:0:0:
394,313,85350,2,0,P|431:270|438:227,1,90.000001192093,2|2,3:2|3:2,0:0:0:0:
430,139,86150,1,2,3:2:0:0:
337,103,86550,1,2,3:2:0:0:
262,168,86950,5,4,3:2:0:0:
200,90,87350,2,0,P|155:72|100:77,1,90.000001192093,2|0,0:0|0:0,0:0:0:0:
38,136,88150,2,0,L|55:208,1,67.5000008940698,2|6,0:0|0:0,0:0:0:0:
177,204,88950,2,0,L|201:299,1,90.000001192093,2|0,0:0|0:0,0:0:0:0:
291,255,89750,1,0,1:0:0:0:
390,269,90150,6,0,P|424:236|394:109,1,180.000002384186,6|0,0:0|0:0,0:0:0:0:
319,64,91350,1,6,3:2:0:0:
222,85,91750,2,0,P|174:157|207:237,1,180.000002384186,0|0,0:0|0:0,0:0:0:0:
287,295,92950,1,2,3:2:0:0:
357,224,93350,6,0,L|448:216,1,90.000001192093,2|0,3:2|3:0,0:0:0:0:
488,127,94150,2,0,L|397:119,1,90.000001192093,2|2,3:2|3:2,0:0:0:0:
330,47,94950,1,6,0:0:0:0:
250,105,95350,1,0,3:0:0:0:
157,70,95750,2,0,P|131:108|129:165,1,90.000001192093,0|4,3:0|0:0,0:0:0:0:
191,224,96550,6,0,L|280:215,1,90.000001192093,6|2,3:2|3:2,0:0:0:0:
312,121,97350,2,0,L|401:130,1,90.000001192093,6|2,3:2|3:2,0:0:0:0:
476,193,98150,2,0,P|504:111|447:47,1,180.000002384186,4|4,3:2|3:2,0:0:0:0:
359,91,99350,1,0,3:0:0:0:
270,46,99750,6,0,P|226:36|181:35,1,90.000001192093,2|0,3:2|3:0,0:0:0:0:
121,114,100550,2,0,P|164:123|209:124,1,90.000001192093,2|0,0:0|3:0,0:0:0:0:
285,188,101350,1,4,0:0:0:0:
437,61,102150,6,0,L|438:140,1,67.5000008940698,0|8,1:0|0:0,0:0:0:0:
437,252,102950,1,2,0:0:0:0:
256,192,109350,5,0,3:0:0:0:
119,98,112550,6,0,L|228:83,1,90.000001192093,0|0,3:0|3:0,0:0:0:0:
289,142,113350,2,0,L|398:157,1,90.000001192093,0|0,3:0|3:0,0:0:0:0:
459,97,114150,2,0,P|478:153|464:200,1,90.000001192093,0|0,3:0|3:0,0:0:0:0:
400,250,114950,1,10,0:0:0:0:
256,153,115650,6,0,B|226:137|199:159|163:179|130:154,1,112.500001490116,4|2,3:2|3:2,0:0:0:0:
106,72,116550,2,0,P|66:99|48:154,1,90.000001192093,0|0,3:0|3:0,0:0:0:0:
76,231,117350,2,0,P|91:273|88:330,1,90.000001192093,2|2,0:0|3:2,0:0:0:0:
187,297,118150,2,0,P|226:270|288:264,1,90.000001192093,0|2,3:0|3:2,0:0:0:0:
360,295,118950,5,2,0:0:0:0:
432,227,119350,1,2,3:2:0:0:
367,151,119750,2,0,L|266:146,1,90.000001192093,2|2,3:2|3:2,0:0:0:0:
239,54,120550,6,0,P|202:77|181:117,2,90.000001192093,0|2|2,0:0|3:2|3:2,0:0:0:0:
333,20,121750,1,0,3:0:0:0:
404,88,122150,6,0,L|505:85,1,90.000001192093,4|2,0:0|3:2,0:0:0:0:
465,180,122950,2,0,L|364:183,1,90.000001192093,2|2,3:2|3:2,0:0:0:0:
305,112,123750,6,0,B|256:94|214:114|169:137|122:113,1,180.000002384186,0|2,0:0|3:2,0:0:0:0:
50,177,124950,1,2,3:2:0:0:
104,259,125350,1,0,0:0:0:0:
191,213,125750,6,0,B|240:195|282:215|327:238|374:214,1,180.000002384186,2|2,3:2|3:2,0:0:0:0:
447,158,126950,1,0,0:0:0:0:
366,100,127350,2,0,L|257:111,1,90.000001192093,0|0,3:0|0:0,0:0:0:0:
210,35,128150,6,0,L|132:43,1,67.5000008940698,2|4,0:0|0:0,0:0:0:0:
56,131,128950,1,0,3:0:0:0:
137,186,129350,2,0,P|163:228|158:275,1,90.000001192093,0|0,3:0|3:0,0:0:0:0:
227,340,130150,6,0,P|314:340|373:276,1,180.000002384186,0|0,0:0|3:0,0:0:0:0:
378,177,131350,1,2,3:2:0:0:
292,126,131750,2,0,L|189:126,1,90.000001192093,0|0,0:0|3:0,0:0:0:0:
156,214,132550,2,0,L|246:214,1,90.000001192093,2|2,3:2|3:2,0:0:0:0:
336,254,133350,6,0,P|372:280|416:284,2,90.000001192093,2|2|2,3:2|3:2|3:2,0:0:0:0:
409,187,134550,1,2,3:2:0:0:
480,118,134950,6,0,P|443:91|399:87,1,90.000001192093,6|2,0:0|3:2,0:0:0:0:
316,141,135750,2,0,P|279:167|235:171,1,90.000001192093,6|2,3:2|3:2,0:0:0:0:
177,91,136550,2,0,P|133:158|175:251,1,180.000002384186,6|6,3:2|3:2,0:0:0:0:
263,266,137750,1,2,0:0:0:0:
331,194,138150,6,0,P|375:187|431:198,1,90.000001192093,2|0,3:2|3:0,0:0:0:0:
376,283,138950,2,0,P|332:290|276:279,1,90.000001192093,0|2,0:0|3:2,0:0:0:0:
236,198,139750,1,4,3:2:0:0:
389,72,140550,6,0,P|404:112|395:165,1,90.000001192093,8|8,0:0|0:0,0:0:0:0:
325,223,141350,5,4,0:0:0:0:
255,151,141750,2,0,P|228:197|232:262,2,112.500001490116,14|8|6,0:0|0:0|3:2,0:0:0:0:
352,127,143150,2,0,P|382:80|378:23,2,112.500001490116,0|6|10,3:0|3:2|0:0,0:0:0:0:
254,111,144550,6,0,L|146:98,1,90.000001192093,4|6,3:2|0:0,0:0:0:0:
75,143,145350,2,0,P|47:203|73:263,1,135.00000178814,2|6,3:2|0:0,0:0:0:0:
213,314,146550,1,8,0:0:0:0:
292,254,146950,2,0,L|400:246,1,90.000001192093,0|0,3:0|3:0,0:0:0:0:
449,174,147750,5,6,0:0:0:0:
303,39,148550,1,6,0:0:0:0:
122,118,149350,2,0,P|105:160|112:205,2,90.000001192093,6|6|2,0:0|0:0|3:2,0:0:0:0:
207,68,150550,1,2,3:2:0:0:
290,121,150950,6,0,L|394:108,1,90.000001192093,6|14,3:2|0:0,0:0:0:0:
461,165,151750,2,0,P|441:213|445:256,1,90.000001192093,0|12,3:0|0:0,0:0:0:0:
358,301,152550,6,0,P|324:291|291:271,1,67.5000008940698,8|0,0:0|3:0,0:0:0:0:
197,285,153250,2,0,P|207:317|224:345,1,67.5000008940698,12|0,0:0|3:0,0:0:0:0:
437,219,154550,6,0,B|455:173|455:173|451:128,1,90.000001192093,0|2,3:0|0:0,0:0:0:0:
382,61,155350,1,4,0:0:0:0:
309,128,155750,2,0,P|224:160|133:115,1,180.000002384186,0|2,1:0|3:2,0:0:0:0:
91,44,156950,1,0,3:0:0:0:
8,98,157350,5,2,3:2:0:0:
65,178,157750,2,0,L|76:275,1,90.000001192093,0|2,3:0|0:0,0:0:0:0:
163,311,158550,1,0,3:0:0:0:
221,231,158950,2,0,P|277:207|321:213,2,90.000001192093,2|2|2,3:2|3:2|3:2,0:0:0:0:
163,311,160150,1,0,3:0:0:0:
79,258,160550,6,0,L|66:153,1,90.000001192093,6|2,0:0|3:2,0:0:0:0:
149,112,161350,2,0,L|160:201,1,90.000001192093,2|2,3:2|3:2,0:0:0:0:
235,265,162150,1,2,3:2:0:0:
314,206,162550,2,0,P|361:195|410:204,2,90.000001192093,2|2|2,3:2|3:2|3:2,0:0:0:0:
235,265,163750,6,0,P|185:212|205:127,1,157.500002086163,4|2,3:2|0:0,0:0:0:0:
287,47,164950,2,0,L|322:107,1,67.5000008940698,2|6,0:0|0:0,0:0:0:0:
442,128,165750,2,0,P|457:170|452:221,1,90.000001192093,2|0,0:0|0:0,0:0:0:0:
375,273,166550,1,0,1:0:0:0:
286,229,166950,6,0,B|224:218|224:218|175:243|175:243|105:227,1,180.000002384186,6|0,0:0|0:0,0:0:0:0:
66,142,168150,1,6,3:2:0:0:
141,77,168550,2,0,B|201:90|201:90|250:65|250:65|312:76,1,180.000002384186,0|0,0:0|0:0,0:0:0:0:
367,158,169750,1,2,3:2:0:0:
458,119,170150,6,0,P|489:150|500:193,1,90.000001192093,2|0,3:2|3:0,0:0:0:0:
414,241,170950,2,0,P|379:279|372:325,1,90.000001192093,2|2,3:2|3:2,0:0:0:0:
272,304,171750,2,0,L|171:297,2,90.000001192093,6|4|4,0:0|3:2|3:2,0:0:0:0:
320,217,172950,1,4,0:0:0:0:
353,123,173350,6,0,P|391:145|414:183,1,90.000001192093,6|2,3:2|3:2,0:0:0:0:
494,123,174150,2,0,L|509:19,1,90.000001192093,6|2,3:2|3:2,0:0:0:0:
408,24,174950,1,4,3:2:0:0:
332,88,175350,1,2,3:2:0:0:
237,59,175750,2,0,L|139:53,1,90.000001192093,4|0,3:2|3:0,0:0:0:0:
73,120,176550,6,0,P|131:184|96:278,1,180.000002384186,2|2,3:2|0:0,0:0:0:0:
188,325,177750,1,0,3:0:0:0:
258,254,178150,1,4,0:0:0:0:
441,179,178950,6,0,L|429:270,1,90.000001192093,10|10,0:0|0:0,0:0:0:0:
347,323,179750,2,0,L|335:233,1,90.000001192093,0|0,3:0|3:0,0:0:0:0:
280,151,180550,2,0,B|244:183|244:183|200:188,1,90.000001192093,2|2,0:0|0:0,0:0:0:0:
133,115,181350,1,4,0:0:0:0:
207,50,181750,1,4,0:0:0:0:
305,51,182150,6,0,P|362:82|365:201,1,180.000002384186,4|4,0:0|3:2,0:0:0:0:
306,261,183350,1,2,3:2:0:0:
220,211,183750,2,0,L|116:199,1,90.000001192093,2|2,0:0|3:2,0:0:0:0:
74,119,184550,1,4,0:0:0:0:
266,70,185350,6,0,L|350:61,1,67.5000008940698,0|8,1:0|0:0,0:0:0:0:
417,115,186050,6,0,P|442:167|425:227,1,112.500001490116,4|2,0:0|1:0,0:0:0:0:
335,245,186950,2,0,B|291:232|291:232|233:264|165:226,1,157.500002086163,2|4,1:0|1:2,0:0:0:0:
90,153,188150,1,2,1:0:0:0:
161,85,188550,2,0,B|209:71|243:92|278:116|327:87,1,157.500002086163,2|4,1:0|3:2,0:0:0:0:
415,20,189750,5,2,1:0:0:0:
493,80,190150,2,0,P|520:145|478:227,1,157.500002086163,2|4,1:0|3:2,0:0:0:0:
367,184,191350,1,2,1:2:0:0:
300,257,191750,2,0,B|240:253|240:253|204:228|204:228|139:224,1,157.500002086163,2|4,1:0|3:2,0:0:0:0:
58,142,192950,5,0,1:0:0:0:
132,77,193350,1,0,1:0:0:0:
209,138,193750,2,0,P|255:145|314:130,1,90.000001192093,0|2,1:0|1:0,0:0:0:0:
351,53,194550,2,0,P|395:45|439:53,1,90.000001192093,0|0,0:0|3:0,0:0:0:0:
501,131,195350,2,0,L|489:227,1,90.000001192093,0|0,1:0|0:0,0:0:0:0:
397,255,196150,6,0,L|408:165,2,90.000001192093,4|4|2,0:3|0:3|1:0,0:0:0:0:
318,315,197350,2,0,P|252:316|206:258,1,135.00000178814,8|0,0:0|0:0,0:0:0:0:
156,214,198250,2,0,L|117:353,1,135.00000178814,10|4,0:0|0:0,0:0:0:0:
45,245,199350,5,2,1:0:0:0:
87,155,199750,2,0,P|160:122|226:157,1,157.500002086163,2|4,1:0|3:2,0:0:0:0:
293,257,200950,1,2,1:0:0:0:
357,182,201350,2,0,B|400:160|461:195|461:195|522:170,1,157.500002086163,2|4,1:0|3:2,0:0:0:0:
492,55,202550,5,2,1:0:0:0:
395,32,202950,2,0,B|351:16|315:36|276:56|236:35,1,157.500002086163,2|4,1:0|0:0,0:0:0:0:
134,101,204150,1,0,1:0:0:0:
227,134,204550,2,0,P|254:204|211:267,1,157.500002086163,2|4,1:0|3:2,0:0:0:0:
317,332,205750,5,0,1:0:0:0:
406,290,206150,2,0,B|420:246|420:246|420:200|420:200|440:168|433:128,1,157.500002086163,2|4,1:0|3:2,0:0:0:0:
377,27,207350,1,2,1:0:0:0:
288,70,207750,2,0,B|282:100|302:132|302:132|302:178|302:178|316:222,1,157.500002086163,0|4,0:0|3:2,0:0:0:0:
256,192,208550,12,2,210050,3:2:0:0:
164,94,211350,5,8,3:2:0:0:
256,192,214450,12,8,216350,0:0:0:0:
255,191,217250,5,4,0:0:0:0:
256,192,217450,12,0,224600,0:0:0:0:
